osu file format v14

[General]
AudioFilename: twophace.mp3
AudioLeadIn: 0
PreviewTime: 48770
Countdown: 0
SampleSet: Normal
StackLeniency: 0.7
Mode: 1
LetterboxInBreaks: 0
WidescreenStoryboard: 0

[Editor]
DistanceSpacing: 2.8
BeatDivisor: 4
GridSize: 32
TimelineZoom: 1.7

[Metadata]
Title:Two Phace
TitleUnicode:Two Phace
Artist:litmus* vs. Sound Souler
ArtistUnicode:litmus* vs. Sound Souler
Creator:Capu
Version:Muzukashii
Source:BOFU2017 - LEGENDA EST A MYTH -
Tags:Dusk- _DUSK_ Genjuro CallMeLyra Electronic Instrumental BMS Muse Dash Overrapid Future Bass Dubstep Phase
BeatmapID:3524449
BeatmapSetID:1724528

[Difficulty]
HPDrainRate:6
CircleSize:2
OverallDifficulty:5
ApproachRate:10
SliderMultiplier:1.4
SliderTickRate:1

[Events]
//Background and Video events
0,0,"reflection.jpg",0,0
//Break Periods
2,73379,80324
//Storyboard Layer 0 (Background)
//Storyboard Layer 1 (Fail)
//Storyboard Layer 2 (Pass)
//Storyboard Layer 3 (Foreground)
//Storyboard Layer 4 (Overlay)
//Storyboard Sound Samples

[TimingPoints]
268,379.746835443038,4,1,0,100,1,0
9457,-99.3784756297023,4,1,0,100,0,0
9552,-98.7646293888166,4,1,0,100,0,0
9742,-97.5594091201028,4,1,0,100,0,0
9932,-96.3832487309645,4,1,0,100,0,0
10122,-95.2351097178683,4,1,0,100,0,0
10312,-94.1140024783147,4,1,0,100,0,0
10502,-93.0189834660135,4,1,0,100,0,0
10597,-92.4809741248097,4,1,0,100,0,0
10692,-91.9491525423729,4,1,0,100,0,0
10881,-90.9090909090909,4,1,0,100,0,0
11074,-92.5925925925926,4,1,0,100,0,0
11264,-94.3396226415094,4,1,0,100,0,0
11454,-96.1538461538461,4,1,0,100,0,0
12024,-90.9090909090909,4,1,0,100,0,0
12308,-100,4,1,0,100,0,0
33856,-99.3784756297023,4,1,0,100,0,0
34046,-98.7646293888166,4,1,0,100,0,0
34141,-98.4605412412899,4,1,0,100,0,0
34331,-97.8579481397971,4,1,0,100,0,0
34426,-97.5594091201028,4,1,0,100,0,0
34616,-96.9677625279285,4,1,0,100,0,0
34805,-96.386306672166,4,1,0,100,0,0
34995,-95.8087609196127,4,1,0,100,0,0
35185,-95.2380952380952,4,1,0,100,0,0
35375,-94.6741874162486,4,1,0,100,0,0
35565,-94.11691812014,4,1,0,100,0,0
35660,-93.8407363934021,4,1,0,100,0,0
35755,-93.5661708090794,4,1,0,100,0,0
35945,-93.0218316543678,4,1,0,100,0,0
36135,-92.4837894608664,4,1,0,100,0,0
36324,-91.9547188086446,4,1,0,100,0,0
36419,-91.6910632903751,4,1,0,100,0,0
36514,-91.4289153725773,4,1,0,100,0,0
36704,-90.9090909090909,4,1,0,100,0,0
36992,-100,4,1,0,100,0,0
46008,-98.7646293888166,4,1,0,100,0,0
46198,-97.5594091201028,4,1,0,100,0,0
46293,-96.9677625279285,4,1,0,100,0,0
46388,-96.3832487309645,4,1,0,100,0,0
46578,-95.2351097178683,4,1,0,100,0,0
46767,-94.1198339426234,4,1,0,100,0,0
46957,-93.0246800171474,4,1,0,100,0,0
47147,-91.9547188086446,4,1,0,100,0,0
47337,-90.9090909090909,4,1,0,100,0,0
47530,-92.5925925925926,4,1,0,100,0,0
47720,-94.3396226415094,4,1,0,100,0,0
47910,-96.1538461538461,4,1,0,100,0,0
48479,-100,4,1,0,100,0,0
48875,-90.9090909090909,4,1,0,100,0,1
49049,-100,4,1,0,100,0,1
60268,-100,4,1,0,100,0,0
61027,-83.3333333333333,4,1,0,100,0,0
61201,-111.111111111111,4,1,0,100,0,0
62166,-100,4,1,0,100,0,1
72799,-100,4,1,0,100,0,0
74587,-105.263157894737,4,1,0,70,0,0
76106,-111.111111111111,4,1,0,40,0,0
82277,-111.111111111111,4,1,0,50,0,0
83036,-111.111111111111,4,1,0,60,0,0
83796,-111.111111111111,4,1,0,70,0,0
84365,-111.111111111111,4,1,0,100,0,0
95945,-100,4,1,0,100,0,0
96043,-99.502487562189,4,1,0,100,0,0
96135,-98.7646293888166,4,1,0,100,0,0
96324,-97.5656753805639,4,1,0,100,0,0
96514,-96.3893648074116,4,1,0,100,0,0
96704,-95.2410809455138,4,1,0,100,0,0
96802,-94.7867298578199,4,1,0,100,0,0
96894,-94.1198339426234,4,1,0,100,0,0
97084,-93.0246800171474,4,1,0,100,0,0
97274,-91.9547188086446,4,1,0,100,0,0
97464,-90.9090909090909,4,1,0,100,0,0
97752,-100,4,1,0,100,0,0
106767,-98.7646293888166,4,1,0,100,0,0
106957,-97.5594091201028,4,1,0,100,0,0
107052,-96.9677625279285,4,1,0,100,0,0
107147,-96.3832487309645,4,1,0,100,0,0
107337,-95.2351097178683,4,1,0,100,0,0
107526,-94.1198339426234,4,1,0,100,0,0
107716,-93.0246800171474,4,1,0,100,0,0
107906,-91.9547188086446,4,1,0,100,0,0
108096,-90.9090909090909,4,1,0,100,0,0
108289,-92.5925925925926,4,1,0,100,0,0
108479,-94.3396226415094,4,1,0,100,0,0
108669,-96.1538461538461,4,1,0,100,0,0
109239,-100,4,1,0,100,0,0
109635,-90.9090909090909,4,1,0,100,0,1
109808,-100,4,1,0,100,0,1
121027,-100,4,1,0,100,0,0
121786,-83.3333333333333,4,1,0,100,0,0
122150,-111.111111111111,4,1,0,100,0,0
122926,-100,4,1,0,100,0,1
133559,-90.9090909090909,4,1,0,100,0,0
133827,-100,4,1,0,100,0,0

[HitObjects]
256,192,268,5,8,0:0:0:0:
256,192,647,1,8,0:0:0:0:
256,192,837,1,0,0:0:0:0:
256,192,1217,1,8,0:0:0:0:
256,192,1597,1,0,0:0:0:0:
256,192,1786,1,8,0:0:0:0:
256,192,2166,1,8,0:0:0:0:
256,192,2356,1,0,0:0:0:0:
256,192,2546,1,8,0:0:0:0:
256,192,2926,1,8,0:0:0:0:
256,192,3495,1,0,0:0:0:0:
256,192,3685,1,0,0:0:0:0:
256,192,3875,1,8,0:0:0:0:
256,192,4065,1,8,0:0:0:0:
256,192,4445,1,0,0:0:0:0:
256,192,4635,1,0,0:0:0:0:
256,192,5014,1,8,0:0:0:0:
256,192,5204,1,0,0:0:0:0:
256,192,5394,1,0,0:0:0:0:
256,192,5584,1,8,0:0:0:0:
256,192,5774,1,8,0:0:0:0:
256,192,5964,1,0,0:0:0:0:
256,192,6343,1,8,0:0:0:0:
256,192,6723,1,8,0:0:0:0:
256,192,6913,1,0,0:0:0:0:
256,192,7103,1,8,0:0:0:0:
256,192,7293,1,8,0:0:0:0:
256,192,7483,1,0,0:0:0:0:
256,192,7673,1,8,0:0:0:0:
256,192,7862,1,0,0:0:0:0:
256,192,8242,1,8,0:0:0:0:
256,192,8432,1,8,0:0:0:0:
256,192,8622,1,0,0:0:0:0:
256,192,9002,1,8,0:0:0:0:
256,192,9192,1,0,0:0:0:0:
256,192,9381,5,8,0:0:0:0:
256,192,9476,1,8,0:0:0:0:
256,192,9571,1,8,0:0:0:0:
256,192,9761,1,0,0:0:0:0:
256,192,9951,1,0,0:0:0:0:
256,192,10141,1,8,0:0:0:0:
256,192,10331,1,8,0:0:0:0:
256,192,10521,1,0,0:0:0:0:
256,192,10616,1,0,0:0:0:0:
256,192,10711,1,0,0:0:0:0:
256,192,10900,1,8,0:0:0:0:
256,192,11185,1,8,0:0:0:0:
256,192,11280,1,8,0:0:0:0:
256,192,11470,1,8,0:0:0:0:
256,192,12040,1,4,0:0:0:0:
256,192,12419,1,8,0:0:0:0:
256,192,12609,1,0,0:0:0:0:
256,192,12799,1,8,0:0:0:0:
256,192,13179,1,0,0:0:0:0:
256,192,13369,1,0,0:0:0:0:
256,192,13559,1,8,0:0:0:0:
256,192,13749,1,8,0:0:0:0:
256,192,14128,1,8,0:0:0:0:
256,192,14223,1,8,0:0:0:0:
256,192,14318,1,8,0:0:0:0:
256,192,14508,1,8,0:0:0:0:
256,192,14698,1,0,0:0:0:0:
256,192,14888,1,0,0:0:0:0:
256,192,15078,1,8,0:0:0:0:
256,192,15268,1,8,0:0:0:0:
256,192,15457,1,0,0:0:0:0:
256,192,15837,1,8,0:0:0:0:
256,192,16027,1,8,0:0:0:0:
256,192,16217,1,0,0:0:0:0:
256,192,16407,1,0,0:0:0:0:
256,192,16597,1,8,0:0:0:0:
256,192,16786,1,8,0:0:0:0:
256,192,17166,1,0,0:0:0:0:
256,192,17261,1,0,0:0:0:0:
256,192,17356,1,0,0:0:0:0:
256,192,17546,1,8,0:0:0:0:
256,192,17736,1,0,0:0:0:0:
256,192,17926,1,0,0:0:0:0:
256,192,18116,1,8,0:0:0:0:
256,192,18495,1,0,0:0:0:0:
256,192,18875,1,8,0:0:0:0:
256,192,19065,1,0,0:0:0:0:
256,192,19255,1,8,0:0:0:0:
256,192,19445,1,8,0:0:0:0:
256,192,19635,1,0,0:0:0:0:
256,192,19824,1,8,0:0:0:0:
256,192,20204,1,8,0:0:0:0:
256,192,20299,1,8,0:0:0:0:
256,192,20394,1,8,0:0:0:0:
256,192,20584,1,8,0:0:0:0:
256,192,20774,1,0,0:0:0:0:
256,192,20964,1,0,0:0:0:0:
256,192,21154,1,8,0:0:0:0:
262,186,21533,1,0,0:0:0:0:
256,192,21913,1,8,0:0:0:0:
256,192,22293,1,8,0:0:0:0:
256,192,22388,1,8,0:0:0:0:
256,192,22483,1,8,0:0:0:0:
256,192,22673,1,0,0:0:0:0:
256,192,22862,1,0,0:0:0:0:
256,192,23052,1,8,0:0:0:0:
256,192,23242,1,8,0:0:0:0:
256,192,23432,1,0,0:0:0:0:
256,192,23622,1,8,0:0:0:0:
256,192,23812,1,0,0:0:0:0:
256,192,24002,1,8,0:0:0:0:
256,192,24192,1,0,0:0:0:0:
256,192,24571,1,12,0:0:0:0:
256,192,24951,1,8,0:0:0:0:
256,192,25331,1,0,0:0:0:0:
256,192,25521,1,0,0:0:0:0:
256,192,25711,1,8,0:0:0:0:
256,192,25900,1,0,0:0:0:0:
256,192,26280,1,8,0:0:0:0:
256,192,26375,1,8,0:0:0:0:
256,192,26470,1,8,0:0:0:0:
256,192,26660,1,0,0:0:0:0:
256,192,26850,1,8,0:0:0:0:
256,192,27040,1,8,0:0:0:0:
256,192,27230,1,0,0:0:0:0:
256,192,27419,1,8,0:0:0:0:
256,192,27609,1,0,0:0:0:0:
256,192,27989,1,8,0:0:0:0:
256,192,28179,1,8,0:0:0:0:
256,192,28369,1,0,0:0:0:0:
256,192,28559,1,0,0:0:0:0:
256,192,28749,1,8,0:0:0:0:
256,192,28938,1,8,0:0:0:0:
256,192,29318,1,8,0:0:0:0:
256,192,29413,1,8,0:0:0:0:
256,192,29508,1,8,0:0:0:0:
256,192,29698,1,8,0:0:0:0:
256,192,29888,1,0,0:0:0:0:
256,192,30078,1,0,0:0:0:0:
256,192,30268,1,8,0:0:0:0:
256,192,30647,1,0,0:0:0:0:
256,192,31027,1,8,0:0:0:0:
256,192,31407,1,0,0:0:0:0:
256,192,31597,1,0,0:0:0:0:
256,192,31786,1,8,0:0:0:0:
256,192,31976,1,0,0:0:0:0:
256,192,32356,1,0,0:0:0:0:
256,192,32451,1,0,0:0:0:0:
256,192,32546,1,0,0:0:0:0:
256,192,32736,1,8,0:0:0:0:
256,192,32926,1,8,0:0:0:0:
256,192,33116,1,0,0:0:0:0:
256,192,33305,1,8,0:0:0:0:
256,192,33685,5,0,0:0:0:0:
256,192,33875,1,0,0:0:0:0:
256,192,34065,1,0,0:0:0:0:
256,192,34160,1,0,0:0:0:0:
256,192,34350,1,8,0:0:0:0:
256,192,34445,1,8,0:0:0:0:
256,192,34635,1,8,0:0:0:0:
256,192,34824,1,0,0:0:0:0:
256,192,35014,1,0,0:0:0:0:
256,192,35204,1,8,0:0:0:0:
256,192,35394,1,8,0:0:0:0:
256,192,35584,1,0,0:0:0:0:
256,192,35679,1,0,0:0:0:0:
256,192,35774,1,0,0:0:0:0:
256,192,35964,1,8,0:0:0:0:
256,192,36154,1,0,0:0:0:0:
256,192,36343,1,8,0:0:0:0:
256,192,36438,1,8,0:0:0:0:
256,192,36533,1,8,0:0:0:0:
256,192,36723,1,4,0:0:0:0:
256,192,37103,1,0,0:0:0:0:
256,192,37483,1,8,0:0:0:0:
256,192,37862,1,8,0:0:0:0:
256,192,38242,1,8,0:0:0:0:
256,192,38432,1,0,0:0:0:0:
256,192,38622,1,0,0:0:0:0:
256,192,39002,1,8,0:0:0:0:
256,192,39381,1,0,0:0:0:0:
256,192,39761,1,8,0:0:0:0:
256,192,39951,1,8,0:0:0:0:
256,192,40141,1,8,0:0:0:0:
256,192,40521,1,8,0:0:0:0:
256,192,40900,1,0,0:0:0:0:
256,192,41280,1,8,0:0:0:0:
256,192,41470,1,0,0:0:0:0:
256,192,41660,1,8,0:0:0:0:
256,192,41850,1,0,0:0:0:0:
256,192,42040,1,8,0:0:0:0:
256,192,42230,1,0,0:0:0:0:
256,192,42419,1,8,0:0:0:0:
256,192,42799,5,0,0:0:0:0:
256,192,43179,1,8,0:0:0:0:
256,192,43559,1,0,0:0:0:0:
256,192,43749,1,0,0:0:0:0:
256,192,43938,1,8,0:0:0:0:
256,192,44128,1,8,0:0:0:0:
256,192,44318,1,0,0:0:0:0:
256,192,44698,1,8,0:0:0:0:
256,192,45078,1,0,0:0:0:0:
256,192,45268,1,8,0:0:0:0:
256,192,45457,1,0,0:0:0:0:
256,192,45647,1,8,0:0:0:0:
256,192,45837,1,0,0:0:0:0:
256,192,46027,1,0,0:0:0:0:
256,192,46217,1,8,0:0:0:0:
256,192,46312,1,8,0:0:0:0:
256,192,46407,1,8,0:0:0:0:
256,192,46597,1,0,0:0:0:0:
256,192,46786,1,0,0:0:0:0:
256,192,46976,1,8,0:0:0:0:
256,192,47166,1,0,0:0:0:0:
256,192,47356,1,8,0:0:0:0:
256,192,47641,1,8,0:0:0:0:
256,192,47736,1,8,0:0:0:0:
256,192,47926,1,8,0:0:0:0:
256,192,48495,1,0,0:0:0:0:
256,192,48875,1,12,0:0:0:0:
256,192,49255,1,0,0:0:0:0:
256,192,49445,1,0,0:0:0:0:
256,192,49540,1,0,0:0:0:0:
256,192,49635,1,0,0:0:0:0:
256,192,49824,1,8,0:0:0:0:
256,192,50014,1,8,0:0:0:0:
256,192,50204,1,0,0:0:0:0:
256,192,50394,1,8,0:0:0:0:
256,192,50584,1,0,0:0:0:0:
256,192,50774,1,0,0:0:0:0:
256,192,51154,1,8,0:0:0:0:
256,192,51343,1,0,0:0:0:0:
256,192,51533,1,8,0:0:0:0:
256,192,51913,1,4,0:0:0:0:
256,192,52293,1,8,0:0:0:0:
256,192,52483,1,0,0:0:0:0:
256,192,52673,1,8,0:0:0:0:
256,192,52862,1,8,0:0:0:0:
256,192,53052,1,0,0:0:0:0:
256,192,53432,1,8,0:0:0:0:
256,192,53622,1,0,0:0:0:0:
256,192,53717,1,0,0:0:0:0:
256,192,53812,1,0,0:0:0:0:
256,192,54002,1,0,0:0:0:0:
256,192,54192,1,8,0:0:0:0:
256,192,54381,1,0,0:0:0:0:
256,192,54571,1,0,0:0:0:0:
256,192,54951,1,8,0:0:0:0:
256,192,55141,1,0,0:0:0:0:
256,192,55236,1,0,0:0:0:0:
256,192,55331,1,0,0:0:0:0:
256,192,55521,1,0,0:0:0:0:
256,192,55710,1,8,0:0:0:0:
256,192,55995,1,8,0:0:0:0:
256,192,56280,1,0,0:0:0:0:
256,192,56470,1,8,0:0:0:0:
256,192,57040,1,8,0:0:0:0:
256,192,57229,1,0,0:0:0:0:
256,192,57419,1,0,0:0:0:0:
256,192,57609,1,8,0:0:0:0:
256,192,57799,1,8,0:0:0:0:
256,192,57989,1,0,0:0:0:0:
256,192,58274,1,8,0:0:0:0:
256,192,58559,1,8,0:0:0:0:
256,192,58748,1,0,0:0:0:0:
256,192,59033,1,0,0:0:0:0:
256,192,59318,1,8,0:0:0:0:
256,192,59508,1,0,0:0:0:0:
256,192,59793,1,8,0:0:0:0:
256,192,60078,1,0,0:0:0:0:
256,192,60267,1,0,0:0:0:0:
256,192,60457,1,8,0:0:0:0:
256,192,60647,1,0,0:0:0:0:
256,192,60837,1,8,0:0:0:0:
256,192,61027,1,0,0:0:0:0:
256,192,61407,5,0,0:0:0:0:
256,192,61786,1,8,0:0:0:0:
256,192,62166,1,4,0:0:0:0:
256,192,62356,1,8,0:0:0:0:
256,192,62546,1,8,0:0:0:0:
256,192,62736,1,0,0:0:0:0:
256,192,62831,1,0,0:0:0:0:
256,192,62926,1,0,0:0:0:0:
256,192,63116,1,8,0:0:0:0:
256,192,63305,1,0,0:0:0:0:
256,192,63495,1,0,0:0:0:0:
256,192,63685,1,8,0:0:0:0:
256,192,63875,1,8,0:0:0:0:
256,192,64445,1,8,0:0:0:0:
256,192,64635,1,8,0:0:0:0:
256,192,64730,1,8,0:0:0:0:
256,192,64824,1,8,0:0:0:0:
256,192,65014,1,0,0:0:0:0:
256,192,65204,1,8,0:0:0:0:
256,192,65584,1,0,0:0:0:0:
256,192,65774,1,8,0:0:0:0:
256,192,65869,1,8,0:0:0:0:
256,192,65964,1,8,0:0:0:0:
256,192,66154,1,0,0:0:0:0:
256,192,66343,1,8,0:0:0:0:
256,192,66533,1,8,0:0:0:0:
256,192,66723,1,0,0:0:0:0:
256,192,67103,1,8,0:0:0:0:
256,192,67293,1,0,0:0:0:0:
256,192,67388,1,0,0:0:0:0:
256,192,67483,1,0,0:0:0:0:
256,192,67673,1,0,0:0:0:0:
256,192,67862,1,8,0:0:0:0:
256,192,68147,1,8,0:0:0:0:
256,192,68432,1,0,0:0:0:0:
256,192,68622,1,8,0:0:0:0:
256,192,69192,1,8,0:0:0:0:
256,192,69381,1,0,0:0:0:0:
256,192,69571,1,0,0:0:0:0:
256,192,69761,1,8,0:0:0:0:
256,192,69951,1,8,0:0:0:0:
256,192,70141,1,0,0:0:0:0:
256,192,70426,1,8,0:0:0:0:
256,192,70711,1,8,0:0:0:0:
256,192,70900,1,0,0:0:0:0:
256,192,71185,1,0,0:0:0:0:
256,192,71470,1,8,0:0:0:0:
256,192,71660,1,0,0:0:0:0:
256,192,71945,1,8,0:0:0:0:
256,192,72230,1,8,0:0:0:0:
256,192,72419,1,0,0:0:0:0:
256,192,72514,1,0,0:0:0:0:
256,192,72609,1,0,0:0:0:0:
256,192,72799,1,12,0:0:0:0:
256,192,73179,1,4,0:0:0:0:
256,192,80774,12,0,83812,0:0:0:0:
256,192,84571,5,0,0:0:0:0:
256,192,84761,1,0,0:0:0:0:
256,192,84856,1,0,0:0:0:0:
256,192,84951,1,0,0:0:0:0:
256,192,85141,1,0,0:0:0:0:
256,192,85331,1,8,0:0:0:0:
256,192,85521,1,8,0:0:0:0:
256,192,85711,1,0,0:0:0:0:
256,192,86090,1,8,0:0:0:0:
256,192,86470,1,0,0:0:0:0:
256,192,86660,1,8,0:0:0:0:
256,192,86850,1,0,0:0:0:0:
256,192,87040,1,8,0:0:0:0:
256,192,87230,1,8,0:0:0:0:
256,192,87609,1,8,0:0:0:0:
256,192,87799,1,8,0:0:0:0:
256,192,87989,1,8,0:0:0:0:
256,192,88369,1,8,0:0:0:0:
256,192,88559,1,8,0:0:0:0:
256,192,88749,1,0,0:0:0:0:
256,192,89128,1,8,0:0:0:0:
256,192,89318,1,0,0:0:0:0:
256,192,89508,1,8,0:0:0:0:
256,192,89698,1,8,0:0:0:0:
256,192,89888,1,0,0:0:0:0:
256,192,90268,1,8,0:0:0:0:
256,192,90457,1,8,0:0:0:0:
256,192,90647,1,0,0:0:0:0:
256,192,90837,1,8,0:0:0:0:
256,192,91027,1,0,0:0:0:0:
256,192,91407,1,8,0:0:0:0:
256,192,91597,1,8,0:0:0:0:
256,192,91786,1,0,0:0:0:0:
256,192,92166,1,8,0:0:0:0:
256,192,92546,1,8,0:0:0:0:
256,192,92736,1,8,0:0:0:0:
256,192,92926,1,0,0:0:0:0:
256,192,93116,1,8,0:0:0:0:
256,192,93305,1,0,0:0:0:0:
256,192,93685,1,8,0:0:0:0:
256,192,93875,1,0,0:0:0:0:
256,192,94065,1,8,0:0:0:0:
256,192,94255,1,0,0:0:0:0:
256,192,94445,1,8,0:0:0:0:
256,192,94635,1,8,0:0:0:0:
256,192,94824,1,0,0:0:0:0:
256,192,95204,1,8,0:0:0:0:
256,192,95394,1,0,0:0:0:0:
256,192,95584,1,8,0:0:0:0:
256,192,95774,1,8,0:0:0:0:
256,192,95964,5,0,0:0:0:0:
256,192,96059,1,0,0:0:0:0:
256,192,96154,1,0,0:0:0:0:
256,192,96343,1,8,0:0:0:0:
256,192,96533,1,0,0:0:0:0:
256,192,96723,1,8,0:0:0:0:
256,192,96818,1,8,0:0:0:0:
256,192,96913,1,8,0:0:0:0:
256,192,97103,1,0,0:0:0:0:
256,192,97293,1,0,0:0:0:0:
256,192,97483,1,12,0:0:0:0:
256,192,97862,1,8,0:0:0:0:
256,192,98242,1,8,0:0:0:0:
256,192,98621,1,8,0:0:0:0:
256,192,99001,1,8,0:0:0:0:
256,192,99381,1,8,0:0:0:0:
256,192,99761,1,8,0:0:0:0:
256,192,100140,1,8,0:0:0:0:
256,192,100331,1,0,0:0:0:0:
256,192,100520,1,8,0:0:0:0:
256,192,100900,1,8,0:0:0:0:
256,192,101280,1,8,0:0:0:0:
256,192,101659,1,8,0:0:0:0:
256,192,102039,1,8,0:0:0:0:
256,192,102419,1,8,0:0:0:0:
256,192,102799,1,8,0:0:0:0:
256,192,102989,1,0,0:0:0:0:
256,192,103178,1,8,0:0:0:0:
256,192,103558,1,0,0:0:0:0:
256,192,103938,1,8,0:0:0:0:
256,192,104318,1,0,0:0:0:0:
256,192,104508,1,0,0:0:0:0:
256,192,104697,1,8,0:0:0:0:
256,192,105077,1,0,0:0:0:0:
256,192,105457,1,8,0:0:0:0:
256,192,105837,1,0,0:0:0:0:
256,192,106027,1,8,0:0:0:0:
256,192,106216,1,0,0:0:0:0:
256,192,106406,1,8,0:0:0:0:
256,192,106596,5,0,0:0:0:0:
256,192,106786,1,0,0:0:0:0:
256,192,106976,1,8,0:0:0:0:
256,192,107071,1,8,0:0:0:0:
256,192,107166,1,8,0:0:0:0:
256,192,107356,1,0,0:0:0:0:
256,192,107545,1,0,0:0:0:0:
256,192,107735,1,8,0:0:0:0:
256,192,107925,1,0,0:0:0:0:
256,192,108115,1,8,0:0:0:0:
256,192,108400,1,8,0:0:0:0:
256,192,108495,1,8,0:0:0:0:
256,192,108685,1,8,0:0:0:0:
256,192,109255,1,8,0:0:0:0:
256,192,109635,1,4,0:0:0:0:
256,192,109919,1,0,0:0:0:0:
256,192,110014,1,0,0:0:0:0:
256,192,110204,1,8,0:0:0:0:
256,192,110394,1,0,0:0:0:0:
256,192,110489,1,0,0:0:0:0:
256,192,110584,1,0,0:0:0:0:
256,192,110774,1,8,0:0:0:0:
256,192,110964,1,8,0:0:0:0:
256,192,111438,1,8,0:0:0:0:
256,192,111533,1,8,0:0:0:0:
256,192,111723,1,0,0:0:0:0:
256,192,111913,1,8,0:0:0:0:
256,192,112008,1,8,0:0:0:0:
256,192,112103,1,8,0:0:0:0:
256,192,112293,1,0,0:0:0:0:
256,192,112673,1,8,0:0:0:0:
256,192,112768,1,8,0:0:0:0:
256,192,112957,1,0,0:0:0:0:
256,192,113052,1,0,0:0:0:0:
256,192,113242,1,8,0:0:0:0:
256,192,113432,1,0,0:0:0:0:
256,192,113812,1,8,0:0:0:0:
256,192,114192,1,8,0:0:0:0:
256,192,114381,1,0,0:0:0:0:
256,192,114571,1,0,0:0:0:0:
256,192,114761,1,8,0:0:0:0:
256,192,114951,1,0,0:0:0:0:
256,192,115141,1,8,0:0:0:0:
256,192,115236,1,8,0:0:0:0:
256,192,115331,1,8,0:0:0:0:
256,192,115711,1,4,0:0:0:0:
256,192,115995,1,8,0:0:0:0:
256,192,116090,1,8,0:0:0:0:
256,192,116280,1,8,0:0:0:0:
256,192,116470,1,0,0:0:0:0:
256,192,116565,1,0,0:0:0:0:
256,192,116660,1,0,0:0:0:0:
256,192,116850,1,8,0:0:0:0:
256,192,117040,1,0,0:0:0:0:
256,192,117514,1,8,0:0:0:0:
256,192,117609,1,8,0:0:0:0:
256,192,117799,1,0,0:0:0:0:
256,192,117989,1,8,0:0:0:0:
256,192,118084,1,8,0:0:0:0:
256,192,118179,1,8,0:0:0:0:
256,192,118369,1,0,0:0:0:0:
256,192,118749,1,8,0:0:0:0:
256,192,118939,1,0,0:0:0:0:
256,192,119033,1,0,0:0:0:0:
256,192,119129,1,0,0:0:0:0:
256,192,119319,1,0,0:0:0:0:
256,192,119508,1,8,0:0:0:0:
256,192,119793,1,8,0:0:0:0:
256,192,120078,1,0,0:0:0:0:
256,192,120268,1,8,0:0:0:0:
256,192,120553,1,0,0:0:0:0:
256,192,120838,1,8,0:0:0:0:
256,192,121027,1,8,0:0:0:0:
256,192,121217,1,0,0:0:0:0:
256,192,121407,1,8,0:0:0:0:
256,192,121597,1,0,0:0:0:0:
256,192,121786,1,0,0:0:0:0:
256,192,122166,1,8,0:0:0:0:
256,192,122546,1,8,0:0:0:0:
256,192,122926,1,4,0:0:0:0:
256,192,123116,1,8,0:0:0:0:
256,192,123305,1,8,0:0:0:0:
256,192,123495,1,0,0:0:0:0:
256,192,123590,1,0,0:0:0:0:
256,192,123685,1,0,0:0:0:0:
256,192,123875,1,0,0:0:0:0:
256,192,124065,1,8,0:0:0:0:
256,192,124255,1,8,0:0:0:0:
256,192,124445,1,0,0:0:0:0:
256,192,124635,1,8,0:0:0:0:
256,192,125204,1,8,0:0:0:0:
256,192,125394,1,8,0:0:0:0:
256,192,125489,1,8,0:0:0:0:
256,192,125583,1,8,0:0:0:0:
256,192,125773,1,0,0:0:0:0:
256,192,125963,1,8,0:0:0:0:
256,192,126343,1,0,0:0:0:0:
256,192,126533,1,8,0:0:0:0:
256,192,126628,1,8,0:0:0:0:
256,192,126723,1,8,0:0:0:0:
256,192,126913,1,8,0:0:0:0:
256,192,127102,1,0,0:0:0:0:
256,192,127292,1,0,0:0:0:0:
256,192,127388,1,0,0:0:0:0:
256,192,127482,1,0,0:0:0:0:
256,192,127862,1,12,0:0:0:0:
256,192,128242,1,0,0:0:0:0:
256,192,128432,1,8,0:0:0:0:
256,192,128527,1,8,0:0:0:0:
256,192,128622,1,8,0:0:0:0:
256,192,128812,1,0,0:0:0:0:
256,192,129002,1,8,0:0:0:0:
256,192,129381,1,8,0:0:0:0:
256,192,129571,1,0,0:0:0:0:
256,192,129761,1,8,0:0:0:0:
256,192,129951,1,8,0:0:0:0:
256,192,130141,1,0,0:0:0:0:
256,192,130236,1,0,0:0:0:0:
256,192,130331,1,0,0:0:0:0:
256,192,130521,1,8,0:0:0:0:
256,192,130900,1,8,0:0:0:0:
256,192,131090,1,0,0:0:0:0:
256,192,131185,1,0,0:0:0:0:
256,192,131280,1,0,0:0:0:0:
256,192,131470,1,0,0:0:0:0:
256,192,131659,1,8,0:0:0:0:
256,192,131944,1,8,0:0:0:0:
256,192,132229,1,0,0:0:0:0:
256,192,132419,1,8,0:0:0:0:
256,192,132704,1,8,0:0:0:0:
256,192,132989,1,8,0:0:0:0:
256,192,133178,1,0,0:0:0:0:
256,192,133369,1,0,0:0:0:0:
256,192,133559,1,12,0:0:0:0:
256,192,133938,1,0,0:0:0:0:
256,192,135078,1,8,0:0:0:0:
256,192,135268,1,0,0:0:0:0:
256,192,136597,1,0,0:0:0:0:
256,192,136786,1,8,0:0:0:0:
256,192,138495,12,0,140014,0:0:0:0:
