osu file format v14

[General]
AudioFilename: audio.mp3
AudioLeadIn: 0
PreviewTime: 112121
Countdown: 0
SampleSet: Soft
StackLeniency: 0.5
Mode: 0
LetterboxInBreaks: 0
WidescreenStoryboard: 1

[Editor]
Bookmarks: 2121,12121,22121,42121,52121,62121,72121,82121,92121,112121,132121
DistanceSpacing: 1.1
BeatDivisor: 4
GridSize: 4
TimelineZoom: 3.1

[Metadata]
Title:Krave
TitleUnicode:Krave
Artist:litmus* as Ester
ArtistUnicode:litmus* as Ester
Creator:elicz1
Version:Chompy's Easy
Source:
Tags:altai undeadphoneguy some hero chompy fa featured artist mg mpg mappers guild star electronic instrumental futurecore bofxv bofxv19 bof fighters bms hardcore j-core future bass milkyway TRAXX
BeatmapID:3209380
BeatmapSetID:1551054

[Difficulty]
HPDrainRate:2
CircleSize:2.5
OverallDifficulty:2
ApproachRate:3.5
SliderMultiplier:0.8
SliderTickRate:1

[Events]
//Background and Video events
0,0,"bgbg.jpg",0,0
//Break Periods
2,2321,11053
2,72121,80741
2,132321,140741
//Storyboard Layer 0 (Background)
//Storyboard Layer 1 (Fail)
//Storyboard Layer 2 (Pass)
//Storyboard Layer 3 (Foreground)
//Storyboard Layer 4 (Overlay)
//Storyboard Sound Samples

[TimingPoints]
871,312.5,4,2,2,45,1,0
1652,-100,4,2,2,50,0,0
1808,-100,4,2,2,55,0,0
1964,-100,4,2,2,60,0,0
2121,-100,4,2,1,65,0,0
12121,-100,4,2,2,70,0,0
17121,-100,4,2,1,70,0,0
18371,-100,4,2,1,75,0,0
19621,-100,4,2,2,80,0,0
20871,-100,4,2,2,75,0,0
21183,-100,4,2,2,70,0,0
21496,-100,4,2,2,65,0,0
21808,-100,4,2,1,60,0,0
22121,-100,4,2,2,75,0,1
22433,-100,4,2,2,95,0,1
29621,-100,4,2,2,75,0,1
30246,-100,4,2,2,95,0,1
32121,-100,4,2,2,75,0,1
32746,-100,4,2,2,95,0,1
39621,-100,4,2,2,75,0,1
40246,-100,4,2,2,95,0,1
42121,-100,4,2,1,55,0,0
47121,-100,4,2,1,65,0,0
48371,-100,4,2,1,70,0,0
49621,-100,4,2,2,75,0,0
50246,-100,4,2,2,80,0,0
50871,-100,4,2,2,75,0,0
51183,-100,4,2,2,70,0,0
51496,-100,4,2,2,65,0,0
51808,-100,4,2,1,60,0,0
52121,-100,4,2,2,70,0,0
62121,-100,4,2,2,75,0,0
72121,-100,4,2,1,65,0,0
82121,-100,4,2,2,70,0,0
86027,-100,4,2,1,70,0,0
86339,-100,4,2,2,70,0,0
86808,-100,4,2,1,70,0,0
87121,-100,4,2,1,75,0,0
87277,-100,4,2,2,75,0,0
87433,-100,4,2,1,75,0,0
87589,-100,4,2,2,75,0,0
88058,-100,4,2,1,75,0,0
88292,-100,4,2,2,75,0,0
88683,-100,4,2,1,75,0,0
88839,-100,4,2,2,75,0,0
89308,-100,4,2,1,75,0,0
89464,-100,4,2,2,75,0,0
92121,-100,4,2,2,90,0,0
112121,-100,4,2,2,95,0,1
132121,-100,4,2,1,65,0,0
142121,-100,4,2,1,50,0,0
147121,-100,4,2,1,5,0,0

[Colours]
Combo1 : 125,128,138
Combo2 : 224,106,35
Combo3 : 226,203,69
Combo4 : 37,117,205
Combo5 : 111,62,210
Combo6 : 152,154,163

[HitObjects]
256,192,871,12,6,2121,1:2:0:0:
221,41,12433,22,0,P|192:68|154:78,1,80,2|2,1:2|1:2,0:0:0:0:
67,64,13058,1,2,0:2:0:0:
27,143,13371,2,0,B|34:203|34:203|59:221|59:221|68:291,1,160,0|2,1:2|1:2,0:0:0:0:
133,348,14308,1,2,0:2:0:0:
299,291,14933,38,0,P|327:263|365:253,1,80,2|2,1:2|1:2,0:0:0:0:
452,264,15558,1,2,3:2:0:0:
479,180,15871,2,0,B|485:141|485:141|471:104,1,80,0|2,1:2|3:2,0:0:0:0:
411,38,16496,1,2,1:2:0:0:
325,56,16808,1,2,2:2:0:0:
223,200,17433,22,0,L|230:289,1,80,2|6,3:2|1:2,0:0:0:0:
176,350,18058,1,2,3:2:0:0:
89,333,18371,2,0,B|49:325|49:325|41:286,1,80,4|2,1:2|3:2,0:0:0:0:
30,198,18996,2,0,B|25:158|25:158|59:138,1,80,6|2,1:2|3:2,0:0:0:0:
256,192,19621,12,10,20871,1:3:0:0:
327,85,22121,38,0,B|366:74|366:74|403:88,1,80,6|2,1:2|1:2,0:0:0:0:
467,148,22746,2,0,B|479:193|459:230|443:218|420:256|434:297,1,160,2|6,1:2|1:2,0:0:0:0:
364,351,23683,1,0,1:2:0:0:
280,323,23996,1,2,1:2:0:0:
113,265,24621,54,0,L|124:172,1,80,2|0,1:2|1:2,0:0:0:0:
164,107,25246,2,0,B|129:87|93:100|93:100|50:83|29:44,2,160,6|6|6,1:2|1:2|1:2,0:0:0:0:
279,240,27121,22,0,P|311:262|350:263,1,80,6|2,1:2|1:2,0:0:0:0:
438,252,27746,2,0,B|445:192|445:192|470:174|470:174|479:104,1,160,2|6,1:2|1:2,0:0:0:0:
435,28,28683,1,0,1:2:0:0:
347,40,28996,1,2,1:2:0:0:
171,58,29621,53,6,1:2:0:0:
144,232,30246,2,0,B|114:242|97:266|97:266|77:250|44:249|44:249|27:265|4:266,2,160,6|6|6,1:2|1:2|1:2,0:0:0:0:
286,335,32121,21,6,1:2:0:0:
460,356,32746,2,0,B|489:332|483:284|483:284|473:201,1,160,2|6,1:2|1:2,0:0:0:0:
456,117,33683,1,0,1:2:0:0:
385,64,33996,2,0,B|340:52|303:72|315:88|277:111|236:97,1,160,2|2,1:2|1:2,0:0:0:0:
63,60,35246,54,0,B|31:98|31:98|50:206,1,160,6|6,1:2|1:2,0:0:0:0:
155,347,36496,2,0,B|218:339|218:339|237:314|237:314|305:306,1,160,6|6,1:2|1:2,0:0:0:0:
389,299,37433,21,2,1:2:0:0:
476,287,37746,2,0,L|455:116,1,160,2|6,1:2|1:2,0:0:0:0:
439,41,38683,1,0,1:2:0:0:
351,32,38996,1,2,1:2:0:0:
215,144,39621,53,6,1:2:0:0:
368,232,40246,2,0,B|398:242|415:266|415:266|435:250|468:249|468:249|485:265|508:266,2,160,6|6|6,1:2|1:2|1:2,0:0:0:0:
205,299,42121,38,0,P|170:318|131:317,1,80,6|8,1:2|2:2,0:0:0:0:
64,259,42746,1,2,1:2:0:0:
94,85,43371,6,0,P|128:65|167:66,1,80,2|8,1:2|2:2,0:0:0:0:
235,125,43996,1,2,1:2:0:0:
399,186,44621,70,0,B|413:224|413:224|405:262,1,80,2|8,1:2|2:2,0:0:0:0:
342,324,45246,1,2,1:2:0:0:
177,262,45871,6,0,B|163:224|163:224|170:185,1,80,2|8,1:2|2:2,0:0:0:0:
235,125,46496,1,2,1:2:0:0:
256,192,47121,12,10,50871,0:3:0:0:
203,99,52121,54,0,P|169:79|130:80,1,80,6|8,1:2|2:2,0:0:0:0:
68,144,52746,2,0,B|75:204|75:204|100:222|100:222|109:292,1,160,2|2,2:2|1:2,0:0:0:0:
176,346,53683,1,10,2:2:0:0:
344,294,54308,1,8,2:2:0:0:
424,258,54621,6,0,B|438:220|438:220|431:181,1,80,2|10,1:2|2:2,0:0:0:0:
429,92,55246,2,0,L|339:81,1,80,2|8,2:2|2:2,0:0:0:0:
262,69,55871,1,2,1:2:0:0:
195,231,56496,1,2,2:2:0:0:
208,317,56808,1,10,2:2:0:0:
126,351,57121,70,0,B|85:355|85:355|49:339,1,80,2|8,1:2|2:2,0:0:0:0:
16,166,58058,1,8,2:2:0:0:
63,91,58371,2,0,P|95:69|135:68,1,80,2|8,1:2|2:2,0:0:0:0:
272,178,59308,1,10,2:2:0:0:
231,256,59621,5,2,1:2:0:0:
278,330,59933,1,10,2:2:0:0:
453,316,60558,1,8,2:2:0:0:
465,228,60871,70,0,L|475:138,1,80,2|8,1:2|2:2,0:0:0:0:
335,40,61808,1,8,2:2:0:0:
254,74,62121,6,0,B|240:112|240:112|247:151,1,80,6|8,1:2|2:2,0:0:0:0:
267,236,62746,2,0,B|222:248|185:228|197:212|159:189|118:203,1,160,2|2,3:2|1:2,0:0:0:0:
39,243,63683,1,10,2:2:0:0:
14,68,64308,1,8,2:2:0:0:
95,33,64621,54,0,L|184:43,1,80,2|10,1:2|2:2,0:0:0:0:
255,77,65246,2,0,L|344:87,1,80,2|8,3:2|2:2,0:0:0:0:
413,45,65871,1,2,1:2:0:0:
445,218,66496,1,2,2:2:0:0:
458,304,66808,1,10,2:2:0:0:
376,338,67121,22,0,B|335:342|335:342|299:326,1,80,2|8,1:2|2:2,0:0:0:0:
255,155,68058,1,8,2:2:0:0:
210,78,68371,2,0,P|178:56|138:55,1,80,2|8,1:2|2:2,0:0:0:0:
46,205,69308,1,10,2:2:0:0:
30,290,69621,53,2,1:2:0:0:
91,349,69933,1,10,2:2:0:0:
255,287,70558,1,8,2:2:0:0:
334,249,70871,22,0,L|422:259,2,80,2|10|0,1:2|2:2|0:0,0:0:0:0:
334,249,82121,37,6,1:2:0:0:
82,328,83058,1,2,1:2:0:0:
40,249,83371,2,0,B|26:211|26:211|33:172,1,80,0|0,1:2|2:2,0:0:0:0:
104,120,83996,1,2,3:2:0:0:
278,143,84621,38,0,L|370:154,1,80,2|0,1:2|3:2,0:0:0:0:
496,260,85558,1,2,1:2:0:0:
459,340,85871,2,0,P|427:362|387:363,1,80,0|8,1:2|2:2,0:0:0:0:
211,352,86808,1,10,2:2:0:0:
266,283,87121,38,0,B|273:223|273:223|298:205|298:205|307:135,1,160,2|0,1:2|3:2,0:0:0:0:
297,49,88058,1,10,2:2:0:0:
209,55,88371,2,0,B|164:67|127:47|139:31|101:8|60:22,1,160,2|0,1:2|3:2,0:0:0:0:
7,92,89308,1,10,2:2:0:0:
256,192,89621,12,2,90871,1:2:0:0:
7,92,92121,70,0,L|17:177,1,80,6|10,1:2|2:2,0:0:0:0:
79,233,92746,1,14,2:2:0:0:
163,207,93058,1,0,1:2:0:0:
232,261,93371,2,0,B|297:272|297:272|315:297|315:297|385:306,1,160,14|10,2:2|2:2,0:0:0:0:
457,267,94308,1,0,1:2:0:0:
482,92,94933,5,10,2:2:0:0:
402,53,95246,2,0,B|356:31|356:31|249:54,1,160,10|2,2:2|1:2,0:0:0:0:
164,75,96183,1,2,1:2:0:0:
77,93,96496,1,10,2:2:0:0:
24,261,97121,69,6,1:2:0:0:
85,323,97433,1,10,2:2:0:0:
169,299,97746,2,0,B|214:287|251:307|239:323|277:346|318:332,1,160,14|14,2:2|2:2,0:0:0:0:
451,216,98996,1,10,2:2:0:0:
492,138,99308,1,2,1:2:0:0:
444,63,99621,6,0,B|406:49|406:49|367:56,1,80,6|10,1:2|2:2,0:0:0:0:
284,85,100246,2,0,B|273:150|273:150|249:167|249:167|239:231,1,160,10|6,2:2|1:2,0:0:0:0:
220,317,101183,1,2,1:2:0:0:
19,144,102121,70,0,P|58:148|91:127,1,80,14|10,2:2|2:2,0:0:0:0:
125,46,102746,2,0,B|163:59|176:94|176:94|217:116|261:106,1,160,14|14,2:2|2:2,0:0:0:0:
339,67,103683,1,2,1:2:0:0:
422,95,103996,1,10,2:2:0:0:
481,260,104621,5,6,1:2:0:0:
423,326,104933,1,10,2:2:0:0:
336,310,105246,2,0,B|271:299|271:299|254:275|254:275|190:265,1,160,10|6,2:2|1:2,0:0:0:0:
102,269,106183,1,2,1:2:0:0:
45,200,106496,2,0,B|46:168|65:145|65:145|45:130|35:99|35:99|46:78|41:55,1,160,10|6,2:2|1:2,0:0:0:0:
216,81,107746,70,0,B|259:92|296:72|284:56|323:34|366:49,1,160,14|14,2:2|2:2,0:0:0:0:
451,70,108683,1,2,1:2:0:0:
469,156,108996,1,14,2:2:0:0:
487,331,109621,6,0,B|460:361|460:361|422:349,1,80,6|10,1:2|2:2,0:0:0:0:
344,308,110246,2,0,B|335:242|335:242|311:224|311:224|304:160,1,160,10|6,2:2|1:2,0:0:0:0:
304,160,112121,6,0,L|293:72,1,80,6|2,1:2|1:2,0:0:0:0:
220,31,112746,1,0,1:2:0:0:
136,57,113058,1,2,1:2:0:0:
54,90,113371,2,0,B|40:128|40:128|47:167,1,80,2|0,1:2|1:2,0:0:0:0:
109,228,113996,1,0,1:2:0:0:
265,309,114621,70,0,P|302:320|339:306,1,80,6|2,1:2|1:2,0:0:0:0:
408,251,115246,1,0,1:2:0:0:
361,176,115558,1,2,1:2:0:0:
410,102,115871,2,0,L|493:91,2,80,2|0|2,1:2|1:2|1:2,0:0:0:0:
244,41,117121,6,0,L|157:51,1,80,6|2,1:2|1:2,0:0:0:0:
77,60,117746,1,0,1:2:0:0:
59,146,118058,1,2,1:2:0:0:
43,232,118371,2,0,B|86:243|123:223|111:207|150:185|193:200,1,160,2|0,1:2|1:2,0:0:0:0:
363,240,119621,69,6,1:2:0:0:
364,327,119933,2,0,B|332:326|309:307|309:307|294:327|263:337|263:337|242:326|219:331,1,160,2|2,1:2|1:2,0:0:0:0:
134,351,120871,1,6,1:2:0:0:
67,187,121496,1,6,1:2:0:0:
33,105,121808,1,2,1:2:0:0:
95,42,122121,6,0,L|176:51,1,80,6|10,1:2|2:2,0:0:0:0:
261,63,122746,1,0,1:2:0:0:
297,143,123058,1,10,2:2:0:0:
231,202,123371,2,0,B|217:240|217:240|224:279,1,80,2|8,1:2|2:2,0:0:0:0:
293,333,123996,1,0,1:2:0:0:
461,281,124621,70,0,B|468:242|468:242|454:204,1,80,6|10,1:2|2:2,0:0:0:0:
409,128,125246,1,0,1:2:0:0:
324,153,125558,1,10,2:2:0:0:
246,111,125871,2,0,L|257:28,2,80,2|8|2,1:2|2:2|1:2,0:0:0:0:
97,205,127121,6,0,L|86:284,1,80,6|10,1:2|2:2,0:0:0:0:
138,355,127746,1,0,1:2:0:0:
223,333,128058,1,10,2:2:0:0:
308,310,128371,2,0,B|346:296|346:296|385:303,1,80,2|8,1:2|2:2,0:0:0:0:
471,321,128996,1,0,1:2:0:0:
487,145,129621,69,6,1:2:0:0:
419,88,129933,1,10,3:2:0:0:
334,111,130246,1,0,1:2:0:0:
255,72,130558,1,10,3:2:0:0:
256,192,130871,12,6,132121,1:2:0:0:
256,192,142121,12,0,147121,0:0:0:0:
