osu file format v14

[General]
AudioFilename: audio.mp3
AudioLeadIn: 0
PreviewTime: 22119
Countdown: 0
SampleSet: Normal
StackLeniency: 0.7
Mode: 1
LetterboxInBreaks: 0
WidescreenStoryboard: 1

[Editor]
Bookmarks: 22119,42119,52119,72119,92119,112119,132119
DistanceSpacing: 0.1
BeatDivisor: 4
GridSize: 32
TimelineZoom: 2.2

[Metadata]
Title:Krave
TitleUnicode:Krave
Artist:litmus* as Ester
ArtistUnicode:litmus* as Ester
Creator:KatK1
Version:Oni
Source:BOFXV -THE BMS OF FIGHTERS eXtreme Violence-
Tags:featured artist fa futurecore hardcore j-core future bass good life electronic instrumental bofxv19
BeatmapID:3750573
BeatmapSetID:1827497

[Difficulty]
HPDrainRate:5
CircleSize:4
OverallDifficulty:6
ApproachRate:8
SliderMultiplier:1.4
SliderTickRate:1

[Events]
//Background and Video events
0,0,"krave cover.png",0,-4
//Break Periods
2,72319,81369
//Storyboard Layer 0 (Background)
//Storyboard Layer 1 (Fail)
//Storyboard Layer 2 (Pass)
//Storyboard Layer 3 (Foreground)
//Storyboard Layer 4 (Overlay)
//Storyboard Sound Samples

[TimingPoints]
2119,312.5,4,1,0,80,1,0
2119,-83.333336,4,1,0,80,0,0
3369,-106.82638,4,1,0,80,0,0
3681,-108.949745,4,1,0,80,0,0
3994,-110.869225,4,1,0,80,0,0
4306,-112.62801,4,1,0,80,0,0
4619,-114.27278,4,1,0,80,0,0
5244,-117.28765,4,1,0,80,0,0
5869,-120.037346,4,1,0,80,0,0
6494,-122.59303,4,1,0,80,0,0
6806,-123.811,4,1,0,80,0,0
7119,-125,4,1,0,80,0,0
11025,-123.47239,4,1,0,80,0,0
11181,-121.62162,4,1,0,80,0,0
11494,-116.03875,4,1,0,80,0,0
11728,-110.58439,4,1,0,80,0,0
11806,-108.587776,4,1,0,80,0,0
11962,-104.3998,4,1,0,80,0,0
12119,-100,4,1,0,80,0,0
12431,-100,4,1,0,81,0,0
12900,-100,4,1,0,82,0,0
13369,-100,4,1,0,83,0,0
13994,-100,4,1,0,84,0,0
14384,-100,4,1,0,85,0,0
14931,-100,4,1,0,86,0,0
15400,-100,4,1,0,87,0,0
15869,-100,4,1,0,88,0,0
16494,-100,4,1,0,89,0,0
16962,-100,4,1,0,90,0,0
17275,-99.96541,4,1,0,90,0,0
17353,-99.92218,4,1,0,90,0,0
17431,-99.861755,4,1,0,91,0,0
17587,-99.68946,4,1,0,91,0,0
17744,-99.44752,4,1,0,91,0,0
17900,-99.13996,4,1,0,92,0,0
17978,-98.961464,4,1,0,92,0,0
18056,-98.76673,4,1,0,92,0,0
18212,-98.32933,4,1,0,92,0,0
18369,-97.826096,4,1,0,93,0,0
18525,-97.26538,4,1,0,93,0,0
18603,-96.96303,4,1,0,93,0,0
18681,-96.64637,4,1,0,93,0,0
18837,-95.97138,4,1,0,93,0,0
18994,-95.23809,4,1,0,94,0,0
19150,-94.45849,4,1,0,94,0,0
19228,-94.05048,4,1,0,94,0,0
19306,-93.63082,4,1,0,94,0,0
19462,-92.75792,4,1,0,95,0,0
19619,-91.83674,4,1,0,95,0,0
19775,-90.881966,4,1,0,95,0,0
19853,-90.39077,4,1,0,95,0,0
19931,-89.89087,4,1,0,96,0,0
20087,-88.86647,4,1,0,96,0,0
20244,-87.804886,4,1,0,96,0,0
20322,-87.26698,4,1,0,96,0,0
20400,-86.72262,4,1,0,97,0,0
20478,-86.17216,4,1,0,97,0,0
20556,-85.61595,4,1,0,97,0,0
20712,-84.487724,4,1,0,97,0,0
20869,-83.333336,4,1,0,98,0,0
20947,-86.46569,4,1,0,98,0,0
21025,-88.943344,4,1,0,98,0,0
21181,-93.61384,4,1,0,98,0,0
21259,-95.926704,4,1,0,98,0,0
21337,-98.25843,4,1,0,98,0,0
21494,-103.065125,4,1,0,99,0,0
21572,-105.530205,4,1,0,99,0,0
21650,-108.05786,4,1,0,99,0,0
21728,-110.65576,4,1,0,99,0,0
21806,-113.33134,4,1,0,99,0,0
21962,-118.94509,4,1,0,100,0,0
22119,-125,4,1,0,100,0,0
22431,-100,4,1,0,100,0,1
24619,-83.333336,4,1,0,100,0,0
24697,-86.047005,4,1,0,100,0,0
24775,-88.17494,4,1,0,100,0,0
24853,-90.18253,4,1,0,100,0,0
24931,-92.14236,4,1,0,100,0,0
25087,-96.031975,4,1,0,100,0,0
25244,-100,4,1,0,100,0,1
27119,-83.333336,4,1,0,100,0,0
27197,-88.1815,4,1,0,100,0,0
27275,-92.15485,4,1,0,100,0,0
27353,-96.05074,4,1,0,100,0,0
27431,-100,4,1,0,100,0,1
29619,-83.333336,4,1,0,100,0,0
29775,-88.17494,4,1,0,95,0,0
29853,-90.18253,4,1,0,93,0,0
29931,-92.14236,4,1,0,90,0,0
30009,-94.08615,4,1,0,88,0,0
30087,-96.031975,4,1,0,85,0,0
30204,-96.031975,4,1,0,100,0,0
30244,-100,4,1,0,100,0,1
32119,-71.42857,4,1,0,100,0,0
32744,-100,4,1,0,100,0,1
34619,-83.333336,4,1,0,100,0,0
34697,-86.047005,4,1,0,100,0,0
34775,-88.17494,4,1,0,100,0,0
34853,-90.18253,4,1,0,100,0,0
34931,-92.14236,4,1,0,100,0,0
35087,-96.031975,4,1,0,100,0,0
35244,-100,4,1,0,100,0,1
37119,-83.333336,4,1,0,100,0,0
37197,-88.1815,4,1,0,100,0,0
37275,-92.15485,4,1,0,100,0,0
37353,-96.05074,4,1,0,100,0,0
37431,-100,4,1,0,100,0,1
39619,-83.333336,4,1,0,100,0,0
39775,-88.17494,4,1,0,95,0,0
39853,-90.18253,4,1,0,93,0,0
39931,-92.14236,4,1,0,90,0,0
40009,-94.08615,4,1,0,88,0,0
40087,-96.031975,4,1,0,85,0,0
40204,-96.031975,4,1,0,100,0,0
40244,-100,4,1,0,100,0,1
40478,-98.92592,4,1,0,100,0,1
40712,-97.2145,4,1,0,100,0,1
40869,-95.881,4,1,0,100,0,1
41103,-93.71605,4,1,0,100,0,1
41337,-91.411865,4,1,0,100,0,1
41494,-89.81732,4,1,0,100,0,1
41728,-87.4006,4,1,0,100,0,1
41962,-84.96508,4,1,0,100,0,1
42119,-83.333336,4,1,0,100,0,0
42197,-93.62124,4,1,0,80,0,0
42744,-97.47635,4,1,0,80,0,0
42978,-99.77336,4,1,0,80,0,0
43212,-101.80509,4,1,0,80,0,0
43369,-103.065125,4,1,0,80,0,0
43681,-105.391464,4,1,0,80,0,0
43994,-107.54909,4,1,0,80,0,0
44228,-109.075775,4,1,0,80,0,0
44462,-110.54363,4,1,0,80,0,0
44619,-111.50053,4,1,0,80,0,0
44931,-113.34585,4,1,0,80,0,0
45244,-115.13381,4,1,0,80,0,0
45478,-116.43589,4,1,0,80,0,0
45712,-117.712585,4,1,0,80,0,0
45869,-118.55652,4,1,0,80,0,0
46181,-120.207016,4,1,0,80,0,0
46494,-121.83169,4,1,0,80,0,0
46728,-123.0287,4,1,0,80,0,0
46962,-124.21247,4,1,0,80,0,0
47119,-125,4,1,0,80,0,0
47353,-124.75711,4,1,0,81,0,0
47587,-124.03407,4,1,0,81,0,0
47744,-123.28767,4,1,0,82,0,0
47978,-121.80436,4,1,0,82,0,0
48212,-119.90679,4,1,0,83,0,0
48369,-118.42105,4,1,0,83,0,0
48603,-115.92294,4,1,0,84,0,0
48837,-113.12799,4,1,0,85,0,0
48994,-111.11111,4,1,0,85,0,0
49228,-107.931046,4,1,0,86,0,0
49462,-104.5861,4,1,0,86,0,0
49619,-102.27273,4,1,0,87,0,0
49775,-99.93437,4,1,0,87,0,0
49931,-97.56859,4,1,0,87,0,0
50087,-95.18663,4,1,0,88,0,0
50244,-92.78351,4,1,0,88,0,0
50400,-90.399284,4,1,0,89,0,0
50478,-89.21121,4,1,0,89,0,0
50556,-88.02713,4,1,0,89,0,0
50712,-85.67455,4,1,0,90,0,0
50869,-83.333336,4,1,0,90,0,0
50947,-84.87062,4,1,0,90,0,0
51025,-86.047005,4,1,0,90,0,0
51181,-88.17494,4,1,0,90,0,0
51259,-89.18766,4,1,0,90,0,0
51337,-90.18253,4,1,0,90,0,0
51494,-92.15485,4,1,0,90,0,0
51572,-93.12738,4,1,0,90,0,0
51650,-94.0986,4,1,0,90,0,0
51728,-95.070435,4,1,0,90,0,0
51806,-96.04449,4,1,0,90,0,0
52040,-83.333336,4,1,0,100,0,0
52431,-89.8472,4,1,0,100,0,0
52744,-92.15485,4,1,0,100,0,0
52900,-93.07332,4,1,0,100,0,0
52978,-93.49746,4,1,0,100,0,0
53056,-93.90263,4,1,0,100,0,0
53212,-94.66549,4,1,0,100,0,0
53369,-95.38086,4,1,0,100,0,0
53525,-96.0497,4,1,0,100,0,0
53603,-96.37074,4,1,0,100,0,0
53681,-96.68388,4,1,0,100,0,0
53837,-97.28882,4,1,0,100,0,0
53915,-97.58164,4,1,0,100,0,0
53994,-97.87227,4,1,0,100,0,0
54150,-98.43012,4,1,0,100,0,0
54306,-98.968796,4,1,0,100,0,0
54462,-99.49042,4,1,0,100,0,0
54540,-99.74541,4,1,0,100,0,0
54619,-100,4,1,0,100,0,0
61025,-99.99758,4,1,0,100,0,0
61181,-99.9612,4,1,0,100,0,0
61337,-99.803894,4,1,0,100,0,0
61415,-99.63729,4,1,0,100,0,0
61494,-99.37888,4,1,0,100,0,0
61650,-98.49894,4,1,0,100,0,0
61806,-96.939316,4,1,0,100,0,0
61962,-94.4771,4,1,0,100,0,0
62040,-92.84903,4,1,0,100,0,0
62119,-90.90909,4,1,0,100,0,0
72119,-83.333336,4,1,0,100,0,0
72197,-101.456375,4,1,0,80,0,0
74619,-106.82638,4,1,0,80,0,0
75869,-110.869225,4,1,0,80,0,0
77119,-114.27278,4,1,0,80,0,0
78369,-117.28765,4,1,0,80,0,0
79619,-120.037346,4,1,0,80,0,0
80869,-122.59303,4,1,0,80,0,0
82119,-125,4,1,0,80,0,0
82431,-124.9962,4,1,0,81,0,0
82587,-124.98718,4,1,0,81,0,0
82900,-124.940475,4,1,0,82,0,0
83056,-124.89725,4,1,0,82,0,0
83369,-124.756325,4,1,0,83,0,0
83603,-124.59281,4,1,0,83,0,0
83681,-124.52543,4,1,0,83,0,0
83837,-124.36935,4,1,0,83,0,0
84150,-123.961464,4,1,0,84,0,0
84306,-123.70599,4,1,0,84,0,0
84462,-123.41263,4,1,0,85,0,0
84540,-123.25105,4,1,0,85,0,0
84619,-123.07692,4,1,0,85,0,0
84853,-122.49666,4,1,0,85,0,0
84931,-122.28103,4,1,0,86,0,0
85087,-121.81512,4,1,0,86,0,0
85244,-121.29827,4,1,0,86,0,0
85322,-121.02315,4,1,0,86,0,0
85400,-120.735634,4,1,0,87,0,0
85556,-120.12286,4,1,0,87,0,0
85790,-119.1076,4,1,0,87,0,0
85869,-118.738396,4,1,0,88,0,0
86025,-117.969795,4,1,0,88,0,0
86103,-117.56572,4,1,0,88,0,0
86181,-117.14843,4,1,0,88,0,0
86337,-116.27424,4,1,0,88,0,0
86650,-114.3619,4,1,0,89,0,0
86728,-113.85284,4,1,0,89,0,0
86806,-113.33099,4,1,0,89,0,0
86962,-112.24948,4,1,0,90,0,0
87040,-111.690094,4,1,0,90,0,0
87119,-111.11111,4,1,0,90,0,0
87275,-109.93178,4,1,0,90,0,0
87431,-108.705986,4,1,0,91,0,0
87587,-107.43558,4,1,0,91,0,0
87900,-104.76023,4,1,0,92,0,0
87978,-104.068924,4,1,0,92,0,0
88056,-103.36839,4,1,0,92,0,0
88212,-101.94091,4,1,0,92,0,0
88369,-100.470955,4,1,0,93,0,0
88525,-98.97995,4,1,0,93,0,0
88603,-98.223946,4,1,0,93,0,0
88681,-97.461426,4,1,0,93,0,0
88837,-95.918205,4,1,0,93,0,0
89150,-92.759056,4,1,0,94,0,0
89228,-91.96086,4,1,0,94,0,0
89306,-91.15904,4,1,0,94,0,0
89462,-89.545906,4,1,0,95,0,0
89619,-87.91209,4,1,0,95,0,0
89697,-87.0974,4,1,0,95,0,0
89775,-86.28119,4,1,0,95,0,0
89853,-85.46381,4,1,0,95,0,0
89931,-84.64559,4,1,0,96,0,0
90087,-83.007904,4,1,0,96,0,0
90244,-81.36024,4,1,0,96,0,0
90322,-80.54262,4,1,0,96,0,0
90400,-79.72603,4,1,0,97,0,0
90478,-78.91078,4,1,0,97,0,0
90556,-78.097145,4,1,0,97,0,0
90712,-76.47579,4,1,0,97,0,0
90869,-74.8538,4,1,0,98,0,0
91025,-73.25381,4,1,0,98,0,0
91103,-72.45877,4,1,0,98,0,0
91181,-71.66732,4,1,0,98,0,0
91337,-70.09604,4,1,0,98,0,0
91494,-68.531654,4,1,0,99,0,0
92119,-83.333336,4,1,0,100,0,0
92431,-78.39349,4,1,0,100,0,0
92509,-76.72567,4,1,0,100,0,0
92587,-74.99648,4,1,0,100,0,0
92744,-71.42857,4,1,0,100,0,0
93369,-71.42857,4,1,0,100,0,0
93525,-74.481224,4,1,0,100,0,0
93603,-75.36838,4,1,0,100,0,0
93681,-76.15981,4,1,0,100,0,0
93759,-76.88944,4,1,0,100,0,0
93915,-78.22734,4,1,0,100,0,0
93994,-78.86129,4,1,0,100,0,0
94228,-80.62505,4,1,0,100,0,0
94462,-82.272385,4,1,0,100,0,0
94619,-83.33333,4,1,0,100,0,0
94931,-83.333336,4,1,0,100,0,0
95009,-81.39418,4,1,0,100,0,0
95087,-78.403885,4,1,0,100,0,0
95165,-75.01326,4,1,0,100,0,0
95244,-71.42857,4,1,0,100,0,0
95869,-71.42857,4,1,0,100,0,0
96025,-74.481224,4,1,0,100,0,0
96181,-76.15981,4,1,0,100,0,0
96259,-76.88944,4,1,0,100,0,0
96415,-78.22734,4,1,0,100,0,0
96494,-78.8613,4,1,0,100,0,0
96650,-80.05287,4,1,0,100,0,0
96728,-80.62506,4,1,0,100,0,0
96884,-81.73325,4,1,0,100,0,0
96962,-82.27239,4,1,0,100,0,0
97119,-83.333336,4,1,0,100,0,0
97431,-78.39349,4,1,0,100,0,0
97509,-76.72567,4,1,0,100,0,0
97587,-74.99648,4,1,0,100,0,0
97744,-71.42857,4,1,0,100,0,0
98369,-71.42857,4,1,0,100,0,0
98525,-74.481224,4,1,0,100,0,0
98681,-76.15981,4,1,0,100,0,0
98759,-76.88944,4,1,0,100,0,0
98915,-78.22734,4,1,0,100,0,0
98994,-78.8613,4,1,0,100,0,0
99150,-80.05287,4,1,0,100,0,0
99306,-81.184616,4,1,0,100,0,0
99384,-81.73325,4,1,0,100,0,0
99462,-82.27239,4,1,0,100,0,0
99619,-83.333336,4,1,0,100,0,0
99931,-78.39349,4,1,0,100,0,0
100087,-74.99648,4,1,0,100,0,0
100244,-71.42857,4,1,0,100,0,0
100869,-71.42857,4,1,0,100,0,0
100947,-72.55504,4,1,0,100,0,0
101103,-74.20297,4,1,0,100,0,0
101181,-74.9564,4,1,0,100,0,0
101337,-76.402245,4,1,0,100,0,0
101415,-77.10691,4,1,0,100,0,0
101494,-77.81313,4,1,0,100,0,0
102119,-83.333336,4,1,0,100,0,0
102431,-78.39349,4,1,0,100,0,0
102509,-76.72567,4,1,0,100,0,0
102587,-74.99648,4,1,0,100,0,0
102665,-73.23183,4,1,0,100,0,0
102744,-71.42857,4,1,0,100,0,0
103369,-71.42857,4,1,0,100,0,0
103525,-73.413055,4,1,0,100,0,0
103603,-74.20297,4,1,0,100,0,0
103681,-74.9564,4,1,0,100,0,0
103759,-75.68698,4,1,0,100,0,0
103915,-77.10691,4,1,0,100,0,0
103994,-77.81313,4,1,0,100,0,0
104150,-79.19443,4,1,0,100,0,0
104384,-81.25503,4,1,0,100,0,0
104619,-83.33333,4,1,0,100,0,0
104697,-82.5861,4,1,0,100,0,0
104775,-81.38993,4,1,0,100,0,0
104931,-78.393486,4,1,0,100,0,0
105009,-76.72567,4,1,0,100,0,0
105087,-74.99648,4,1,0,100,0,0
105165,-73.23183,4,1,0,100,0,0
105244,-71.42857,4,1,0,100,0,0
105869,-71.42857,4,1,0,100,0,0
106025,-74.481224,4,1,0,100,0,0
106181,-76.15981,4,1,0,100,0,0
106259,-76.88944,4,1,0,100,0,0
106337,-77.57504,4,1,0,100,0,0
106415,-78.22734,4,1,0,100,0,0
106494,-78.8613,4,1,0,100,0,0
106650,-80.05287,4,1,0,100,0,0
106728,-80.62506,4,1,0,100,0,0
106806,-81.184616,4,1,0,100,0,0
106884,-81.73325,4,1,0,100,0,0
106962,-82.27239,4,1,0,100,0,0
107119,-83.333336,4,1,0,100,0,0
107431,-78.39349,4,1,0,100,0,0
107509,-76.72567,4,1,0,100,0,0
107587,-74.99648,4,1,0,100,0,0
107665,-73.23183,4,1,0,100,0,0
107744,-71.42857,4,1,0,100,0,0
108369,-71.42857,4,1,0,100,0,0
108525,-74.481224,4,1,0,100,0,0
108681,-76.15981,4,1,0,100,0,0
108759,-76.88944,4,1,0,100,0,0
108837,-77.57504,4,1,0,100,0,0
108915,-78.22734,4,1,0,100,0,0
108994,-78.8613,4,1,0,100,0,0
109150,-80.05287,4,1,0,100,0,0
109306,-81.184616,4,1,0,100,0,0
109384,-81.73325,4,1,0,100,0,0
109462,-82.27239,4,1,0,100,0,0
109540,-82.80321,4,1,0,100,0,0
109619,-83.333336,4,1,0,100,0,0
109931,-78.39349,4,1,0,100,0,0
110009,-76.72567,4,1,0,100,0,0
110087,-74.99648,4,1,0,100,0,0
110165,-73.23183,4,1,0,100,0,0
110244,-71.42857,4,1,0,100,0,0
110869,-71.42857,4,1,0,100,0,0
111025,-71.44842,4,1,0,100,0,0
111806,-76.00171,4,1,0,100,0,0
112119,-83.333336,4,1,0,100,0,1
119775,-83.333336,4,1,0,100,0,0
119931,-82.415146,4,1,0,100,0,0
120165,-81.4549,4,1,0,100,0,0
120400,-80.381256,4,1,0,100,0,0
120556,-79.627785,4,1,0,100,0,0
120712,-78.850655,4,1,0,100,0,0
120869,-78.05029,4,1,0,100,0,0
121103,-76.83296,4,1,0,100,0,0
121337,-75.59657,4,1,0,100,0,0
121494,-74.76092,4,1,0,100,0,0
121650,-73.9283,4,1,0,100,0,0
121806,-73.09524,4,1,0,100,0,0
122119,-83.3333313888889,4,1,0,100,0,1
127119,-83.33333,4,1,0,100,0,1
127275,-83.32658,4,1,0,100,0,1
127353,-83.31684,4,1,0,100,0,1
127431,-83.30229,4,1,0,100,0,1
127587,-83.25764,4,1,0,100,0,1
127665,-83.22711,4,1,0,100,0,1
127822,-83.148285,4,1,0,100,0,1
127900,-83.10023,4,1,0,100,0,1
127978,-83.04611,4,1,0,100,0,1
128056,-82.98584,4,1,0,100,0,1
128212,-82.84653,4,1,0,100,0,1
128369,-82.68062,4,1,0,100,0,1
128525,-82.48983,4,1,0,100,0,1
128603,-82.38466,4,1,0,100,0,1
128759,-82.15463,4,1,0,100,0,1
128837,-82.029755,4,1,0,100,0,1
128994,-81.75844,4,1,0,100,0,1
129072,-81.61375,4,1,0,100,0,1
129150,-81.462494,4,1,0,100,0,1
129228,-81.30472,4,1,0,100,0,1
129306,-81.14043,4,1,0,100,0,1
129462,-80.79245,4,1,0,100,0,1
129619,-80.4164,4,1,0,100,0,1
129775,-80.01743,4,1,0,100,0,1
129931,-79.59371,4,1,0,100,0,1
130087,-79.14575,4,1,0,100,0,1
130165,-78.912865,4,1,0,100,0,1
130322,-78.42648,4,1,0,100,0,1
130400,-78.17626,4,1,0,100,0,1
130556,-77.65916,4,1,0,100,0,1
130712,-77.12049,4,1,0,100,0,1
130869,-76.55738,4,1,0,100,0,1
130947,-76.27004,4,1,0,100,0,1
131025,-75.97783,4,1,0,100,0,1
131181,-75.37918,4,1,0,100,0,1
131259,-75.07297,4,1,0,100,0,1
131337,-74.76232,4,1,0,100,0,1
131494,-74.12406,4,1,0,100,0,1
131572,-73.800735,4,1,0,100,0,1
131650,-73.47344,4,1,0,100,0,1
131806,-72.807434,4,1,0,100,0,1
131884,-72.46895,4,1,0,100,0,1
131962,-72.12698,4,1,0,100,0,1
132119,-71.42857,4,1,0,100,0,0
132197,-71.4285714285714,4,1,0,80,0,0
133369,-77.74107,4,1,0,80,0,0
134619,-83.18957,4,1,0,80,0,0
135869,-88.79133,4,1,0,80,0,0
137119,-94.75166,4,1,0,80,0,0
137744,-97.0873786407767,4,1,0,80,0,0
138369,-101.210495,4,1,0,80,0,0
138681,-102.91579,4,1,0,80,0,0
138994,-104.668205,4,1,0,80,0,0
139306,-106.45879,4,1,0,80,0,0
139619,-108.30138,4,1,0,80,0,0
140244,-112.12913,4,1,0,80,0,0
140869,-116.17231,4,1,0,80,0,0
141337,-119.35465,4,1,0,80,0,0
141806,-122.6886,4,1,0,80,0,0
142119,-125,4,1,0,80,0,0

[HitObjects]
224,224,2119,5,4,0:0:0:0:
224,160,3369,1,0,0:0:0:0:
224,160,3681,1,0,0:0:0:0:
288,160,3994,1,8,0:0:0:0:
288,160,4306,1,8,0:0:0:0:
224,160,4619,1,0,0:0:0:0:
288,160,5244,1,8,0:0:0:0:
224,160,5869,1,0,0:0:0:0:
288,160,6494,1,8,0:0:0:0:
224,160,7119,1,0,0:0:0:0:
224,160,8369,1,0,0:0:0:0:
224,160,8681,1,0,0:0:0:0:
288,160,8994,1,8,0:0:0:0:
224,160,9306,1,0,0:0:0:0:
288,160,9619,1,8,0:0:0:0:
224,160,9931,1,0,0:0:0:0:
224,160,10087,1,0,0:0:0:0:
288,160,10244,1,8,0:0:0:0:
224,160,10400,1,0,0:0:0:0:
224,160,10556,1,0,0:0:0:0:
288,160,10712,1,8,0:0:0:0:
288,160,11025,1,8,0:0:0:0:
224,160,11181,1,0,0:0:0:0:
288,160,11494,1,8,0:0:0:0:
224,160,11728,1,0,0:0:0:0:
288,160,11806,1,8,0:0:0:0:
288,160,11962,1,8,0:0:0:0:
224,224,12119,1,4,0:0:0:0:
224,160,12431,1,0,0:0:0:0:
288,160,12587,1,8,0:0:0:0:
224,160,12744,1,0,0:0:0:0:
288,160,12900,1,8,0:0:0:0:
224,160,12978,1,0,0:0:0:0:
224,160,13134,1,0,0:0:0:0:
288,160,13212,1,8,0:0:0:0:
288,160,13369,1,0,0:0:0:0:
288,160,13603,1,8,0:0:0:0:
224,160,13681,1,0,0:0:0:0:
288,160,13837,1,8,0:0:0:0:
224,160,13994,1,0,0:0:0:0:
288,160,14150,1,8,0:0:0:0:
224,160,14228,1,0,0:0:0:0:
288,160,14384,1,8,0:0:0:0:
224,160,14462,1,0,0:0:0:0:
288,160,14619,1,8,0:0:0:0:
224,160,14853,1,0,0:0:0:0:
288,160,14931,1,8,0:0:0:0:
224,160,15087,1,0,0:0:0:0:
288,160,15244,1,8,0:0:0:0:
224,160,15400,1,0,0:0:0:0:
288,160,15478,1,8,0:0:0:0:
288,160,15634,1,8,0:0:0:0:
224,160,15712,1,0,0:0:0:0:
288,160,15869,1,8,0:0:0:0:
288,160,16025,1,8,0:0:0:0:
224,160,16103,1,0,0:0:0:0:
288,160,16181,1,8,0:0:0:0:
224,160,16337,1,0,0:0:0:0:
288,160,16494,1,8,0:0:0:0:
224,160,16650,1,0,0:0:0:0:
224,160,16728,1,0,0:0:0:0:
288,160,16806,1,8,0:0:0:0:
224,224,17119,1,4,0:0:0:0:
224,160,17275,1,0,0:0:0:0:
224,160,17353,1,0,0:0:0:0:
288,160,17431,1,8,0:0:0:0:
288,160,17587,1,8,0:0:0:0:
224,224,17744,1,4,0:0:0:0:
224,160,17900,1,0,0:0:0:0:
224,160,17978,1,0,0:0:0:0:
288,160,18056,1,8,0:0:0:0:
288,160,18212,1,8,0:0:0:0:
224,224,18369,1,4,0:0:0:0:
288,160,18525,1,8,0:0:0:0:
288,160,18603,1,8,0:0:0:0:
224,160,18681,1,0,0:0:0:0:
288,160,18837,1,8,0:0:0:0:
224,224,18994,1,4,0:0:0:0:
288,160,19150,1,8,0:0:0:0:
224,160,19228,1,0,0:0:0:0:
224,160,19306,1,0,0:0:0:0:
288,160,19462,1,8,0:0:0:0:
224,160,19619,1,0,0:0:0:0:
288,160,19775,1,8,0:0:0:0:
288,160,19853,1,8,0:0:0:0:
224,160,19931,1,0,0:0:0:0:
224,160,20087,1,0,0:0:0:0:
288,160,20244,1,8,0:0:0:0:
288,160,20322,1,8,0:0:0:0:
224,160,20400,1,0,0:0:0:0:
288,160,20478,1,8,0:0:0:0:
224,160,20556,1,0,0:0:0:0:
288,160,20712,1,8,0:0:0:0:
224,160,20869,1,0,0:0:0:0:
224,160,20947,1,0,0:0:0:0:
288,160,21025,1,8,0:0:0:0:
288,160,21181,1,8,0:0:0:0:
288,160,21259,1,8,0:0:0:0:
224,160,21337,1,0,0:0:0:0:
288,160,21494,1,8,0:0:0:0:
288,160,21572,1,8,0:0:0:0:
224,160,21650,1,0,0:0:0:0:
224,160,21728,1,0,0:0:0:0:
288,160,21806,1,8,0:0:0:0:
288,160,21962,1,8,0:0:0:0:
224,160,22119,1,0,0:0:0:0:
224,224,22431,1,4,0:0:0:0:
288,224,22744,1,12,0:0:0:0:
224,224,22978,1,4,0:0:0:0:
288,224,23212,1,12,0:0:0:0:
224,224,23369,1,4,0:0:0:0:
224,160,23681,1,0,0:0:0:0:
224,160,23759,1,0,0:0:0:0:
288,160,23837,1,8,0:0:0:0:
288,160,23915,1,8,0:0:0:0:
224,224,23994,1,4,0:0:0:0:
224,224,24228,1,4,0:0:0:0:
288,224,24462,1,12,0:0:0:0:
224,160,24619,1,0,0:0:0:0:
288,160,24697,1,8,0:0:0:0:
288,160,24775,1,8,0:0:0:0:
288,160,24853,1,8,0:0:0:0:
224,160,24931,1,0,0:0:0:0:
288,160,25087,1,8,0:0:0:0:
224,224,25244,1,4,0:0:0:0:
224,224,25478,1,4,0:0:0:0:
224,224,25712,1,4,0:0:0:0:
288,224,25869,1,12,0:0:0:0:
288,224,26103,1,12,0:0:0:0:
288,224,26337,1,12,0:0:0:0:
224,224,26494,1,4,0:0:0:0:
288,224,26728,1,12,0:0:0:0:
288,224,26962,1,12,0:0:0:0:
224,160,27119,1,0,0:0:0:0:
224,160,27197,1,0,0:0:0:0:
224,160,27275,1,0,0:0:0:0:
224,160,27353,1,0,0:0:0:0:
288,224,27431,1,12,0:0:0:0:
288,160,27587,1,8,0:0:0:0:
224,224,27744,1,4,0:0:0:0:
224,224,27978,1,4,0:0:0:0:
288,224,28212,1,12,0:0:0:0:
224,224,28369,1,4,0:0:0:0:
224,160,28681,1,0,0:0:0:0:
224,160,28759,1,0,0:0:0:0:
288,160,28837,1,8,0:0:0:0:
224,160,28915,1,0,0:0:0:0:
288,224,28994,1,12,0:0:0:0:
288,224,29228,1,12,0:0:0:0:
288,224,29462,1,12,0:0:0:0:
224,160,29619,1,0,0:0:0:0:
288,160,29775,1,8,0:0:0:0:
224,160,29853,1,0,0:0:0:0:
288,160,29931,1,8,0:0:0:0:
224,160,30009,1,0,0:0:0:0:
288,160,30087,1,8,0:0:0:0:
288,224,30244,1,12,0:0:0:0:
224,224,30478,1,4,0:0:0:0:
224,224,30712,1,4,0:0:0:0:
288,224,30869,1,12,0:0:0:0:
288,224,31103,1,12,0:0:0:0:
288,224,31337,1,12,0:0:0:0:
224,224,31494,1,4,0:0:0:0:
224,224,31728,1,4,0:0:0:0:
288,224,31962,1,12,0:0:0:0:
224,160,32119,1,0,0:0:0:0:
288,224,32744,1,12,0:0:0:0:
224,224,32978,1,4,0:0:0:0:
288,224,33212,1,12,0:0:0:0:
224,224,33369,1,4,0:0:0:0:
224,160,33681,1,0,0:0:0:0:
224,160,33759,1,0,0:0:0:0:
288,160,33837,1,8,0:0:0:0:
288,160,33915,1,8,0:0:0:0:
224,224,33994,1,4,0:0:0:0:
224,224,34228,1,4,0:0:0:0:
288,224,34462,1,12,0:0:0:0:
224,160,34619,1,0,0:0:0:0:
288,160,34697,1,8,0:0:0:0:
288,160,34775,1,8,0:0:0:0:
288,160,34853,1,8,0:0:0:0:
224,160,34931,1,0,0:0:0:0:
288,160,35087,1,8,0:0:0:0:
224,224,35244,1,4,0:0:0:0:
288,224,35478,1,12,0:0:0:0:
224,224,35712,1,4,0:0:0:0:
288,224,35869,1,12,0:0:0:0:
288,224,36103,1,12,0:0:0:0:
288,224,36337,1,12,0:0:0:0:
224,224,36494,1,4,0:0:0:0:
288,224,36728,1,12,0:0:0:0:
288,224,36962,1,12,0:0:0:0:
224,160,37119,1,0,0:0:0:0:
224,160,37197,1,0,0:0:0:0:
224,160,37275,1,0,0:0:0:0:
224,160,37353,1,0,0:0:0:0:
288,224,37431,1,12,0:0:0:0:
288,160,37587,1,8,0:0:0:0:
224,224,37744,1,4,0:0:0:0:
224,224,37978,1,4,0:0:0:0:
288,224,38212,1,12,0:0:0:0:
224,224,38369,1,4,0:0:0:0:
224,160,38681,1,0,0:0:0:0:
224,160,38759,1,0,0:0:0:0:
288,160,38837,1,8,0:0:0:0:
288,160,38915,1,8,0:0:0:0:
224,224,38994,1,4,0:0:0:0:
288,224,39228,1,12,0:0:0:0:
288,224,39462,1,12,0:0:0:0:
224,160,39619,1,0,0:0:0:0:
288,160,39775,1,8,0:0:0:0:
224,160,39853,1,0,0:0:0:0:
288,160,39931,1,8,0:0:0:0:
224,160,40009,1,0,0:0:0:0:
288,160,40087,1,8,0:0:0:0:
224,224,40244,1,4,0:0:0:0:
288,224,40478,1,12,0:0:0:0:
224,224,40712,1,4,0:0:0:0:
288,224,40869,1,12,0:0:0:0:
288,224,41103,1,12,0:0:0:0:
288,224,41337,1,12,0:0:0:0:
224,224,41494,1,4,0:0:0:0:
288,224,41728,1,12,0:0:0:0:
224,224,41962,1,4,0:0:0:0:
288,224,42119,1,12,0:0:0:0:
288,160,42431,1,8,0:0:0:0:
224,160,42744,1,0,0:0:0:0:
288,160,42978,1,8,0:0:0:0:
224,160,43212,1,0,0:0:0:0:
288,160,43369,1,8,0:0:0:0:
288,160,43681,1,8,0:0:0:0:
224,160,43994,1,0,0:0:0:0:
288,160,44228,1,8,0:0:0:0:
224,160,44462,1,0,0:0:0:0:
288,160,44619,1,8,0:0:0:0:
288,160,44931,1,8,0:0:0:0:
224,160,45244,1,0,0:0:0:0:
288,160,45478,1,8,0:0:0:0:
224,160,45712,1,0,0:0:0:0:
288,160,45869,1,8,0:0:0:0:
288,160,46181,1,8,0:0:0:0:
224,160,46494,1,0,0:0:0:0:
288,160,46728,1,8,0:0:0:0:
224,160,46962,1,0,0:0:0:0:
288,160,47119,1,8,0:0:0:0:
224,160,47353,1,0,0:0:0:0:
288,160,47587,1,8,0:0:0:0:
224,160,47744,1,0,0:0:0:0:
288,160,47978,1,8,0:0:0:0:
224,160,48212,1,0,0:0:0:0:
288,160,48369,1,8,0:0:0:0:
224,160,48603,1,0,0:0:0:0:
288,160,48837,1,8,0:0:0:0:
224,160,48994,1,0,0:0:0:0:
288,160,49228,1,8,0:0:0:0:
224,160,49462,1,0,0:0:0:0:
288,160,49619,1,8,0:0:0:0:
224,160,49775,1,0,0:0:0:0:
288,160,49931,1,8,0:0:0:0:
224,160,50087,1,0,0:0:0:0:
288,160,50244,1,8,0:0:0:0:
224,160,50400,1,0,0:0:0:0:
224,160,50478,1,0,0:0:0:0:
288,160,50556,1,8,0:0:0:0:
288,160,50712,1,8,0:0:0:0:
224,160,50869,1,0,0:0:0:0:
224,160,50947,1,0,0:0:0:0:
288,160,51025,1,8,0:0:0:0:
224,160,51181,1,0,0:0:0:0:
288,160,51259,1,8,0:0:0:0:
224,160,51337,1,0,0:0:0:0:
288,160,51494,1,8,0:0:0:0:
288,160,51572,1,8,0:0:0:0:
224,160,51650,1,0,0:0:0:0:
224,160,51728,1,0,0:0:0:0:
288,160,51806,1,8,0:0:0:0:
224,224,52119,1,4,0:0:0:0:
288,160,52431,1,8,0:0:0:0:
224,160,52744,1,0,0:0:0:0:
224,160,52900,1,0,0:0:0:0:
288,160,52978,1,8,0:0:0:0:
224,160,53056,1,0,0:0:0:0:
288,160,53212,1,8,0:0:0:0:
224,160,53369,1,0,0:0:0:0:
224,160,53525,1,0,0:0:0:0:
224,160,53603,1,0,0:0:0:0:
288,160,53681,1,8,0:0:0:0:
288,160,53837,1,8,0:0:0:0:
224,160,53915,1,0,0:0:0:0:
288,160,53994,1,8,0:0:0:0:
224,160,54150,1,0,0:0:0:0:
288,160,54306,1,8,0:0:0:0:
288,160,54462,1,8,0:0:0:0:
288,160,54540,1,8,0:0:0:0:
224,160,54619,1,0,0:0:0:0:
224,160,54775,1,0,0:0:0:0:
288,160,54931,1,8,0:0:0:0:
224,160,55087,1,0,0:0:0:0:
224,160,55165,1,0,0:0:0:0:
288,160,55244,1,8,0:0:0:0:
224,160,55400,1,0,0:0:0:0:
288,160,55478,1,8,0:0:0:0:
224,160,55634,1,0,0:0:0:0:
288,160,55712,1,8,0:0:0:0:
288,160,55790,1,8,0:0:0:0:
224,160,55869,1,0,0:0:0:0:
224,160,56025,1,0,0:0:0:0:
288,160,56181,1,8,0:0:0:0:
288,160,56337,1,8,0:0:0:0:
224,160,56415,1,0,0:0:0:0:
288,160,56494,1,8,0:0:0:0:
224,160,56650,1,0,0:0:0:0:
288,160,56806,1,8,0:0:0:0:
288,160,56962,1,8,0:0:0:0:
288,160,57040,1,8,0:0:0:0:
224,160,57119,1,0,0:0:0:0:
288,160,57431,1,8,0:0:0:0:
224,160,57744,1,0,0:0:0:0:
224,160,57900,1,0,0:0:0:0:
288,160,57978,1,8,0:0:0:0:
224,160,58056,1,0,0:0:0:0:
288,160,58212,1,8,0:0:0:0:
224,160,58369,1,0,0:0:0:0:
224,160,58525,1,0,0:0:0:0:
224,160,58603,1,0,0:0:0:0:
288,160,58681,1,8,0:0:0:0:
288,160,58837,1,8,0:0:0:0:
224,160,58915,1,0,0:0:0:0:
288,160,58994,1,8,0:0:0:0:
224,160,59150,1,0,0:0:0:0:
288,160,59306,1,8,0:0:0:0:
288,160,59462,1,8,0:0:0:0:
288,160,59540,1,8,0:0:0:0:
224,160,59619,1,0,0:0:0:0:
224,160,59775,1,0,0:0:0:0:
224,160,59853,1,0,0:0:0:0:
288,160,59931,1,8,0:0:0:0:
224,160,60087,1,0,0:0:0:0:
288,160,60244,1,8,0:0:0:0:
224,160,60400,1,0,0:0:0:0:
288,160,60478,1,8,0:0:0:0:
224,160,60634,1,0,0:0:0:0:
288,160,60712,1,8,0:0:0:0:
288,160,60790,1,8,0:0:0:0:
224,160,60869,1,0,0:0:0:0:
224,160,61025,1,0,0:0:0:0:
288,160,61181,1,8,0:0:0:0:
288,160,61337,1,8,0:0:0:0:
224,160,61415,1,0,0:0:0:0:
288,160,61494,1,8,0:0:0:0:
224,160,61650,1,0,0:0:0:0:
288,160,61806,1,8,0:0:0:0:
288,160,61962,1,8,0:0:0:0:
288,160,62040,1,8,0:0:0:0:
224,224,62119,1,4,0:0:0:0:
288,160,62431,1,8,0:0:0:0:
288,160,62587,1,8,0:0:0:0:
224,160,62665,1,0,0:0:0:0:
288,160,62744,1,8,0:0:0:0:
224,160,62900,1,0,0:0:0:0:
288,160,62978,1,8,0:0:0:0:
224,160,63056,1,0,0:0:0:0:
288,160,63212,1,8,0:0:0:0:
224,160,63369,1,0,0:0:0:0:
224,160,63525,1,0,0:0:0:0:
224,160,63603,1,0,0:0:0:0:
288,160,63681,1,8,0:0:0:0:
288,160,63837,1,8,0:0:0:0:
224,160,63915,1,0,0:0:0:0:
288,160,63994,1,8,0:0:0:0:
224,160,64150,1,0,0:0:0:0:
288,160,64306,1,8,0:0:0:0:
288,160,64462,1,8,0:0:0:0:
288,160,64540,1,8,0:0:0:0:
224,160,64619,1,0,0:0:0:0:
224,160,64775,1,0,0:0:0:0:
288,160,64931,1,8,0:0:0:0:
224,160,65087,1,0,0:0:0:0:
224,160,65165,1,0,0:0:0:0:
288,160,65244,1,8,0:0:0:0:
224,160,65400,1,0,0:0:0:0:
288,160,65478,1,8,0:0:0:0:
224,160,65634,1,0,0:0:0:0:
288,160,65712,1,8,0:0:0:0:
288,160,65790,1,8,0:0:0:0:
224,160,65869,1,0,0:0:0:0:
224,160,66025,1,0,0:0:0:0:
288,160,66181,1,8,0:0:0:0:
288,160,66337,1,8,0:0:0:0:
224,160,66415,1,0,0:0:0:0:
288,160,66494,1,8,0:0:0:0:
224,160,66650,1,0,0:0:0:0:
288,160,66806,1,8,0:0:0:0:
288,160,66962,1,8,0:0:0:0:
288,160,67040,1,8,0:0:0:0:
224,160,67119,1,0,0:0:0:0:
288,160,67431,1,8,0:0:0:0:
288,160,67587,1,8,0:0:0:0:
224,160,67665,1,0,0:0:0:0:
288,160,67744,1,8,0:0:0:0:
224,160,67900,1,0,0:0:0:0:
288,160,67978,1,8,0:0:0:0:
224,160,68056,1,0,0:0:0:0:
288,160,68212,1,8,0:0:0:0:
224,160,68369,1,0,0:0:0:0:
224,160,68525,1,0,0:0:0:0:
224,160,68603,1,0,0:0:0:0:
288,160,68681,1,8,0:0:0:0:
288,160,68837,1,8,0:0:0:0:
224,160,68915,1,0,0:0:0:0:
288,160,68994,1,8,0:0:0:0:
224,160,69150,1,0,0:0:0:0:
288,160,69306,1,8,0:0:0:0:
224,160,69384,1,0,0:0:0:0:
288,160,69462,1,8,0:0:0:0:
224,160,69619,1,0,0:0:0:0:
224,160,69775,1,0,0:0:0:0:
224,160,69853,1,0,0:0:0:0:
288,160,69931,1,8,0:0:0:0:
224,160,70087,1,0,0:0:0:0:
288,160,70244,1,8,0:0:0:0:
224,160,70400,1,0,0:0:0:0:
288,160,70478,1,8,0:0:0:0:
224,160,70634,1,0,0:0:0:0:
288,160,70712,1,8,0:0:0:0:
288,160,70790,1,8,0:0:0:0:
224,160,70869,1,0,0:0:0:0:
224,160,71025,1,0,0:0:0:0:
288,160,71181,1,8,0:0:0:0:
224,160,71337,1,0,0:0:0:0:
288,160,71415,1,8,0:0:0:0:
256,192,71494,12,0,71962,0:0:0:0:
224,224,72119,5,4,0:0:0:0:
224,224,82119,5,4,0:0:0:0:
288,160,82431,1,8,0:0:0:0:
224,160,82587,1,0,0:0:0:0:
224,160,82900,1,0,0:0:0:0:
288,160,83056,1,8,0:0:0:0:
224,160,83369,1,0,0:0:0:0:
224,160,83603,1,0,0:0:0:0:
288,160,83681,1,8,0:0:0:0:
224,160,83837,1,0,0:0:0:0:
224,160,84150,1,0,0:0:0:0:
288,160,84306,1,8,0:0:0:0:
224,160,84462,1,0,0:0:0:0:
288,160,84540,1,8,0:0:0:0:
224,160,84619,1,0,0:0:0:0:
224,160,84853,1,0,0:0:0:0:
288,160,84931,1,8,0:0:0:0:
224,160,85087,1,0,0:0:0:0:
224,160,85244,1,0,0:0:0:0:
288,160,85322,1,8,0:0:0:0:
224,160,85400,1,0,0:0:0:0:
288,160,85556,1,8,0:0:0:0:
288,160,85790,1,8,0:0:0:0:
224,160,85869,1,0,0:0:0:0:
288,160,86025,1,8,0:0:0:0:
224,160,86103,1,0,0:0:0:0:
288,160,86181,1,8,0:0:0:0:
224,160,86337,1,0,0:0:0:0:
224,160,86650,1,0,0:0:0:0:
224,160,86728,1,0,0:0:0:0:
288,160,86806,1,8,0:0:0:0:
224,160,86962,1,0,0:0:0:0:
288,160,87040,1,8,0:0:0:0:
224,160,87119,1,0,0:0:0:0:
224,160,87275,1,0,0:0:0:0:
288,160,87431,1,8,0:0:0:0:
224,160,87587,1,0,0:0:0:0:
224,160,87900,1,0,0:0:0:0:
224,160,87978,1,0,0:0:0:0:
288,160,88056,1,8,0:0:0:0:
288,160,88212,1,8,0:0:0:0:
224,160,88369,1,0,0:0:0:0:
224,160,88525,1,0,0:0:0:0:
224,160,88603,1,0,0:0:0:0:
288,160,88681,1,8,0:0:0:0:
224,160,88837,1,0,0:0:0:0:
224,160,89150,1,0,0:0:0:0:
224,160,89228,1,0,0:0:0:0:
288,160,89306,1,8,0:0:0:0:
224,160,89462,1,0,0:0:0:0:
288,160,89619,1,8,0:0:0:0:
224,160,89697,1,0,0:0:0:0:
224,160,89775,1,0,0:0:0:0:
224,160,89853,1,0,0:0:0:0:
288,160,89931,1,8,0:0:0:0:
224,160,90087,1,0,0:0:0:0:
288,160,90244,1,8,0:0:0:0:
288,160,90322,1,8,0:0:0:0:
224,160,90400,1,0,0:0:0:0:
224,160,90478,1,0,0:0:0:0:
288,160,90556,1,8,0:0:0:0:
288,160,90712,1,8,0:0:0:0:
224,160,90869,1,0,0:0:0:0:
224,160,91025,1,0,0:0:0:0:
224,160,91103,1,0,0:0:0:0:
288,160,91181,1,8,0:0:0:0:
224,160,91337,1,0,0:0:0:0:
256,192,91494,12,0,91962,0:0:0:0:
224,224,92119,5,4,0:0:0:0:
288,160,92431,1,8,0:0:0:0:
288,160,92509,1,8,0:0:0:0:
224,160,92587,1,0,0:0:0:0:
288,224,92744,1,12,0:0:0:0:
288,224,92978,1,12,0:0:0:0:
288,224,93212,1,12,0:0:0:0:
224,160,93369,1,0,0:0:0:0:
288,160,93525,1,8,0:0:0:0:
288,160,93603,1,8,0:0:0:0:
224,160,93681,1,0,0:0:0:0:
288,160,93759,1,8,0:0:0:0:
224,160,93915,1,0,0:0:0:0:
288,160,93994,1,8,0:0:0:0:
288,160,94228,1,8,0:0:0:0:
288,160,94462,1,8,0:0:0:0:
224,160,94619,1,0,0:0:0:0:
224,160,94775,1,0,0:0:0:0:
288,160,94931,1,8,0:0:0:0:
288,160,95009,1,8,0:0:0:0:
288,160,95087,1,8,0:0:0:0:
288,160,95165,1,8,0:0:0:0:
224,224,95244,1,4,0:0:0:0:
224,224,95478,1,4,0:0:0:0:
224,224,95712,1,4,0:0:0:0:
224,160,95869,1,0,0:0:0:0:
288,160,96025,1,8,0:0:0:0:
224,160,96181,1,0,0:0:0:0:
288,160,96259,1,8,0:0:0:0:
288,160,96415,1,8,0:0:0:0:
288,160,96494,1,8,0:0:0:0:
224,160,96650,1,0,0:0:0:0:
288,160,96728,1,8,0:0:0:0:
224,160,96884,1,0,0:0:0:0:
224,160,96962,1,0,0:0:0:0:
224,224,97119,1,4,0:0:0:0:
288,160,97431,1,8,0:0:0:0:
288,160,97509,1,8,0:0:0:0:
224,160,97587,1,0,0:0:0:0:
288,224,97744,1,12,0:0:0:0:
288,224,97978,1,12,0:0:0:0:
288,224,98212,1,12,0:0:0:0:
224,160,98369,1,0,0:0:0:0:
288,160,98525,1,8,0:0:0:0:
224,160,98681,1,0,0:0:0:0:
288,160,98759,1,8,0:0:0:0:
224,160,98915,1,0,0:0:0:0:
288,160,98994,1,8,0:0:0:0:
224,160,99150,1,0,0:0:0:0:
288,160,99306,1,8,0:0:0:0:
224,160,99384,1,0,0:0:0:0:
288,160,99462,1,8,0:0:0:0:
224,224,99619,1,4,0:0:0:0:
288,160,99931,1,8,0:0:0:0:
224,160,100087,1,0,0:0:0:0:
288,224,100244,1,12,0:0:0:0:
288,224,100478,1,12,0:0:0:0:
288,224,100712,1,12,0:0:0:0:
224,160,100869,1,0,0:0:0:0:
288,160,100947,1,8,0:0:0:0:
224,160,101103,1,0,0:0:0:0:
288,160,101181,1,8,0:0:0:0:
224,160,101337,1,0,0:0:0:0:
288,160,101415,1,8,0:0:0:0:
256,192,101494,12,0,101962,0:0:0:0:
224,224,102119,5,4,0:0:0:0:
288,160,102431,1,8,0:0:0:0:
288,160,102509,1,8,0:0:0:0:
224,160,102587,1,0,0:0:0:0:
224,160,102665,1,0,0:0:0:0:
288,224,102744,1,12,0:0:0:0:
288,224,102978,1,12,0:0:0:0:
288,224,103212,1,12,0:0:0:0:
224,160,103369,1,0,0:0:0:0:
288,160,103525,1,8,0:0:0:0:
288,160,103603,1,8,0:0:0:0:
224,160,103681,1,0,0:0:0:0:
288,160,103759,1,8,0:0:0:0:
224,160,103915,1,0,0:0:0:0:
288,160,103994,1,8,0:0:0:0:
288,160,104150,1,8,0:0:0:0:
288,160,104384,1,8,0:0:0:0:
224,160,104619,1,0,0:0:0:0:
224,160,104697,1,0,0:0:0:0:
224,160,104775,1,0,0:0:0:0:
288,160,104931,1,8,0:0:0:0:
288,160,105009,1,8,0:0:0:0:
288,160,105087,1,8,0:0:0:0:
288,160,105165,1,8,0:0:0:0:
224,224,105244,1,4,0:0:0:0:
224,224,105478,1,4,0:0:0:0:
224,224,105712,1,4,0:0:0:0:
224,160,105869,1,0,0:0:0:0:
288,160,106025,1,8,0:0:0:0:
288,160,106181,1,8,0:0:0:0:
288,160,106259,1,8,0:0:0:0:
224,160,106337,1,0,0:0:0:0:
224,160,106415,1,0,0:0:0:0:
288,160,106494,1,8,0:0:0:0:
224,160,106650,1,0,0:0:0:0:
288,160,106728,1,8,0:0:0:0:
224,160,106806,1,0,0:0:0:0:
224,160,106884,1,0,0:0:0:0:
288,160,106962,1,8,0:0:0:0:
224,224,107119,1,4,0:0:0:0:
288,160,107431,1,8,0:0:0:0:
288,160,107509,1,8,0:0:0:0:
224,160,107587,1,0,0:0:0:0:
224,160,107665,1,0,0:0:0:0:
288,224,107744,1,12,0:0:0:0:
288,224,107978,1,12,0:0:0:0:
288,224,108212,1,12,0:0:0:0:
224,160,108369,1,0,0:0:0:0:
288,160,108525,1,8,0:0:0:0:
224,160,108681,1,0,0:0:0:0:
288,160,108759,1,8,0:0:0:0:
224,160,108837,1,0,0:0:0:0:
224,160,108915,1,0,0:0:0:0:
288,160,108994,1,8,0:0:0:0:
224,160,109150,1,0,0:0:0:0:
288,160,109306,1,8,0:0:0:0:
224,160,109384,1,0,0:0:0:0:
288,160,109462,1,8,0:0:0:0:
288,160,109540,1,8,0:0:0:0:
224,224,109619,1,4,0:0:0:0:
288,160,109931,1,8,0:0:0:0:
288,160,110009,1,8,0:0:0:0:
224,160,110087,1,0,0:0:0:0:
224,160,110165,1,0,0:0:0:0:
288,224,110244,1,12,0:0:0:0:
288,224,110478,1,12,0:0:0:0:
288,224,110712,1,12,0:0:0:0:
224,160,110869,1,0,0:0:0:0:
256,192,111025,12,0,111650,0:0:0:0:
288,160,111806,5,8,0:0:0:0:
224,224,112119,1,4,0:0:0:0:
288,160,112275,1,8,0:0:0:0:
288,160,112353,1,8,0:0:0:0:
224,160,112431,1,0,0:0:0:0:
224,160,112587,1,0,0:0:0:0:
288,160,112665,1,8,0:0:0:0:
224,160,112822,1,0,0:0:0:0:
288,160,112900,1,8,0:0:0:0:
224,160,113056,1,0,0:0:0:0:
224,160,113212,1,0,0:0:0:0:
288,160,113369,1,8,0:0:0:0:
288,160,113525,1,8,0:0:0:0:
224,160,113603,1,0,0:0:0:0:
224,160,113759,1,0,0:0:0:0:
288,160,113837,1,8,0:0:0:0:
224,160,113994,1,0,0:0:0:0:
288,160,114072,1,8,0:0:0:0:
224,160,114150,1,0,0:0:0:0:
224,160,114228,1,0,0:0:0:0:
288,160,114306,1,8,0:0:0:0:
224,160,114462,1,0,0:0:0:0:
288,160,114619,1,8,0:0:0:0:
224,160,114775,1,0,0:0:0:0:
288,160,114853,1,8,0:0:0:0:
224,160,114931,1,0,0:0:0:0:
224,160,115087,1,0,0:0:0:0:
288,160,115165,1,8,0:0:0:0:
224,160,115322,1,0,0:0:0:0:
288,160,115400,1,8,0:0:0:0:
288,160,115556,1,8,0:0:0:0:
224,160,115634,1,0,0:0:0:0:
288,160,115712,1,8,0:0:0:0:
224,160,115869,1,0,0:0:0:0:
224,160,116025,1,0,0:0:0:0:
288,160,116103,1,8,0:0:0:0:
288,160,116259,1,8,0:0:0:0:
224,160,116337,1,0,0:0:0:0:
224,160,116494,1,0,0:0:0:0:
288,160,116650,1,8,0:0:0:0:
224,160,116728,1,0,0:0:0:0:
224,160,116884,1,0,0:0:0:0:
288,160,116962,1,8,0:0:0:0:
224,160,117119,1,0,0:0:0:0:
224,160,117431,1,0,0:0:0:0:
224,160,117587,1,0,0:0:0:0:
288,160,117665,1,8,0:0:0:0:
224,160,117822,1,0,0:0:0:0:
288,160,117900,1,8,0:0:0:0:
224,160,118056,1,0,0:0:0:0:
224,160,118212,1,0,0:0:0:0:
288,160,118369,1,8,0:0:0:0:
288,160,118525,1,8,0:0:0:0:
224,160,118603,1,0,0:0:0:0:
224,160,118759,1,0,0:0:0:0:
288,160,118837,1,8,0:0:0:0:
224,160,118994,1,0,0:0:0:0:
288,160,119072,1,8,0:0:0:0:
224,160,119150,1,0,0:0:0:0:
224,160,119228,1,0,0:0:0:0:
288,160,119306,1,8,0:0:0:0:
224,160,119462,1,0,0:0:0:0:
288,160,119619,1,8,0:0:0:0:
224,224,119931,1,4,0:0:0:0:
224,224,120165,1,4,0:0:0:0:
224,224,120400,1,4,0:0:0:0:
288,224,120556,1,12,0:0:0:0:
224,224,120712,1,4,0:0:0:0:
288,224,120869,1,12,0:0:0:0:
224,224,121103,1,4,0:0:0:0:
288,224,121337,1,12,0:0:0:0:
224,224,121494,1,4,0:0:0:0:
224,224,121650,1,4,0:0:0:0:
288,224,121806,1,12,0:0:0:0:
224,224,122119,1,4,0:0:0:0:
224,160,122275,1,0,0:0:0:0:
224,160,122353,1,0,0:0:0:0:
288,160,122431,1,8,0:0:0:0:
224,160,122587,1,0,0:0:0:0:
288,160,122665,1,8,0:0:0:0:
224,160,122822,1,0,0:0:0:0:
288,160,122900,1,8,0:0:0:0:
224,160,122978,1,0,0:0:0:0:
288,160,123056,1,8,0:0:0:0:
224,160,123212,1,0,0:0:0:0:
288,160,123369,1,8,0:0:0:0:
224,160,123525,1,0,0:0:0:0:
288,160,123603,1,8,0:0:0:0:
224,160,123759,1,0,0:0:0:0:
288,160,123837,1,8,0:0:0:0:
224,160,123994,1,0,0:0:0:0:
224,160,124072,1,0,0:0:0:0:
288,160,124150,1,8,0:0:0:0:
224,160,124228,1,0,0:0:0:0:
288,160,124306,1,8,0:0:0:0:
288,160,124462,1,8,0:0:0:0:
224,160,124619,1,0,0:0:0:0:
224,160,124775,1,0,0:0:0:0:
224,160,124853,1,0,0:0:0:0:
288,160,124931,1,8,0:0:0:0:
224,160,125087,1,0,0:0:0:0:
288,160,125165,1,8,0:0:0:0:
224,160,125322,1,0,0:0:0:0:
288,160,125400,1,8,0:0:0:0:
288,160,125556,1,8,0:0:0:0:
288,160,125712,1,8,0:0:0:0:
224,160,125869,1,0,0:0:0:0:
224,160,126025,1,0,0:0:0:0:
288,160,126103,1,8,0:0:0:0:
288,160,126259,1,8,0:0:0:0:
224,160,126337,1,0,0:0:0:0:
224,160,126494,1,0,0:0:0:0:
288,160,126650,1,8,0:0:0:0:
224,160,126728,1,0,0:0:0:0:
224,160,126884,1,0,0:0:0:0:
288,160,126962,1,8,0:0:0:0:
224,160,127119,1,0,0:0:0:0:
224,160,127431,1,0,0:0:0:0:
224,160,127587,1,0,0:0:0:0:
288,160,127665,1,8,0:0:0:0:
224,160,127822,1,0,0:0:0:0:
288,160,127900,1,8,0:0:0:0:
224,160,127978,1,0,0:0:0:0:
288,160,128056,1,8,0:0:0:0:
224,160,128212,1,0,0:0:0:0:
288,160,128369,1,8,0:0:0:0:
224,160,128525,1,0,0:0:0:0:
288,160,128603,1,8,0:0:0:0:
288,160,128759,1,8,0:0:0:0:
224,160,128837,1,0,0:0:0:0:
288,160,128994,1,8,0:0:0:0:
224,160,129072,1,0,0:0:0:0:
224,160,129150,1,0,0:0:0:0:
224,160,129228,1,0,0:0:0:0:
288,160,129306,1,8,0:0:0:0:
288,160,129462,1,8,0:0:0:0:
224,160,129619,1,0,0:0:0:0:
224,160,129775,1,0,0:0:0:0:
288,160,129931,1,8,0:0:0:0:
288,160,130087,1,8,0:0:0:0:
224,160,130165,1,0,0:0:0:0:
224,160,130322,1,0,0:0:0:0:
288,160,130400,1,8,0:0:0:0:
288,160,130556,1,8,0:0:0:0:
224,160,130712,1,0,0:0:0:0:
288,160,130869,1,8,0:0:0:0:
288,160,130947,1,8,0:0:0:0:
288,160,131025,1,8,0:0:0:0:
224,160,131181,1,0,0:0:0:0:
224,160,131259,1,0,0:0:0:0:
224,160,131337,1,0,0:0:0:0:
288,160,131494,1,8,0:0:0:0:
288,160,131572,1,8,0:0:0:0:
288,160,131650,1,8,0:0:0:0:
224,160,131806,1,0,0:0:0:0:
224,160,131884,1,0,0:0:0:0:
224,160,131962,1,0,0:0:0:0:
288,224,132119,1,12,0:0:0:0:
256,192,132275,12,0,135869,0:0:0:0:
224,160,137119,5,0,0:0:0:0:
288,160,137744,1,8,0:0:0:0:
224,160,138369,1,0,0:0:0:0:
224,160,138681,1,0,0:0:0:0:
288,160,138994,1,8,0:0:0:0:
224,160,139306,1,0,0:0:0:0:
288,160,139619,1,8,0:0:0:0:
224,160,140244,1,0,0:0:0:0:
288,160,140869,1,8,0:0:0:0:
288,160,141337,1,8,0:0:0:0:
288,160,141806,1,8,0:0:0:0:
224,224,142119,1,4,0:0:0:0:
