osu file format v14

[General]
AudioFilename: audio.mp3
AudioLeadIn: 0
PreviewTime: 22078
Countdown: 0
SampleSet: Soft
StackLeniency: 0.7
Mode: 2
LetterboxInBreaks: 0
WidescreenStoryboard: 1

[Editor]
DistanceSpacing: 1.5
BeatDivisor: 4
GridSize: 32
TimelineZoom: 2.4

[Metadata]
Title:Krave
TitleUnicode:Krave
Artist:litmus* as Ester
ArtistUnicode:litmus* as Ester
Creator:Jemzuu
Version:Platter
Source:
Tags:ajamez [_-Kukkai-_] featured artist fa mappers guild mg ctbi osu!catch international cup 7 ro16 nm2 nomod no mod electronic instrumental BOFXV -THE BMS OF FIGHTERS eXtreme Violence- LilAcubens Revival hybrid futurecore j-core hardcore artcore bms drum and n dnb d&b future bass core
BeatmapID:3217454
BeatmapSetID:1524173

[Difficulty]
HPDrainRate:4.5
CircleSize:3.5
OverallDifficulty:8.2
ApproachRate:8.2
SliderMultiplier:1.5
SliderTickRate:1

[Events]
//Background and Video events
0,0,"krave_stagefile.jpg",0,0
//Break Periods
//Storyboard Layer 0 (Background)
//Storyboard Layer 1 (Fail)
//Storyboard Layer 2 (Pass)
//Storyboard Layer 3 (Foreground)
//Storyboard Layer 4 (Overlay)
//Storyboard Sound Samples

[TimingPoints]
907,312.5,4,2,1,20,1,0
1532,-100,4,2,2,50,0,0
1844,-100,4,2,2,60,0,0
2157,-100,4,2,2,60,0,0
3095,-100,4,2,2,60,0,0
11453,-100,4,2,1,60,0,0
11532,-100,4,2,2,60,0,0
12313,-100,4,2,1,60,0,0
12391,-100,4,2,1,60,0,0
13563,-100,4,2,1,60,0,0
13641,-100,4,2,1,60,0,0
14813,-100,4,2,1,60,0,0
14891,-100,4,2,1,60,0,0
16453,-100,4,2,1,60,0,0
16531,-100,4,2,1,60,0,0
17157,-100,4,2,1,60,0,0
17547,-100,4,2,1,60,0,0
17625,-100,4,2,1,60,0,0
17860,-100,4,2,1,60,0,0
17938,-100,4,2,1,60,0,0
18172,-100,4,2,1,60,0,0
18250,-100,4,2,1,60,0,0
18485,-100,4,2,1,60,0,0
18563,-100,4,2,1,60,0,0
18797,-100,4,2,1,60,0,0
18875,-100,4,2,1,60,0,0
19110,-100,4,2,1,60,0,0
19188,-100,4,2,1,60,0,0
19422,-100,4,2,1,60,0,0
19500,-100,4,2,1,60,0,0
20907,-100,4,2,2,60,0,0
21532,-100,4,2,1,60,0,0
21844,-100,4,2,1,60,0,0
21883,-100,4,2,1,5,0,0
21922,-100,4,2,1,5,0,0
22000,-100,4,2,1,60,0,0
22039,-100,4,2,1,5,0,0
22078,-100,4,2,1,5,0,0
22157,-100,4,2,1,60,0,0
22391,-100,4,2,1,60,0,0
22469,-100,4,2,1,80,0,1
22625,-100,4,2,1,80,0,1
22782,-100,4,2,1,80,0,1
22938,-100,4,2,1,80,0,1
23016,-100,4,2,1,80,0,1
23172,-100,4,2,1,80,0,1
23250,-100,4,2,1,80,0,1
23328,-100,4,2,1,80,0,1
23407,-100,4,2,1,80,0,1
23641,-100,4,2,1,80,0,1
23719,-100,4,2,1,80,0,0
24032,-100,4,2,1,80,0,1
24188,-100,4,2,1,80,0,1
24266,-100,4,2,1,80,0,1
24422,-100,4,2,1,80,0,1
24500,-100,4,2,1,80,0,1
24578,-100,4,2,1,80,0,1
24657,-100,4,2,1,80,0,0
24754,-100,4,2,1,5,0,0
24813,-100,4,2,1,80,0,0
24832,-100,4,2,1,5,0,0
24891,-100,4,2,1,80,0,0
24910,-100,4,2,1,5,0,0
24969,-100,4,2,1,80,0,0
25282,-100,4,2,2,80,0,1
25516,-100,4,2,1,80,0,1
25750,-100,4,2,1,80,0,1
25828,-100,4,2,1,80,0,1
25907,-100,4,2,1,80,0,1
26141,-100,4,2,1,80,0,1
26375,-100,4,2,1,80,0,1
26453,-100,4,2,1,80,0,1
26532,-100,4,2,1,80,0,1
26766,-100,4,2,1,80,0,1
27000,-100,4,2,1,80,0,1
27078,-100,4,2,1,80,0,1
27157,-100,4,2,1,60,0,1
27469,-100,4,2,1,80,0,1
27703,-100,4,2,1,80,0,1
27782,-100,4,2,1,80,0,1
28328,-100,4,2,1,80,0,1
28407,-100,4,2,1,80,0,1
28719,-100,4,2,1,80,0,1
29032,-100,4,2,1,80,0,1
29266,-100,4,2,1,80,0,1
29500,-100,4,2,1,80,0,1
29578,-100,4,2,1,80,0,1
29657,-100,4,2,2,80,0,0
30282,-100,4,2,1,80,0,1
30516,-100,4,2,1,80,0,1
30750,-100,4,2,1,80,0,1
30828,-100,4,2,1,80,0,1
30907,-100,4,2,1,80,0,1
31141,-100,4,2,1,80,0,1
31375,-100,4,2,1,80,0,1
31453,-100,4,2,1,80,0,1
31532,-100,4,2,1,80,0,1
31766,-100,4,2,1,80,0,1
32000,-100,4,2,1,80,0,1
32078,-100,4,2,1,80,0,1
32157,-100,4,2,1,80,0,0
32703,-100,4,2,1,80,0,0
32782,-100,4,2,2,80,0,1
32938,-100,4,2,1,80,0,1
33328,-100,4,2,1,80,0,1
33407,-100,4,2,1,80,0,1
33719,-100,4,2,1,80,0,1
33875,-100,4,2,2,80,0,1
34032,-100,4,2,1,80,0,1
34266,-100,4,2,1,80,0,1
34500,-100,4,2,1,80,0,1
34578,-100,4,2,1,80,0,1
34657,-100,4,2,1,80,0,1
34754,-100,4,2,1,5,0,1
34813,-100,4,2,1,80,0,1
34832,-100,4,2,1,5,0,1
34891,-100,4,2,1,80,0,1
34910,-100,4,2,1,5,0,1
34969,-100,4,2,1,80,0,1
35282,-100,4,2,1,80,0,1
35516,-100,4,2,1,80,0,1
35750,-100,4,2,1,80,0,1
35828,-100,4,2,1,80,0,1
35907,-100,4,2,1,80,0,1
36141,-100,4,2,1,80,0,1
36375,-100,4,2,1,80,0,1
36453,-100,4,2,1,80,0,1
36532,-100,4,2,1,80,0,1
36766,-100,4,2,1,80,0,1
37000,-100,4,2,1,80,0,1
37078,-100,4,2,1,80,0,1
37157,-100,4,2,1,80,0,1
37391,-100,4,2,1,80,0,1
37469,-100,4,2,1,80,0,1
37703,-100,4,2,1,80,0,1
37782,-100,4,2,1,80,0,1
38328,-100,4,2,1,80,0,1
38407,-100,4,2,1,80,0,1
38719,-100,4,2,1,80,0,1
39032,-100,4,2,1,80,0,1
39266,-100,4,2,1,80,0,1
39500,-100,4,2,1,80,0,1
39578,-100,4,2,1,80,0,1
39657,-100,4,2,2,80,0,0
40282,-100,4,2,1,80,0,1
40516,-100,4,2,1,80,0,1
40750,-100,4,2,1,80,0,1
40828,-100,4,2,1,80,0,1
40907,-100,4,2,1,80,0,1
41141,-100,4,2,1,80,0,1
41375,-100,4,2,1,80,0,1
41453,-100,4,2,1,80,0,1
41532,-100,4,2,1,80,0,1
41766,-100,4,2,1,80,0,1
42000,-100,4,2,1,80,0,1
42078,-100,4,2,1,80,0,1
42157,-100,4,2,1,60,0,0
47157,-100,4,2,1,65,0,0
47625,-100,4,2,1,65,0,0
47782,-100,4,2,1,68,0,0
48250,-100,4,2,1,68,0,0
48407,-100,4,2,1,72,0,0
48875,-100,4,2,1,72,0,0
49032,-100,4,2,1,74,0,0
49500,-100,4,2,1,74,0,0
49657,-100,4,2,1,77,0,0
49969,-100,4,2,1,79,0,0
50282,-100,4,2,1,81,0,0
50594,-100,4,2,1,83,0,0
50907,-100,4,2,2,70,0,0
51375,-100,4,2,1,70,0,0
52157,-100,4,2,2,70,0,0
52313,-100,4,2,1,70,0,0
62157,-100,4,2,1,60,0,0
71453,-100,4,2,1,60,0,0
72157,-100,4,2,1,60,0,0
72625,-100,4,2,2,60,0,0
73094,-100,4,2,2,60,0,0
73407,-100,4,2,2,60,0,0
73875,-100,4,2,2,60,0,0
74344,-100,4,2,2,60,0,0
74657,-100,4,2,2,60,0,0
75125,-100,4,2,2,60,0,0
75594,-100,4,2,2,60,0,0
75907,-100,4,2,2,60,0,0
76375,-100,4,2,2,60,0,0
76844,-100,4,2,2,60,0,0
77157,-100,4,2,2,60,0,0
77625,-100,4,2,2,60,0,0
78094,-100,4,2,2,60,0,0
78407,-100,4,2,2,60,0,0
78875,-100,4,2,2,60,0,0
79344,-100,4,2,2,60,0,0
79657,-100,4,2,2,60,0,0
80125,-100,4,2,2,60,0,0
80594,-100,4,2,2,60,0,0
80907,-100,4,2,2,60,0,0
81375,-100,4,2,2,60,0,0
81844,-100,4,2,2,60,0,0
82157,-100,4,2,1,60,0,0
82469,-100,4,2,2,60,0,0
92157,-100,4,2,1,80,0,1
92469,-100,4,2,1,80,0,0
92625,-100,4,2,1,80,0,0
92782,-100,4,2,1,80,0,1
94657,-100,4,2,1,80,0,0
94969,-100,4,2,1,80,0,1
94989,-100,4,2,1,5,0,1
95047,-100,4,2,1,80,0,1
95067,-100,4,2,1,5,0,1
95125,-100,4,2,1,80,0,1
95145,-100,4,2,1,5,0,1
95203,-100,4,2,1,80,0,1
95223,-100,4,2,1,5,0,1
95282,-100,4,2,1,80,0,1
97157,-100,4,2,1,80,0,1
97391,-100,4,2,1,80,0,1
97782,-100,4,2,1,80,0,1
99657,-100,4,2,1,80,0,0
99891,-100,4,2,1,80,0,0
99969,-100,4,2,1,80,0,0
100047,-100,4,2,1,80,0,0
100125,-100,4,2,1,80,0,0
100203,-100,4,2,1,80,0,0
100282,-100,4,2,1,80,0,1
101239,-100,4,2,1,5,0,1
101297,-100,4,2,1,80,0,1
101317,-100,4,2,1,5,0,1
101375,-100,4,2,1,80,0,1
101395,-100,4,2,1,5,0,1
101453,-100,4,2,1,80,0,1
101473,-100,4,2,1,5,0,1
101532,-100,4,2,1,80,0,0
102078,-100,4,2,1,80,0,0
102157,-100,4,2,1,80,0,1
102391,-100,4,2,1,80,0,1
102782,-100,4,2,1,80,0,1
103407,-100,4,2,1,80,0,1
103719,-100,4,2,1,80,0,1
104657,-100,4,2,1,80,0,1
104891,-100,4,2,1,80,0,1
104969,-100,4,2,1,80,0,1
104989,-100,4,2,1,5,0,1
105047,-100,4,2,1,80,0,1
105067,-100,4,2,1,5,0,1
105125,-100,4,2,1,80,0,1
105145,-100,4,2,1,5,0,1
105203,-100,4,2,1,80,0,1
105223,-100,4,2,1,5,0,1
105282,-100,4,2,1,80,0,1
107157,-100,4,2,1,80,0,0
107703,-100,4,2,1,80,0,0
107782,-100,4,2,1,80,0,1
110438,-100,4,2,1,80,0,1
110516,-100,4,2,1,80,0,1
110672,-100,4,2,1,80,0,1
110750,-100,4,2,1,80,0,1
110828,-100,4,2,1,80,0,1
110907,-100,4,2,1,80,0,0
110985,-100,4,2,2,50,0,0
111219,-100,4,2,1,70,0,0
111532,-100,4,2,2,90,0,0
111844,-100,4,2,1,80,0,0
112078,-100,4,2,1,80,0,0
112157,-100,4,2,2,80,0,1
112391,-100,4,2,1,80,0,1
112469,-100,4,2,1,80,0,1
112625,-100,4,2,1,80,0,1
112703,-100,4,2,1,80,0,1
112860,-100,4,2,1,80,0,1
112938,-100,4,2,1,80,0,1
113016,-100,4,2,1,80,0,1
113094,-100,4,2,1,80,0,1
113172,-100,4,2,1,80,0,1
113250,-100,4,2,1,80,0,1
113328,-100,4,2,1,80,0,1
113407,-100,4,2,1,80,0,1
113563,-100,4,2,1,80,0,1
113641,-100,4,2,1,80,0,1
113797,-100,4,2,1,80,0,1
113875,-100,4,2,1,80,0,1
114110,-100,4,2,1,80,0,1
114266,-100,4,2,1,80,0,1
114344,-100,4,2,1,80,0,1
114422,-100,4,2,1,80,0,1
114500,-100,4,2,1,80,0,1
114578,-100,4,2,1,80,0,1
114657,-100,4,2,1,80,0,1
114813,-100,4,2,1,80,0,1
114891,-100,4,2,1,80,0,1
115125,-100,4,2,1,80,0,1
115203,-100,4,2,1,80,0,1
115516,-100,4,2,1,80,0,1
115594,-100,4,2,1,80,0,1
115672,-100,4,2,1,80,0,1
115750,-100,4,2,1,80,0,1
115828,-100,4,2,1,80,0,1
115907,-100,4,2,1,80,0,1
116141,-100,4,2,1,80,0,1
116297,-100,4,2,1,80,0,1
116375,-100,4,2,1,80,0,1
116453,-100,4,2,1,80,0,1
116532,-100,4,2,1,80,0,1
116688,-100,4,2,1,80,0,1
117157,-100,4,2,1,80,0,1
117391,-100,4,2,1,80,0,1
117469,-100,4,2,1,80,0,1
117625,-100,4,2,1,80,0,1
117703,-100,4,2,1,80,0,1
117860,-100,4,2,1,80,0,1
117938,-100,4,2,1,80,0,1
118016,-100,4,2,1,80,0,1
118094,-100,4,2,1,80,0,1
118172,-100,4,2,1,80,0,1
118250,-100,4,2,1,80,0,1
118328,-100,4,2,1,80,0,1
118407,-100,4,2,1,80,0,1
118563,-100,4,2,1,80,0,1
118641,-100,4,2,1,80,0,1
118797,-100,4,2,1,80,0,1
118875,-100,4,2,1,80,0,1
119110,-100,4,2,1,80,0,1
119266,-100,4,2,1,80,0,1
119344,-100,4,2,1,80,0,1
119422,-100,4,2,1,80,0,1
119500,-100,4,2,1,80,0,1
119578,-100,4,2,1,80,0,1
119657,-100,4,2,1,80,0,1
120438,-100,4,2,1,80,0,1
120594,-100,4,2,1,80,0,1
120750,-100,4,2,1,80,0,1
120907,-100,4,2,1,80,0,1
121532,-100,4,2,1,80,0,1
122157,-100,4,2,2,80,0,1
122391,-100,4,2,1,80,0,1
122469,-100,4,2,1,80,0,1
122625,-100,4,2,1,80,0,1
122703,-100,4,2,1,80,0,1
122860,-100,4,2,1,80,0,1
122938,-100,4,2,1,80,0,1
123016,-100,4,2,1,80,0,1
123094,-100,4,2,1,80,0,1
123172,-100,4,2,1,80,0,1
123250,-100,4,2,1,80,0,1
123328,-100,4,2,1,80,0,1
123407,-100,4,2,1,80,0,1
123563,-100,4,2,1,80,0,1
123641,-100,4,2,1,80,0,1
123797,-100,4,2,1,80,0,1
123875,-100,4,2,1,80,0,1
124110,-100,4,2,1,80,0,1
124266,-100,4,2,1,80,0,1
124344,-100,4,2,1,80,0,1
124422,-100,4,2,1,80,0,1
124500,-100,4,2,1,80,0,1
124578,-100,4,2,1,80,0,1
124657,-100,4,2,1,80,0,1
124813,-100,4,2,1,80,0,1
124891,-100,4,2,1,80,0,1
125125,-100,4,2,1,80,0,1
125203,-100,4,2,1,80,0,1
125516,-100,4,2,1,80,0,1
125594,-100,4,2,1,80,0,1
125672,-100,4,2,1,80,0,1
125750,-100,4,2,1,80,0,1
125828,-100,4,2,1,80,0,1
125907,-100,4,2,1,80,0,1
126141,-100,4,2,1,80,0,1
126297,-100,4,2,1,80,0,1
126375,-100,4,2,1,80,0,1
126453,-100,4,2,1,80,0,1
126532,-100,4,2,1,80,0,1
126688,-100,4,2,1,80,0,1
127157,-100,4,2,1,80,0,1
127391,-100,4,2,1,80,0,1
127469,-100,4,2,1,80,0,1
127625,-100,4,2,1,80,0,1
127703,-100,4,2,1,80,0,1
127860,-100,4,2,1,80,0,1
127938,-100,4,2,1,80,0,1
128016,-100,4,2,1,80,0,1
128094,-100,4,2,1,80,0,1
128172,-100,4,2,1,80,0,1
128250,-100,4,2,1,80,0,1
128328,-100,4,2,1,80,0,1
128407,-100,4,2,1,80,0,1
128563,-100,4,2,1,80,0,1
128641,-100,4,2,1,80,0,1
128797,-100,4,2,1,80,0,1
128875,-100,4,2,1,80,0,1
129110,-100,4,2,1,80,0,1
129266,-100,4,2,1,80,0,1
129344,-100,4,2,1,80,0,1
129422,-100,4,2,1,80,0,1
129500,-100,4,2,1,80,0,1
129578,-100,4,2,1,80,0,1
129657,-100,4,2,1,90,0,1
130907,-100,4,2,1,95,0,1
131532,-100,4,2,1,95,0,1
132157,-100,4,2,1,100,0,0
132235,-100,4,2,1,50,0,0
132782,-100,4,2,1,40,0,0
133407,-100,4,2,1,30,0,0
134032,-100,4,2,1,20,0,0
134657,-100,4,2,1,15,0,0
135282,-100,4,2,1,10,0,0
135907,-100,4,2,1,5,0,0

[Colours]
Combo1 : 29,220,254
Combo2 : 40,148,255
Combo3 : 0,115,170

[HitObjects]
256,192,907,12,2,1844,0:0:0:0:
246,153,2157,6,0,L|81:132,2,150,4|2|2,3:2|0:0|0:0,0:0:0:0:
406,184,3094,1,0,0:0:0:0:
327,225,3250,6,0,L|161:253,2,150,2|2|0,0:0|0:0|0:0,0:0:0:0:
245,187,4032,2,0,L|86:171,1,150,2|2,1:2|0:0,0:0:0:0:
260,100,4657,6,0,L|438:76,2,150,2|0|2,1:2|0:0|1:2,0:0:0:0:
95,129,5594,1,0,0:0:0:0:
237,196,5750,2,0,L|397:208,1,150,2|2,0:0|0:0,0:0:0:0:
307,261,6219,1,0,0:0:0:0:
62,298,6532,2,0,L|51:142,1,150,2|2,1:2|1:2,0:0:0:0:
310,100,7157,6,0,L|479:74,2,150,2|0|2,1:2|0:0|1:2,0:0:0:0:
150,115,8094,1,0,0:0:0:0:
237,169,8250,2,0,L|408:188,1,150,2|2,0:0|0:0,0:0:0:0:
308,226,8719,1,2,0:0:0:0:
153,257,9032,1,2,1:2:0:0:
312,326,9344,1,2,0:0:0:0:
47,348,9657,6,0,L|41:186,1,150,2|2,1:2|0:0,0:0:0:0:
111,181,10125,1,2,0:0:0:0:
141,115,10281,1,2,1:2:0:0:
107,52,10437,1,2,0:0:0:0:
35,40,10594,1,2,0:0:0:0:
191,27,10750,6,0,L|348:49,1,150,2|0,0:0|0:0,0:0:0:0:
262,83,11219,1,2,0:0:0:0:
38,135,11532,2,0,P|26:181|95:213,1,112.5,0|8,3:0|0:1,0:0:0:0:
111,230,11844,2,0,L|214:232,1,75,8|8,0:1|0:1,0:0:0:0:
426,315,12157,6,0,P|434:272|361:236,1,112.5,4|0,3:2|0:0,0:0:0:0:
348,231,12469,2,0,L|261:223,1,75,2|2,3:3|0:3,0:0:0:0:
365,187,12782,2,0,L|496:156,2,112.5,0|0|0,3:3|3:3|3:0,0:0:0:0:
216,54,13407,6,0,L|205:152,1,75,0|2,3:0|0:3,0:0:0:0:
286,129,13719,2,0,L|288:219,1,75,0|2,3:0|0:3,0:0:0:0:
132,250,14032,2,0,L|12:260,2,112.5,2|2|2,3:3|3:0|3:0,0:0:0:0:
291,298,14657,6,0,L|300:208,1,75,0|2,3:0|0:3,0:0:0:0:
206,219,14969,2,0,L|285:166,1,75,0|2,3:0|0:3,0:0:0:0:
352,138,15282,2,0,L|483:134,2,112.5,0|0|2,3:0|3:0|3:0,0:0:0:0:
200,58,15907,6,0,L|344:42,2,112.5,0|0|2,3:0|3:0|3:3,0:0:0:0:
48,126,16532,2,0,L|35:252,2,112.5,2|2|2,3:3|3:3|3:3,0:0:0:0:
275,163,17157,6,0,L|367:173,1,75,6|2,3:2|3:3,0:0:0:0:
257,242,17469,1,2,3:3:0:0:
219,243,17547,1,2,0:3:0:0:
182,245,17625,1,2,3:3:0:0:
332,331,17782,6,0,L|423:317,1,75,6|2,3:2|3:3,0:0:0:0:
305,260,18094,2,0,L|280:208,2,37.5,2|2|2,3:3|0:3|3:3,0:0:0:0:
464,222,18407,2,0,L|457:117,1,75,6|2,3:2|3:3,0:0:0:0:
370,113,18719,1,2,3:3:0:0:
332,113,18797,1,2,0:3:0:0:
295,113,18875,1,2,3:3:0:0:
76,172,19032,6,0,L|72:95,1,75,6|2,3:2|3:3,0:0:0:0:
219,62,19344,1,2,3:3:0:0:
256,60,19422,1,2,0:3:0:0:
293,58,19500,1,2,3:3:0:0:
73,73,19657,5,12,3:2:0:0:
37,78,19735,1,8,3:2:0:0:
20,110,19813,1,8,3:2:0:0:
37,142,19891,1,8,3:2:0:0:
72,148,19969,2,0,L|157:148,1,75,8|8,3:2|3:2,0:0:0:0:
300,169,20282,5,8,3:2:0:0:
336,174,20360,1,8,3:2:0:0:
353,206,20438,1,8,3:2:0:0:
336,238,20516,1,8,3:2:0:0:
301,244,20594,2,0,L|216:244,1,75,8|8,3:2|3:2,0:0:0:0:
446,332,20907,5,8,0:3:0:0:
453,295,20985,1,8,0:3:0:0:
441,261,21063,1,8,0:3:0:0:
412,238,21141,1,8,0:3:0:0:
373,229,21219,5,8,0:3:0:0:
332,220,21297,1,8,0:3:0:0:
313,188,21375,1,8,0:3:0:0:
330,155,21453,1,8,0:3:0:0:
371,145,21532,2,0,L|435:145,2,37.5,8|8|8,0:3|0:3|0:3,0:0:0:0:
221,100,21844,6,0,L|125:93,1,75,2|2,0:1|0:1,0:0:0:0:
294,38,22157,2,0,L|301:126,1,75,0|0,3:0|0:0,0:0:0:0:
51,144,22469,6,0,P|33:195|121:226,1,150,2|2,3:2|3:2,0:0:0:0:
222,272,23016,1,2,3:2:0:0:
105,337,23250,1,2,3:2:0:0:
325,349,23407,6,0,L|476:333,1,150,2|8,3:2|3:3,0:0:0:0:
435,304,23797,1,8,3:3:0:0:
394,296,23875,1,8,3:3:0:0:
232,222,24032,2,0,L|86:211,2,112.5,2|2|2,3:2|3:2|3:2,0:0:0:0:
383,220,24657,5,0,3:0:0:0:
418,211,24735,1,2,0:1:0:0:
433,179,24813,1,2,0:1:0:0:
417,146,24891,1,2,0:1:0:0:
381,140,24969,2,0,L|303:141,1,75,2|2,3:3|0:3,0:0:0:0:
76,54,25282,6,0,L|211:80,2,112.5,4|2|2,3:2|3:2|3:2,0:0:0:0:
215,158,25907,2,0,L|343:159,2,112.5,2|2|2,3:2|3:2|3:2,0:0:0:0:
61,169,26532,6,0,L|56:284,1,112.5,2|2,3:2|3:2,0:0:0:0:
287,256,27000,2,0,L|297:353,1,75,2|0,3:2|3:0,0:0:0:0:
258,346,27235,1,0,1:0:0:0:
219,347,27313,1,2,1:3:0:0:
372,354,27469,6,0,L|461:346,1,75,2|0,3:2|0:0,0:0:0:0:
225,235,27782,2,0,L|91:227,2,112.5,2|2|2,3:2|3:2|3:2,0:0:0:0:
382,129,28407,6,0,L|217:104,1,150,2|2,3:2|3:3,0:0:0:0:
210,71,28797,1,2,0:3:0:0:
233,106,28875,1,2,0:3:0:0:
394,182,29032,2,0,L|498:119,2,112.5,2|2|2,3:2|3:2|3:2,0:0:0:0:
160,253,29657,5,0,3:0:0:0:
140,295,29735,1,2,0:0:0:0:
160,253,29813,1,2,0:0:0:0:
205,245,29930,1,2,0:0:0:0:
252,242,30038,1,2,0:0:0:0:
310,242,30157,1,2,3:2:0:0:
124,133,30282,6,0,L|15:76,2,112.5,6|2|2,3:2|3:2|3:2,0:0:0:0:
282,61,30907,2,0,L|162:29,2,112.5,2|2|2,3:2|3:2|3:2,0:0:0:0:
438,88,31532,6,0,L|442:189,1,75,2|2,3:2|0:3,0:0:0:0:
383,180,31766,2,0,L|334:173,2,37.5,2|2|2,3:2|0:3|0:3,0:0:0:0:
440,164,32000,1,2,3:2:0:0:
288,113,32157,6,0,P|226:118|189:262,1,225,0|0,3:0|0:0,0:0:0:0:
423,305,32782,6,0,L|425:165,1,112.5,4|2,3:2|3:2,0:0:0:0:
296,167,33250,1,2,3:2:0:0:
133,85,33407,6,0,L|300:75,1,150,2|8,3:2|3:3,0:0:0:0:
305,112,33797,1,8,0:3:0:0:
282,76,33875,1,8,0:3:0:0:
127,177,34032,2,0,L|15:123,2,112.5,2|2|2,3:2|3:2|3:2,0:0:0:0:
282,222,34657,5,0,3:0:0:0:
262,253,34735,1,2,0:1:0:0:
233,277,34813,1,2,0:1:0:0:
198,289,34891,1,2,0:1:0:0:
160,287,34969,2,0,L|153:203,1,75,2|2,3:3|0:3,0:0:0:0:
383,169,35282,6,0,L|512:126,2,112.5,2|2|2,3:2|3:2|3:2,0:0:0:0:
223,86,35907,2,0,L|348:72,2,112.5,2|2|2,3:2|3:2|3:2,0:0:0:0:
70,111,36532,2,0,L|39:241,2,112.5,2|2|2,3:2|3:2|3:2,0:0:0:0:
211,118,37157,6,0,L|235:79,2,37.5,0|0|2,3:0|1:0|1:3,0:0:0:0:
68,109,37469,2,0,L|63:13,1,75,2|0,3:2|0:0,0:0:0:0:
217,208,37782,6,0,L|97:217,2,112.5,2|2|2,3:2|3:2|3:2,0:0:0:0:
452,108,38407,2,0,L|301:93,1,150,2|2,3:2|3:3,0:0:0:0:
282,68,38797,1,2,0:3:0:0:
302,93,38875,1,2,0:3:0:0:
461,210,39032,2,0,L|343:224,2,112.5,2|2|2,3:2|3:2|3:2,0:0:0:0:
232,313,39657,5,2,3:2:0:0:
212,355,39735,1,2,0:0:0:0:
232,313,39813,1,2,0:0:0:0:
277,305,39930,1,2,0:0:0:0:
327,303,40038,1,2,0:0:0:0:
270,283,40157,1,2,3:2:0:0:
82,282,40282,6,0,L|15:180,2,112.5,6|2|2,3:2|3:2|3:2,0:0:0:0:
247,166,40907,2,0,L|360:155,2,112.5,2|2|2,3:2|3:2|3:2,0:0:0:0:
93,164,41532,2,0,L|86:71,1,75,2|2,3:2|0:3,0:0:0:0:
128,87,41766,2,0,L|175:89,2,37.5,2|2|2,3:2|0:3|0:3,0:0:0:0:
87,89,42000,1,2,3:2:0:0:
316,224,42157,6,0,L|480:232,2,150,4|8|8,3:2|0:0|0:0,0:0:0:0:
197,243,43016,1,8,0:0:0:0:
316,275,43250,1,8,0:0:0:0:
181,282,43407,6,0,L|17:219,2,150,8|8|8,0:0|0:0|0:0,0:0:0:0:
305,309,44266,1,8,0:0:0:0:
181,330,44500,1,8,0:0:0:0:
323,347,44657,6,0,L|485:327,2,150,8|8|8,0:0|0:0|0:0,0:0:0:0:
200,330,45516,1,8,0:0:0:0:
326,304,45750,1,8,0:0:0:0:
186,285,45907,6,0,L|31:255,2,150,8|8|8,0:0|0:0|0:0,0:0:0:0:
311,275,46766,1,8,0:0:0:0:
183,235,47000,1,8,0:0:0:0:
329,211,47157,6,0,L|470:204,2,112.5,8|8|8,3:2|3:2|3:2,0:0:0:0:
175,206,47782,2,0,L|172:113,1,75,8|0,3:2|3:0,0:0:0:0:
212,126,48016,1,8,3:2:0:0:
253,119,48094,2,0,L|364:119,1,75,0|8,3:0|3:2,0:0:0:0:
170,57,48407,6,0,L|46:62,2,112.5,8|8|8,3:2|3:2|3:2,0:0:0:0:
331,207,49032,2,0,L|221:217,1,75,8|0,3:2|3:0,0:0:0:0:
216,219,49266,1,8,3:2:0:0:
172,224,49344,2,0,L|171:310,1,75,0|8,3:0|3:2,0:0:0:0:
393,342,49657,6,0,L|445:344,2,37.5,8|8|8,3:2|0:2|3:2,0:0:0:0:
252,340,49969,1,8,3:2:0:0:
249,302,50047,1,8,0:2:0:0:
246,265,50125,1,8,3:2:0:0:
100,234,50282,5,8,3:2:0:0:
97,196,50360,1,8,0:2:0:0:
94,159,50438,1,8,3:2:0:0:
236,122,50594,1,8,3:2:0:0:
273,124,50672,1,8,0:2:0:0:
310,127,50750,1,8,3:2:0:0:
83,211,50907,5,8,0:3:0:0:
47,202,50985,1,8,0:3:0:0:
22,175,51063,1,8,0:3:0:0:
18,138,51141,1,8,0:3:0:0:
37,106,51219,1,8,0:3:0:0:
70,91,51297,1,8,0:3:0:0:
115,91,51375,1,8,0:3:0:0:
260,96,51532,6,0,L|321:96,2,37.5,8|8|8,0:3|0:3|0:3,0:0:0:0:
114,80,51844,1,8,0:2:0:0:
491,89,52157,6,0,L|492:251,1,150,6|8,3:2|3:1,0:0:0:0:
334,250,52782,2,0,L|222:239,1,112.5,2|2,0:0|0:0,0:0:0:0:
262,211,53094,1,8,0:1:0:0:
344,200,53250,1,2,0:0:0:0:
199,127,53407,6,0,L|111:115,1,75,2|2,3:2|0:0,0:0:0:0:
263,62,53719,2,0,L|266:160,1,75,8|0,3:1|0:0,0:0:0:0:
222,156,53953,1,0,3:0:0:0:
175,171,54032,2,0,L|92:177,1,75,2|0,0:0|3:0,0:0:0:0:
237,245,54344,2,0,L|334:255,1,75,8|2,3:1|0:0,0:0:0:0:
151,318,54657,6,0,L|65:328,2,75,2|0|8,3:2|3:0|3:1,0:0:0:0:
239,324,55125,1,2,0:0:0:0:
385,240,55282,2,0,L|272:218,1,112.5,2|2,0:0|0:0,0:0:0:0:
237,211,55594,1,8,3:1:0:0:
144,179,55750,1,2,0:0:0:0:
301,121,55907,6,0,L|394:124,2,75,2|0|8,3:2|3:0|3:1,0:0:0:0:
219,124,56375,1,2,0:0:0:0:
74,152,56532,2,0,L|63:59,1,75,2|2,0:0|3:2,0:0:0:0:
209,36,56844,2,0,L|295:39,1,75,8|8,3:1|3:1,0:0:0:0:
228,73,57078,1,8,3:1:0:0:
170,84,57157,6,0,L|78:80,2,75,2|2|8,3:2|0:0|3:1,0:0:0:0:
340,180,57782,2,0,L|218:204,1,112.5,2|2,0:0|0:0,0:0:0:0:
189,204,58094,1,8,3:1:0:0:
268,251,58250,1,2,0:0:0:0:
424,242,58407,6,0,L|429:364,1,112.5,2|2,3:2|0:0,0:0:0:0:
386,364,58719,1,8,3:1:0:0:
299,365,58875,1,2,0:0:0:0:
157,277,59032,2,0,L|258:262,1,75,2|2,0:0|3:2,0:0:0:0:
370,182,59344,2,0,L|286:176,1,75,8|2,3:1|0:0,0:0:0:0:
142,169,59657,6,0,L|102:94,2,75,2|2|8,3:2|3:2|3:1,0:0:0:0:
232,191,60125,1,2,0:0:0:0:
130,217,60282,2,0,L|31:224,1,75,2|0,0:0|3:0,0:0:0:0:
193,298,60594,2,0,L|282:303,1,75,8|2,3:1|0:0,0:0:0:0:
124,362,60907,6,0,L|28:351,2,75,2|0|8,3:2|3:0|3:1,0:0:0:0:
211,362,61375,1,2,0:0:0:0:
366,337,61532,2,0,L|354:253,1,75,2|0,0:0|3:0,0:0:0:0:
310,253,61766,1,0,0:0:0:0:
260,244,61844,2,0,L|171:233,1,75,8|8,3:1|3:1,0:0:0:0:
425,87,62157,6,0,P|450:137|357:186,1,150,4|8,3:2|3:1,0:0:0:0:
226,146,62782,2,0,L|354:124,1,112.5,2|2,0:0|0:0,0:0:0:0:
376,126,63094,1,8,0:1:0:0:
290,68,63250,1,2,0:0:0:0:
143,90,63407,6,0,L|105:164,2,75,2|2|8,3:2|1:2|3:1,0:0:0:0:
228,87,63875,1,0,1:0:0:0:
385,128,64032,2,0,L|392:228,1,75,2|0,1:2|3:0,0:0:0:0:
262,222,64344,2,0,L|259:328,1,75,8|2,3:1|0:0,0:0:0:0:
403,334,64657,6,0,L|492:331,2,75,2|0|8,3:2|3:0|3:1,0:0:0:0:
325,345,65125,1,2,0:0:0:0:
172,284,65282,2,0,L|300:251,1,112.5,2|2,1:2|1:2,0:0:0:0:
319,251,65594,1,8,3:1:0:0:
237,195,65750,1,2,0:0:0:0:
86,180,65907,6,0,L|83:89,1,75,2|0,3:2|3:0,0:0:0:0:
166,84,66219,1,8,3:1:0:0:
253,89,66375,1,2,0:0:0:0:
116,39,66532,2,0,L|13:47,1,75,2|2,1:2|3:2,0:0:0:0:
175,135,66844,2,0,L|279:138,1,75,8|8,3:1|3:1,0:0:0:0:
198,164,67078,1,8,3:1:0:0:
134,178,67157,6,0,L|94:255,2,75,2|2|8,3:2|0:0|3:1,0:0:0:0:
221,169,67625,1,2,0:0:0:0:
375,108,67782,2,0,L|238:80,1,112.5,2|2,1:2|1:2,0:0:0:0:
225,88,68094,1,8,3:1:0:0:
318,41,68250,1,2,0:0:0:0:
468,58,68407,6,0,L|472:213,1,150,2|8,3:2|3:1,0:0:0:0:
389,233,68875,1,2,1:2:0:0:
239,253,69032,2,0,L|232:332,1,75,2|2,1:2|3:2,0:0:0:0:
380,336,69344,2,0,L|396:242,1,75,8|2,3:1|0:0,0:0:0:0:
237,189,69657,6,0,L|144:193,2,75,2|2|8,3:2|3:2|3:1,0:0:0:0:
320,185,70125,1,2,1:2:0:0:
179,100,70282,2,0,L|51:88,1,112.5,2|2,1:2|1:2,0:0:0:0:
109,62,70594,1,8,3:1:0:0:
196,48,70750,1,2,0:0:0:0:
360,82,70907,6,0,L|365:184,1,75,2|0,3:2|3:0,0:0:0:0:
207,178,71219,2,0,L|199:262,1,75,8|0,3:1|3:0,0:0:0:0:
247,264,71453,6,0,P|352:257|386:108,1,262.5,8|0,3:1|0:0,0:0:0:0:
136,77,72157,6,0,P|87:83|43:243,2,225,4|2|2,3:1|0:0|0:0,0:0:0:0:
406,138,73407,2,0,L|235:169,1,150,2|0,0:1|0:0,0:0:0:0:
179,204,73875,2,0,L|327:247,1,150,2|0,0:0|0:0,0:0:0:0:
405,249,74344,1,2,0:0:0:0:
160,333,74657,6,0,P|147:273|288:198,2,225,2|2|2,0:1|0:0|0:0,0:0:0:0:
381,353,75907,6,0,L|226:317,1,150,2|0,0:1|0:0,0:0:0:0:
144,326,76375,2,0,P|125:273|199:199,1,150,2|0,0:0|0:0,0:0:0:0:
264,189,76844,1,2,0:0:0:0:
494,114,77157,6,0,L|247:45,2,225,2|2|2,0:1|0:0|0:0,0:0:0:0:
238,225,78407,6,0,L|80:239,1,150,2|0,0:1|0:0,0:0:0:0:
172,281,78875,2,0,L|336:298,1,150,2|0,0:0|0:0,0:0:0:0:
401,315,79344,1,2,0:0:0:0:
153,360,79657,6,0,P|52:320|62:214,2,225,2|2|2,0:1|0:0|0:0,0:0:0:0:
403,182,80907,6,0,L|238:151,1,150,2|0,0:1|0:0,0:0:0:0:
172,121,81375,2,0,L|328:93,1,150,2|0,0:0|0:0,0:0:0:0:
408,100,81844,1,2,0:0:0:0:
112,35,82157,6,0,L|99:191,1,150,4|8,3:2|0:0,0:0:0:0:
179,213,82625,1,0,3:0:0:0:
265,217,82782,1,8,0:0:0:0:
83,330,83094,1,8,0:0:0:0:
317,350,83407,6,0,L|455:354,2,112.5,0|0|0,3:0|3:0|3:0,0:0:0:0:
172,359,84032,2,0,P|152:304|210:271,1,112.5,8|0,0:0|3:0,0:0:0:0:
226,265,84344,2,0,L|328:258,1,75,8|8,0:0|0:0,0:0:0:0:
450,258,84657,6,0,L|494:138,2,112.5,0|0|0,3:0|3:0|3:0,0:0:0:0:
309,238,85282,2,0,L|176:228,1,112.5,0|0,0:0|3:0,0:0:0:0:
239,202,85594,2,0,L|341:190,1,75,8|0,0:0|0:0,0:0:0:0:
170,125,85907,6,0,L|70:115,2,75,8|8|8,3:2|0:0|0:0,0:0:0:0:
308,111,86375,2,0,L|332:64,1,37.5,0|0,3:2|0:0,0:0:0:0:
308,111,86532,2,0,L|222:110,1,75,8|8,0:0|3:2,0:0:0:0:
90,181,86844,2,0,L|81:282,1,75,8|2,0:0|0:0,0:0:0:0:
232,267,87157,6,0,L|357:253,1,112.5,0|0,3:0|3:0,0:0:0:0:
223,359,87625,2,0,L|66:339,1,150,0|0,3:0|3:0,0:0:0:0:
59,308,88016,1,0,3:0:0:0:
74,340,88094,1,8,0:0:0:0:
309,349,88407,6,0,L|445:348,1,112.5,0|0,3:0|3:0,0:0:0:0:
290,264,88875,2,0,P|235:254|256:178,1,150,0|0,3:0|3:0,0:0:0:0:
294,170,89266,1,0,3:0:0:0:
345,169,89344,2,0,L|436:167,1,75,8|0,0:0|0:0,0:0:0:0:
265,82,89657,6,0,L|138:65,2,112.5,2|2|2,3:2|3:2|3:2,0:0:0:0:
400,102,90282,1,0,0:0:0:0:
435,106,90360,1,0,0:0:0:0:
453,138,90438,1,0,3:0:0:0:
438,171,90516,1,0,0:0:0:0:
403,179,90594,2,0,L|310:168,1,75,10|0,3:2|0:0,0:0:0:0:
172,228,90907,6,0,L|144:278,2,37.5,10|0|0,3:2|0:0|0:0,0:0:0:0:
228,219,91141,2,0,L|163:214,1,37.5,10|0,0:0|0:0,0:0:0:0:
47,258,91375,6,0,P|21:206|185:80,1,300,10|0,0:0|0:0,0:0:0:0:
411,228,92157,6,0,L|243:243,1,150,4|8,3:2|3:2,0:0:0:0:
240,273,92547,1,0,0:0:0:0:
261,241,92625,1,0,3:0:0:0:
418,138,92782,2,0,L|288:122,1,112.5,8|8,3:2|3:2,0:0:0:0:
268,119,93094,1,0,3:0:0:0:
374,59,93250,1,8,3:2:0:0:
256,35,93407,6,0,L|149:42,1,75,8|8,3:2|3:2,0:0:0:0:
322,147,93719,2,0,L|326:205,1,37.5,0|8,3:0|3:2,0:0:0:0:
194,200,93953,2,0,L|188:258,1,37.5,0|8,3:0|3:2,0:0:0:0:
288,277,94188,5,8,3:2:0:0:
412,316,94344,2,0,L|348:320,1,37.5,0|8,3:0|3:2,0:0:0:0:
291,361,94578,2,0,L|349:357,1,37.5,0|2,3:0|3:1,0:0:0:0:
405,369,94813,1,2,0:1:0:0:
181,319,94969,6,0,L|156:282,2,37.5,10|2|2,3:2|0:0|3:2,0:0:0:0:
320,269,95282,2,0,L|448:257,1,112.5,8|8,3:2|3:2,0:0:0:0:
394,229,95594,1,0,3:0:0:0:
312,206,95750,1,8,3:2:0:0:
172,217,95907,6,0,L|160:122,1,75,0|8,3:0|3:2,0:0:0:0:
299,95,96219,2,0,L|232:90,1,37.5,0|8,3:0|3:2,0:0:0:0:
125,40,96453,2,0,L|68:40,1,37.5,0|8,3:0|3:2,0:0:0:0:
166,131,96688,2,0,L|212:139,1,37.5,0|8,3:0|3:2,0:0:0:0:
288,200,96922,2,0,L|242:207,1,37.5,0|8,3:0|3:2,0:0:0:0:
21,173,97157,6,0,P|44:129|155:108,1,150,4|8,3:2|3:2,0:0:0:0:
210,105,97625,1,0,3:0:0:0:
354,220,97782,2,0,L|212:246,1,112.5,8|8,3:2|3:2,0:0:0:0:
285,277,98094,1,0,3:0:0:0:
367,298,98250,1,8,3:2:0:0:
221,364,98407,6,0,L|215:259,1,75,10|10,3:2|3:2,0:0:0:0:
343,291,98719,2,0,L|348:236,1,37.5,0|10,3:0|3:2,0:0:0:0:
216,242,98953,2,0,L|205:188,1,37.5,0|8,3:0|3:2,0:0:0:0:
294,170,99188,1,8,3:2:0:0:
383,162,99344,6,0,L|395:102,1,37.5,0|8,3:0|3:2,0:0:0:0:
266,68,99578,2,0,L|206:73,1,37.5,0|2,3:0|3:2,0:0:0:0:
201,135,99761,1,2,0:0:0:0:
228,71,99865,1,0,0:0:0:0:
324,108,99969,6,0,L|416:113,1,75,8|0,3:2|3:0,0:0:0:0:
170,206,100282,2,0,L|46:223,1,112.5,8|8,3:2|3:2,0:0:0:0:
100,251,100594,1,0,3:0:0:0:
246,292,100750,2,0,L|355:296,2,75,8|0|8,3:2|3:0|3:2,0:0:0:0:
97,344,101219,2,0,L|70:296,2,37.5,2|10|2,3:2|3:2|0:0,0:0:0:0:
259,357,101532,6,0,P|350:351|363:217,1,225,0|0,3:0|0:0,0:0:0:0:
138,234,102157,6,0,P|83:219|103:138,1,150,4|8,3:2|3:2,0:0:0:0:
174,121,102625,1,0,3:0:0:0:
322,71,102782,2,0,L|201:52,1,112.5,8|8,3:2|3:2,0:0:0:0:
168,54,103094,1,0,3:0:0:0:
162,166,103250,1,8,3:2:0:0:
317,195,103407,6,0,L|323:283,1,75,8|8,3:2|3:2,0:0:0:0:
188,308,103719,2,0,L|137:309,1,37.5,0|8,3:0|3:2,0:0:0:0:
22,242,103953,2,0,L|73:231,1,37.5,0|8,3:0|3:2,0:0:0:0:
160,207,104188,5,8,3:2:0:0:
270,142,104344,2,0,L|210:137,1,37.5,0|8,3:0|3:2,0:0:0:0:
148,120,104578,2,0,L|142:73,1,37.5,0|2,3:0|3:1,0:0:0:0:
218,51,104813,1,2,0:1:0:0:
446,120,104969,6,0,L|513:115,2,37.5,10|2|2,3:2|0:0|3:2,0:0:0:0:
310,164,105282,2,0,L|192:186,1,112.5,8|8,3:2|3:2,0:0:0:0:
240,214,105594,1,0,3:0:0:0:
354,267,105750,1,8,3:2:0:0:
239,306,105907,6,0,L|146:311,1,75,0|8,3:0|3:2,0:0:0:0:
295,364,106219,2,0,L|338:362,1,37.5,0|8,3:0|3:2,0:0:0:0:
464,267,106453,2,0,L|414:265,1,37.5,0|8,3:0|3:2,0:0:0:0:
333,248,106688,2,0,L|330:200,1,37.5,0|8,3:0|3:2,0:0:0:0:
418,186,106922,2,0,L|425:122,1,37.5,0|8,3:0|3:2,0:0:0:0:
272,170,107157,5,0,3:0:0:0:
271,93,107261,1,2,0:0:0:0:
309,86,107339,1,2,0:0:0:0:
352,85,107417,1,2,0:0:0:0:
373,55,107495,1,2,0:0:0:0:
348,23,107606,1,2,0:0:0:0:
78,53,107782,6,0,L|67:187,1,112.5,12|8,3:2|3:2,0:0:0:0:
109,184,108094,1,0,3:0:0:0:
224,215,108250,1,8,3:2:0:0:
346,238,108407,2,0,L|353:328,1,75,8|8,3:2|3:2,0:0:0:0:
229,339,108719,2,0,L|178:341,1,37.5,0|8,3:0|3:2,0:0:0:0:
106,284,108953,6,0,L|161:274,1,37.5,0|8,3:0|3:2,0:0:0:0:
245,251,109188,1,8,3:2:0:0:
356,183,109344,2,0,L|309:178,1,37.5,0|8,3:0|3:2,0:0:0:0:
192,99,109578,2,0,L|235:98,1,37.5,0|2,3:0|3:2,0:0:0:0:
259,47,109761,1,2,0:0:0:0:
229,98,109865,1,0,0:0:0:0:
146,118,109969,6,0,L|50:115,1,75,8|0,3:2|3:0,0:0:0:0:
218,206,110282,2,0,L|350:218,1,112.5,8|8,3:2|3:2,0:0:0:0:
288,240,110594,1,0,3:0:0:0:
211,261,110750,1,8,3:2:0:0:
445,315,110907,6,0,L|492:312,2,37.5,4|8|0,3:2|0:3|0:3,0:0:0:0:
302,248,111219,2,0,L|270:193,2,37.5,8|8|8,0:3|0:3|0:3,0:0:0:0:
474,215,111532,5,8,0:3:0:0:
489,181,111610,1,8,0:3:0:0:
475,148,111688,1,8,0:3:0:0:
444,125,111766,1,8,0:3:0:0:
403,121,111844,1,4,3:3:0:0:
19,86,112157,6,0,L|191:69,1,150,4|10,3:2|3:2,0:0:0:0:
429,286,112782,2,0,L|348:284,1,75,0|2,3:0|0:0,0:0:0:0:
214,314,113094,2,0,L|206:235,1,75,10|2,3:2|0:0,0:0:0:0:
358,196,113407,6,0,L|478:183,1,112.5,2|2,3:2|0:0,0:0:0:0:
254,228,113875,2,0,L|252:91,1,112.5,2|2,0:0|0:0,0:0:0:0:
294,103,114188,1,2,0:0:0:0:
434,53,114344,2,0,L|357:43,1,75,10|2,3:2|0:0,0:0:0:0:
134,80,114657,6,0,P|123:124|177:153,1,112.5,2|2,3:2|0:0,0:0:0:0:
213,158,114969,1,10,3:2:0:0:
358,159,115125,2,0,L|366:249,1,75,0|0,0:0|3:0,0:0:0:0:
277,258,115438,1,2,0:0:0:0:
130,287,115594,2,0,L|28:291,1,75,10|2,3:2|0:0,0:0:0:0:
282,351,115907,6,0,L|406:341,2,112.5,2|2|2,3:2|0:0|0:0,0:0:0:0:
126,229,116532,2,0,L|33:140,2,112.5,2|2|2,3:2|0:0|0:0,0:0:0:0:
364,246,117157,6,0,L|213:190,1,150,6|10,3:2|3:2,0:0:0:0:
305,157,117625,1,0,0:0:0:0:
442,167,117782,2,0,L|453:80,1,75,0|2,3:0|0:0,0:0:0:0:
306,48,118094,2,0,L|226:53,1,75,10|2,3:2|0:0,0:0:0:0:
390,127,118407,6,0,P|410:166|355:216,1,112.5,2|2,3:2|0:0,0:0:0:0:
332,219,118719,1,8,3:2:0:0:
172,232,118875,2,0,P|151:282|211:320,1,112.5,2|2,0:0|0:0,0:0:0:0:
228,326,119188,1,2,0:0:0:0:
374,304,119344,2,0,L|293:307,1,75,10|2,3:2|0:0,0:0:0:0:
63,320,119657,6,0,P|44:261|131:223,1,150,6|6,3:2|3:2,0:0:0:0:
296,184,120203,1,6,3:2:0:0:
98,131,120438,1,10,3:2:0:0:
183,95,120594,2,0,L|269:86,1,75,10|10,3:2|3:2,0:0:0:0:
485,120,120907,6,0,L|340:98,2,112.5,6|6|14,3:2|3:2|3:2,0:0:0:0:
255,211,121532,2,0,L|168:212,1,75,4|0,3:3|3:0,0:0:0:0:
414,307,121844,2,0,L|419:215,1,75,4|0,3:3|0:0,0:0:0:0:
177,295,122157,6,0,L|12:259,1,150,4|10,3:2|3:2,0:0:0:0:
279,257,122782,2,0,L|284:176,1,75,0|2,3:0|0:0,0:0:0:0:
157,191,123094,2,0,L|144:100,1,75,10|2,3:2|0:0,0:0:0:0:
299,72,123407,6,0,L|424:90,1,112.5,2|2,3:2|0:0,0:0:0:0:
370,117,123719,1,8,3:2:0:0:
215,133,123875,2,0,L|207:264,1,112.5,2|2,0:0|0:0,0:0:0:0:
249,257,124188,1,2,0:0:0:0:
397,310,124344,2,0,L|484:310,1,75,10|2,3:2|0:0,0:0:0:0:
239,358,124657,6,0,L|125:340,1,112.5,2|2,3:2|0:0,0:0:0:0:
166,320,124969,1,10,3:2:0:0:
321,301,125125,2,0,L|323:195,1,75,0|0,0:0|3:0,0:0:0:0:
230,206,125438,1,2,0:0:0:0:
74,199,125594,2,0,L|65:118,1,75,10|2,3:2|0:0,0:0:0:0:
286,83,125907,6,0,L|411:103,1,112.5,2|2,3:2|0:0,0:0:0:0:
358,131,126219,1,8,3:2:0:0:
262,164,126375,1,2,0:0:0:0:
106,187,126532,2,0,P|92:235|157:264,1,112.5,2|2,3:2|0:0,0:0:0:0:
175,282,126844,2,0,L|264:295,1,75,8|2,3:2|0:0,0:0:0:0:
479,215,127157,6,0,L|310:188,1,150,6|10,3:2|3:2,0:0:0:0:
250,182,127625,1,0,3:2:0:0:
401,143,127782,2,0,L|408:53,1,75,0|2,3:2|3:2,0:0:0:0:
276,24,128094,2,0,L|267:107,1,75,10|2,3:2|3:2,0:0:0:0:
115,147,128407,6,0,L|235:168,1,112.5,2|2,3:2|3:2,0:0:0:0:
265,169,128719,1,8,3:2:0:0:
130,242,128875,2,0,L|14:269,1,112.5,2|2,3:2|3:2,0:0:0:0:
63,300,129188,1,2,3:2:0:0:
212,328,129344,2,0,L|308:330,1,75,10|2,3:2|3:2,0:0:0:0:
54,360,129657,6,0,L|48:255,1,75,2|0,3:2|3:2,0:0:0:0:
88,270,129891,1,0,3:2:0:0:
142,264,129969,2,0,L|236:258,1,75,10|0,3:2|3:2,0:0:0:0:
235,228,130203,1,2,3:2:0:0:
216,259,130282,1,0,3:2:0:0:
139,232,130438,1,2,3:2:0:0:
358,191,130594,2,0,L|447:180,1,75,8|2,3:2|3:2,0:0:0:0:
203,133,130907,6,0,L|179:95,2,37.5,0|0|0,3:0|3:0|3:0,0:0:0:0:
333,126,131219,1,8,3:2:0:0:
336,163,131297,1,0,3:0:0:0:
340,200,131375,1,0,3:0:0:0:
471,241,131532,6,0,L|492:201,2,37.5,0|0|0,3:0|3:0|3:0,0:0:0:0:
241,292,131844,2,0,L|186:289,2,37.5,8|0|0,3:2|3:0|3:0,0:0:0:0:
474,353,132157,5,4,3:1:0:0:
256,192,132313,12,0,135907,1:0:0:0:
