osu file format v14

[General]
AudioFilename: audio.mp3
AudioLeadIn: 0
PreviewTime: 22078
Countdown: 0
SampleSet: Soft
StackLeniency: 0.7
Mode: 2
LetterboxInBreaks: 0
WidescreenStoryboard: 1

[Editor]
DistanceSpacing: 1.5
BeatDivisor: 4
GridSize: 32
TimelineZoom: 2.4

[Metadata]
Title:Krave
TitleUnicode:Krave
Artist:litmus* as Ester
ArtistUnicode:litmus* as Ester
Creator:Jemzuu
Version:Cup
Source:
Tags:ajamez [_-Kukkai-_] featured artist fa mappers guild mg ctbi osu!catch international cup 7 ro16 nm2 nomod no mod electronic instrumental BOFXV -THE BMS OF FIGHTERS eXtreme Violence- LilAcubens Revival hybrid futurecore j-core hardcore artcore bms drum and n dnb d&b future bass core
BeatmapID:3217638
BeatmapSetID:1524173

[Difficulty]
HPDrainRate:2.5
CircleSize:2.5
OverallDifficulty:6.2
ApproachRate:6.2
SliderMultiplier:1.2
SliderTickRate:1

[Events]
//Background and Video events
0,0,"krave_stagefile.jpg",0,0
//Break Periods
//Storyboard Layer 0 (Background)
//Storyboard Layer 1 (Fail)
//Storyboard Layer 2 (Pass)
//Storyboard Layer 3 (Foreground)
//Storyboard Layer 4 (Overlay)
//Storyboard Sound Samples

[TimingPoints]
907,312.5,4,2,1,20,1,0
1532,-100,4,2,2,50,0,0
1844,-100,4,2,2,60,0,0
2157,-100,4,2,2,60,0,0
3095,-100,4,2,2,60,0,0
11453,-100,4,2,1,60,0,0
11532,-100,4,2,2,60,0,0
12313,-100,4,2,1,60,0,0
12391,-100,4,2,1,60,0,0
13563,-100,4,2,1,60,0,0
13641,-100,4,2,1,60,0,0
14813,-100,4,2,1,60,0,0
14891,-100,4,2,1,60,0,0
16453,-100,4,2,1,60,0,0
16531,-100,4,2,1,60,0,0
17157,-100,4,2,1,60,0,0
17547,-100,4,2,1,60,0,0
17625,-100,4,2,1,60,0,0
17860,-100,4,2,1,60,0,0
17938,-100,4,2,1,60,0,0
18172,-100,4,2,1,60,0,0
18250,-100,4,2,1,60,0,0
18485,-100,4,2,1,60,0,0
18563,-100,4,2,1,60,0,0
18797,-100,4,2,1,60,0,0
18875,-100,4,2,1,60,0,0
19110,-100,4,2,1,60,0,0
19188,-100,4,2,1,60,0,0
19422,-100,4,2,1,60,0,0
19500,-100,4,2,1,60,0,0
20907,-100,4,2,2,60,0,0
21532,-100,4,2,1,60,0,0
21844,-100,4,2,1,60,0,0
21883,-100,4,2,1,5,0,0
21922,-100,4,2,1,5,0,0
22000,-100,4,2,1,60,0,0
22039,-100,4,2,1,5,0,0
22078,-100,4,2,1,5,0,0
22157,-100,4,2,1,60,0,0
22391,-100,4,2,1,60,0,0
22469,-100,4,2,1,80,0,1
22625,-100,4,2,1,80,0,1
22782,-100,4,2,1,80,0,1
22938,-100,4,2,1,80,0,1
23016,-100,4,2,1,80,0,1
23172,-100,4,2,1,80,0,1
23250,-100,4,2,1,80,0,1
23328,-100,4,2,1,80,0,1
23407,-100,4,2,1,80,0,1
23641,-100,4,2,1,80,0,1
23719,-100,4,2,1,80,0,0
24032,-100,4,2,1,80,0,1
24188,-100,4,2,1,80,0,1
24266,-100,4,2,1,80,0,1
24422,-100,4,2,1,80,0,1
24500,-100,4,2,1,80,0,1
24578,-100,4,2,1,80,0,1
24657,-100,4,2,1,80,0,0
24754,-100,4,2,1,5,0,0
24813,-100,4,2,1,80,0,0
24832,-100,4,2,1,5,0,0
24891,-100,4,2,1,80,0,0
24910,-100,4,2,1,5,0,0
24969,-100,4,2,1,80,0,0
25282,-100,4,2,2,80,0,1
25516,-100,4,2,1,80,0,1
25750,-100,4,2,1,80,0,1
25828,-100,4,2,1,80,0,1
25907,-100,4,2,1,80,0,1
26141,-100,4,2,1,80,0,1
26375,-100,4,2,1,80,0,1
26453,-100,4,2,1,80,0,1
26532,-100,4,2,1,80,0,1
26766,-100,4,2,1,80,0,1
27000,-100,4,2,1,80,0,1
27078,-100,4,2,1,80,0,1
27157,-100,4,2,1,60,0,1
27469,-100,4,2,1,80,0,1
27703,-100,4,2,1,80,0,1
27782,-100,4,2,1,80,0,1
28328,-100,4,2,1,80,0,1
28407,-100,4,2,1,80,0,1
28719,-100,4,2,1,80,0,1
29032,-100,4,2,1,80,0,1
29266,-100,4,2,1,80,0,1
29500,-100,4,2,1,80,0,1
29578,-100,4,2,1,80,0,1
29657,-100,4,2,2,80,0,0
30282,-100,4,2,1,80,0,1
30516,-100,4,2,1,80,0,1
30750,-100,4,2,1,80,0,1
30828,-100,4,2,1,80,0,1
30907,-100,4,2,1,80,0,1
31141,-100,4,2,1,80,0,1
31375,-100,4,2,1,80,0,1
31453,-100,4,2,1,80,0,1
31532,-100,4,2,1,80,0,1
31766,-100,4,2,1,80,0,1
32000,-100,4,2,1,80,0,1
32078,-100,4,2,1,80,0,1
32157,-100,4,2,1,80,0,0
32703,-100,4,2,1,80,0,0
32782,-100,4,2,2,80,0,1
32938,-100,4,2,1,80,0,1
33328,-100,4,2,1,80,0,1
33407,-100,4,2,1,80,0,1
33719,-100,4,2,1,80,0,1
33875,-100,4,2,2,80,0,1
34032,-100,4,2,1,80,0,1
34266,-100,4,2,1,80,0,1
34500,-100,4,2,1,80,0,1
34578,-100,4,2,1,80,0,1
34657,-100,4,2,1,80,0,1
34754,-100,4,2,1,5,0,1
34813,-100,4,2,1,80,0,1
34832,-100,4,2,1,5,0,1
34891,-100,4,2,1,80,0,1
34910,-100,4,2,1,5,0,1
34969,-100,4,2,1,80,0,1
35282,-100,4,2,1,80,0,1
35516,-100,4,2,1,80,0,1
35750,-100,4,2,1,80,0,1
35828,-100,4,2,1,80,0,1
35907,-100,4,2,1,80,0,1
36141,-100,4,2,1,80,0,1
36375,-100,4,2,1,80,0,1
36453,-100,4,2,1,80,0,1
36532,-100,4,2,1,80,0,1
36766,-100,4,2,1,80,0,1
37000,-100,4,2,1,80,0,1
37078,-100,4,2,1,80,0,1
37157,-100,4,2,1,80,0,1
37391,-100,4,2,1,80,0,1
37469,-100,4,2,1,80,0,1
37703,-100,4,2,1,80,0,1
37782,-100,4,2,1,80,0,1
38328,-100,4,2,1,80,0,1
38407,-100,4,2,1,80,0,1
38719,-100,4,2,1,80,0,1
39032,-100,4,2,1,80,0,1
39266,-100,4,2,1,80,0,1
39500,-100,4,2,1,80,0,1
39578,-100,4,2,1,80,0,1
39657,-100,4,2,2,80,0,0
40282,-100,4,2,1,80,0,1
40516,-100,4,2,1,80,0,1
40750,-100,4,2,1,80,0,1
40828,-100,4,2,1,80,0,1
40907,-100,4,2,1,80,0,1
41141,-100,4,2,1,80,0,1
41375,-100,4,2,1,80,0,1
41453,-100,4,2,1,80,0,1
41532,-100,4,2,1,80,0,1
41766,-100,4,2,1,80,0,1
42000,-100,4,2,1,80,0,1
42078,-100,4,2,1,80,0,1
42157,-100,4,2,1,60,0,0
47157,-100,4,2,1,65,0,0
47625,-100,4,2,1,65,0,0
47782,-100,4,2,1,68,0,0
48250,-100,4,2,1,68,0,0
48407,-100,4,2,1,72,0,0
48875,-100,4,2,1,72,0,0
49032,-100,4,2,1,74,0,0
49500,-100,4,2,1,74,0,0
49657,-100,4,2,1,77,0,0
49969,-100,4,2,1,79,0,0
50282,-100,4,2,1,81,0,0
50594,-100,4,2,1,83,0,0
50907,-100,4,2,2,70,0,0
51375,-100,4,2,1,70,0,0
52157,-100,4,2,2,70,0,0
52313,-100,4,2,1,70,0,0
62157,-100,4,2,1,60,0,0
71453,-100,4,2,1,60,0,0
72157,-133.333333333333,4,2,1,60,0,0
72625,-133.333333333333,4,2,2,60,0,0
73094,-133.333333333333,4,2,2,60,0,0
73407,-133.333333333333,4,2,2,60,0,0
73875,-133.333333333333,4,2,2,60,0,0
74344,-133.333333333333,4,2,2,60,0,0
74657,-133.333333333333,4,2,2,60,0,0
75125,-133.333333333333,4,2,2,60,0,0
75594,-133.333333333333,4,2,2,60,0,0
75907,-133.333333333333,4,2,2,60,0,0
76375,-133.333333333333,4,2,2,60,0,0
76844,-133.333333333333,4,2,2,60,0,0
77157,-133.333333333333,4,2,2,60,0,0
77625,-133.333333333333,4,2,2,60,0,0
78094,-133.333333333333,4,2,2,60,0,0
78407,-133.333333333333,4,2,2,60,0,0
78875,-133.333333333333,4,2,2,60,0,0
79344,-133.333333333333,4,2,2,60,0,0
79657,-133.333333333333,4,2,2,60,0,0
80125,-133.333333333333,4,2,2,60,0,0
80594,-133.333333333333,4,2,2,60,0,0
80907,-133.333333333333,4,2,2,60,0,0
81375,-133.333333333333,4,2,2,60,0,0
81844,-133.333333333333,4,2,2,60,0,0
82157,-100,4,2,1,60,0,0
82469,-100,4,2,2,60,0,0
92157,-100,4,2,1,80,0,1
92469,-100,4,2,1,80,0,0
92625,-100,4,2,1,80,0,0
92782,-100,4,2,1,80,0,1
94657,-100,4,2,1,80,0,0
94969,-100,4,2,1,80,0,1
94989,-100,4,2,1,5,0,1
95047,-100,4,2,1,80,0,1
95067,-100,4,2,1,5,0,1
95125,-100,4,2,1,80,0,1
95145,-100,4,2,1,5,0,1
95203,-100,4,2,1,80,0,1
95223,-100,4,2,1,5,0,1
95282,-100,4,2,1,80,0,1
97157,-100,4,2,1,80,0,1
97391,-100,4,2,1,80,0,1
97782,-100,4,2,1,80,0,1
99657,-100,4,2,1,80,0,0
99891,-100,4,2,1,80,0,0
99969,-100,4,2,1,80,0,0
100047,-100,4,2,1,80,0,0
100125,-100,4,2,1,80,0,0
100203,-100,4,2,1,80,0,0
100282,-100,4,2,1,80,0,1
101239,-100,4,2,1,5,0,1
101297,-100,4,2,1,80,0,1
101317,-100,4,2,1,5,0,1
101375,-100,4,2,1,80,0,1
101395,-100,4,2,1,5,0,1
101453,-100,4,2,1,80,0,1
101473,-100,4,2,1,5,0,1
101532,-100,4,2,1,80,0,0
102078,-100,4,2,1,80,0,0
102157,-100,4,2,1,80,0,1
102391,-100,4,2,1,80,0,1
102782,-100,4,2,1,80,0,1
103407,-100,4,2,1,80,0,1
103719,-100,4,2,1,80,0,1
104657,-100,4,2,1,80,0,1
104891,-100,4,2,1,80,0,1
104969,-100,4,2,1,80,0,1
104989,-100,4,2,1,5,0,1
105047,-100,4,2,1,80,0,1
105067,-100,4,2,1,5,0,1
105125,-100,4,2,1,80,0,1
105145,-100,4,2,1,5,0,1
105203,-100,4,2,1,80,0,1
105223,-100,4,2,1,5,0,1
105282,-100,4,2,1,80,0,1
107157,-100,4,2,1,80,0,0
107703,-100,4,2,1,80,0,0
107782,-100,4,2,1,80,0,1
110438,-100,4,2,1,80,0,1
110516,-100,4,2,1,80,0,1
110672,-100,4,2,1,80,0,1
110750,-100,4,2,1,80,0,1
110828,-100,4,2,1,80,0,1
110907,-100,4,2,1,80,0,0
110985,-100,4,2,2,50,0,0
111219,-100,4,2,1,70,0,0
111532,-100,4,2,2,90,0,0
111844,-100,4,2,1,80,0,0
112078,-100,4,2,1,80,0,0
112157,-100,4,2,2,80,0,1
112391,-100,4,2,1,80,0,1
112469,-100,4,2,1,80,0,1
112625,-100,4,2,1,80,0,1
112703,-100,4,2,1,80,0,1
112860,-100,4,2,1,80,0,1
112938,-100,4,2,1,80,0,1
113016,-100,4,2,1,80,0,1
113094,-100,4,2,1,80,0,1
113172,-100,4,2,1,80,0,1
113250,-100,4,2,1,80,0,1
113328,-100,4,2,1,80,0,1
113407,-100,4,2,1,80,0,1
113563,-100,4,2,1,80,0,1
113641,-100,4,2,1,80,0,1
113797,-100,4,2,1,80,0,1
113875,-100,4,2,1,80,0,1
114110,-100,4,2,1,80,0,1
114266,-100,4,2,1,80,0,1
114344,-100,4,2,1,80,0,1
114422,-100,4,2,1,80,0,1
114500,-100,4,2,1,80,0,1
114578,-100,4,2,1,80,0,1
114657,-100,4,2,1,80,0,1
114813,-100,4,2,1,80,0,1
114891,-100,4,2,1,80,0,1
115125,-100,4,2,1,80,0,1
115203,-100,4,2,1,80,0,1
115516,-100,4,2,1,80,0,1
115594,-100,4,2,1,80,0,1
115672,-100,4,2,1,80,0,1
115750,-100,4,2,1,80,0,1
115828,-100,4,2,1,80,0,1
115907,-100,4,2,1,80,0,1
116141,-100,4,2,1,80,0,1
116297,-100,4,2,1,80,0,1
116375,-100,4,2,1,80,0,1
116453,-100,4,2,1,80,0,1
116532,-100,4,2,1,80,0,1
116688,-100,4,2,1,80,0,1
117157,-100,4,2,1,80,0,1
117391,-100,4,2,1,80,0,1
117469,-100,4,2,1,80,0,1
117625,-100,4,2,1,80,0,1
117703,-100,4,2,1,80,0,1
117860,-100,4,2,1,80,0,1
117938,-100,4,2,1,80,0,1
118016,-100,4,2,1,80,0,1
118094,-100,4,2,1,80,0,1
118172,-100,4,2,1,80,0,1
118250,-100,4,2,1,80,0,1
118328,-100,4,2,1,80,0,1
118407,-100,4,2,1,80,0,1
118563,-100,4,2,1,80,0,1
118641,-100,4,2,1,80,0,1
118797,-100,4,2,1,80,0,1
118875,-100,4,2,1,80,0,1
119110,-100,4,2,1,80,0,1
119266,-100,4,2,1,80,0,1
119344,-100,4,2,1,80,0,1
119422,-100,4,2,1,80,0,1
119500,-100,4,2,1,80,0,1
119578,-100,4,2,1,80,0,1
119657,-100,4,2,1,80,0,1
120438,-100,4,2,1,80,0,1
120594,-100,4,2,1,80,0,1
120750,-100,4,2,1,80,0,1
120907,-100,4,2,1,80,0,1
121532,-100,4,2,1,80,0,1
122157,-100,4,2,2,80,0,1
122391,-100,4,2,1,80,0,1
122469,-100,4,2,1,80,0,1
122625,-100,4,2,1,80,0,1
122703,-100,4,2,1,80,0,1
122860,-100,4,2,1,80,0,1
122938,-100,4,2,1,80,0,1
123016,-100,4,2,1,80,0,1
123094,-100,4,2,1,80,0,1
123172,-100,4,2,1,80,0,1
123250,-100,4,2,1,80,0,1
123328,-100,4,2,1,80,0,1
123407,-100,4,2,1,80,0,1
123563,-100,4,2,1,80,0,1
123641,-100,4,2,1,80,0,1
123797,-100,4,2,1,80,0,1
123875,-100,4,2,1,80,0,1
124110,-100,4,2,1,80,0,1
124266,-100,4,2,1,80,0,1
124344,-100,4,2,1,80,0,1
124422,-100,4,2,1,80,0,1
124500,-100,4,2,1,80,0,1
124578,-100,4,2,1,80,0,1
124657,-100,4,2,1,80,0,1
124813,-100,4,2,1,80,0,1
124891,-100,4,2,1,80,0,1
125125,-100,4,2,1,80,0,1
125203,-100,4,2,1,80,0,1
125516,-100,4,2,1,80,0,1
125594,-100,4,2,1,80,0,1
125672,-100,4,2,1,80,0,1
125750,-100,4,2,1,80,0,1
125828,-100,4,2,1,80,0,1
125907,-100,4,2,1,80,0,1
126141,-100,4,2,1,80,0,1
126297,-100,4,2,1,80,0,1
126375,-100,4,2,1,80,0,1
126453,-100,4,2,1,80,0,1
126532,-100,4,2,1,80,0,1
126688,-100,4,2,1,80,0,1
127157,-100,4,2,1,80,0,1
127391,-100,4,2,1,80,0,1
127469,-100,4,2,1,80,0,1
127625,-100,4,2,1,80,0,1
127703,-100,4,2,1,80,0,1
127860,-100,4,2,1,80,0,1
127938,-100,4,2,1,80,0,1
128016,-100,4,2,1,80,0,1
128094,-100,4,2,1,80,0,1
128172,-100,4,2,1,80,0,1
128250,-100,4,2,1,80,0,1
128328,-100,4,2,1,80,0,1
128407,-100,4,2,1,80,0,1
128563,-100,4,2,1,80,0,1
128641,-100,4,2,1,80,0,1
128797,-100,4,2,1,80,0,1
128875,-100,4,2,1,80,0,1
129110,-100,4,2,1,80,0,1
129266,-100,4,2,1,80,0,1
129344,-100,4,2,1,80,0,1
129422,-100,4,2,1,80,0,1
129500,-100,4,2,1,80,0,1
129578,-100,4,2,1,80,0,1
129657,-100,4,2,1,90,0,1
130907,-100,4,2,1,95,0,1
131532,-100,4,2,1,95,0,1
132157,-100,4,2,1,100,0,0
132235,-100,4,2,1,50,0,0
132782,-100,4,2,1,40,0,0
133407,-100,4,2,1,30,0,0
134032,-100,4,2,1,20,0,0
134657,-100,4,2,1,15,0,0
135282,-100,4,2,1,10,0,0
135907,-100,4,2,1,5,0,0

[Colours]
Combo1 : 29,220,254
Combo2 : 40,148,255
Combo3 : 0,115,170

[HitObjects]
256,192,907,12,2,1844,0:0:0:0:
257,158,2157,6,0,L|397:130,2,120,4|2|2,3:2|0:0|0:0,0:0:0:0:
126,190,3094,1,0,0:0:0:0:
190,218,3250,6,0,L|325:235,2,120,2|2|0,0:0|0:0|0:0,0:0:0:0:
123,218,4032,2,0,L|115:85,1,120,2|2,1:2|0:0,0:0:0:0:
255,56,4657,6,0,L|265:182,1,120,2|0,1:2|0:0,0:0:0:0:
388,209,5282,2,0,L|505:273,1,120,2|0,1:2|0:0,0:0:0:0:
429,291,5750,6,0,L|294:304,1,120,2|2,0:0|0:0,0:0:0:0:
248,308,6219,1,0,0:0:0:0:
379,355,6532,2,0,L|388:229,1,120,2|2,1:2|1:2,0:0:0:0:
249,175,7157,6,0,L|122:171,2,120,2|0|2,1:2|0:0|1:2,0:0:0:0:
380,126,8094,1,0,0:0:0:0:
318,96,8250,6,0,L|180:77,1,120,2|2,0:0|0:0,0:0:0:0:
137,82,8719,1,2,0:0:0:0:
272,66,9032,2,0,L|284:213,1,120,2|2,1:2|0:0,0:0:0:0:
140,243,9657,6,0,L|0:219,1,120,2|2,1:2|0:0,0:0:0:0:
83,188,10125,1,2,0:0:0:0:
152,178,10282,2,0,L|280:177,1,120,2|2,1:2|0:0,0:0:0:0:
340,111,10750,6,0,L|211:99,1,120,2|0,0:0|0:0,0:0:0:0:
158,100,11219,1,2,0:0:0:0:
288,131,11532,2,0,L|303:268,1,120,0|8,3:0|0:1,0:0:0:0:
150,274,12157,6,0,L|25:260,1,120,4|2,3:2|3:3,0:0:0:0:
165,331,12782,2,0,L|253:317,2,90,0|0|0,3:3|3:3|3:0,0:0:0:0:
104,324,13407,2,0,L|90:188,1,120,0|0,3:0|3:0,0:0:0:0:
227,171,14032,6,0,L|130:157,2,90,2|2|2,3:3|3:0|3:0,0:0:0:0:
289,170,14657,2,0,L|417:157,1,120,0|0,3:0|3:0,0:0:0:0:
273,80,15282,2,0,L|218:-4,2,90,0|0|2,3:0|3:0|3:0,0:0:0:0:
340,111,15907,6,0,L|437:127,2,90,0|0|2,3:0|3:0|3:3,0:0:0:0:
272,111,16532,2,0,L|170:126,2,90,2|2|2,3:3|3:3|3:3,0:0:0:0:
345,134,17157,6,0,L|357:264,1,120,6|2,3:2|3:3,0:0:0:0:
221,298,17782,2,0,L|214:158,1,120,6|2,3:2|3:3,0:0:0:0:
79,127,18407,6,0,L|210:109,1,120,6|2,3:2|3:3,0:0:0:0:
329,59,19032,2,0,L|195:40,1,120,6|2,3:2|3:3,0:0:0:0:
64,95,19657,5,12,3:2:0:0:
120,104,19813,1,8,3:2:0:0:
146,155,19969,1,8,3:2:0:0:
118,206,20125,1,8,3:2:0:0:
54,208,20282,2,0,L|46:342,1,120,8|8,3:2|3:2,0:0:0:0:
192,347,20907,6,0,L|327:337,1,120,8|8,0:3|0:3,0:0:0:0:
177,255,21532,5,8,0:3:0:0:
120,245,21688,1,8,0:3:0:0:
94,194,21844,1,2,0:1:0:0:
122,143,22000,1,2,0:1:0:0:
177,255,22157,1,0,3:0:0:0:
325,106,22469,6,0,L|202:98,1,120,2|2,3:2|3:2,0:0:0:0:
297,59,23016,1,2,3:2:0:0:
392,57,23250,1,2,3:2:0:0:
316,75,23407,6,0,L|305:218,1,120,2|8,3:2|3:3,0:0:0:0:
448,210,24032,2,0,L|450:328,1,90,2|2,3:2|3:2,0:0:0:0:
350,331,24500,1,2,3:2:0:0:
285,315,24657,2,0,L|372:311,1,60,0|2,3:0|0:1,0:0:0:0:
406,303,24969,1,2,3:3:0:0:
256,218,25282,6,0,L|153:210,2,90,4|2|2,3:2|3:2|3:2,0:0:0:0:
329,166,25907,2,0,L|229:142,1,90,2|2,3:2|3:2,0:0:0:0:
144,138,26375,1,2,3:2:0:0:
79,117,26532,6,0,L|185:93,1,90,2|2,3:2|3:2,0:0:0:0:
263,88,27000,1,2,3:2:0:0:
330,88,27157,2,0,L|339:211,1,120,0|2,3:0|3:2,0:0:0:0:
197,256,27782,6,0,L|86:265,2,90,2|2|2,3:2|3:2|3:2,0:0:0:0:
265,273,28407,2,0,L|270:137,1,120,2|2,3:2|3:3,0:0:0:0:
125,129,29032,2,0,L|225:123,2,90,2|2|2,3:2|3:2|3:2,0:0:0:0:
55,136,29657,6,0,P|28:190|119:246,1,180,0|2,3:0|3:2,0:0:0:0:
181,255,30282,6,0,L|279:261,2,90,6|2|2,3:2|3:2|3:2,0:0:0:0:
112,208,30907,2,0,L|207:181,1,90,2|2,3:2|3:2,0:0:0:0:
299,188,31375,1,2,3:2:0:0:
362,204,31532,2,0,L|376:89,1,90,2|2,3:2|3:2,0:0:0:0:
276,87,32000,1,2,3:2:0:0:
212,86,32157,6,0,P|158:96|153:215,1,180,0|0,3:0|1:0,0:0:0:0:
210,226,32782,6,0,L|303:233,2,90,4|2|2,3:2|3:2|3:2,0:0:0:0:
144,240,33407,2,0,L|137:119,1,120,2|8,3:2|3:3,0:0:0:0:
272,94,34032,6,0,L|169:81,2,90,2|2|2,3:2|3:2|3:2,0:0:0:0:
336,129,34657,2,0,L|250:151,1,60,0|2,3:0|0:1,0:0:0:0:
217,150,34969,1,2,3:3:0:0:
360,232,35282,6,0,L|468:243,2,90,2|2|2,3:2|3:2|3:2,0:0:0:0:
296,228,35907,2,0,L|197:198,2,90,2|2|2,3:2|3:2|3:2,0:0:0:0:
358,237,36532,6,0,L|414:135,2,90,2|2|2,3:2|3:2|3:2,0:0:0:0:
289,256,37157,2,0,L|411:276,1,120,0|2,3:0|3:2,0:0:0:0:
264,349,37782,6,0,L|162:337,2,90,2|2|2,3:2|3:2|3:2,0:0:0:0:
332,297,38407,2,0,L|211:274,1,120,2|2,3:2|3:3,0:0:0:0:
78,273,39032,2,0,L|27:184,2,90,2|2|2,3:2|3:2|3:2,0:0:0:0:
143,290,39657,6,0,P|190:281|225:153,1,180,2|2,3:2|3:2,0:0:0:0:
163,144,40282,6,0,L|61:133,2,90,6|2|2,3:2|3:2|3:2,0:0:0:0:
234,115,40907,2,0,L|329:95,2,90,2|2|2,3:2|3:2|3:2,0:0:0:0:
165,130,41532,2,0,L|158:231,1,90,2|2,3:2|3:2,0:0:0:0:
261,246,42000,1,2,3:2:0:0:
333,268,42157,6,0,L|456:309,2,120,4|8|8,3:2|0:0|0:0,0:0:0:0:
237,203,43016,1,8,0:0:0:0:
330,175,43250,1,8,0:0:0:0:
392,170,43407,6,0,L|491:84,2,120,8|8|8,0:0|0:0|0:0,0:0:0:0:
296,168,44266,1,8,0:0:0:0:
200,173,44500,1,8,0:0:0:0:
263,196,44657,6,0,L|387:187,2,120,8|8|8,0:0|0:0|0:0,0:0:0:0:
167,223,45516,1,8,0:0:0:0:
263,291,45750,1,8,0:0:0:0:
326,296,45907,6,0,L|416:209,2,120,8|8|8,0:0|0:0|0:0,0:0:0:0:
235,315,46766,1,8,0:0:0:0:
135,322,47000,1,8,0:0:0:0:
72,293,47157,6,0,L|171:264,1,90,8|8,3:2|3:2,0:0:0:0:
257,253,47625,1,8,3:2:0:0:
192,197,47782,6,0,L|81:188,1,90,8|8,3:2|3:2,0:0:0:0:
87,89,48250,1,8,3:2:0:0:
147,77,48407,6,0,L|256:63,1,90,8|8,3:2|3:2,0:0:0:0:
248,187,48875,1,8,3:2:0:0:
182,205,49032,6,0,L|68:197,2,90,8|8|8,3:2|3:2|3:2,0:0:0:0:
252,244,49657,2,0,L|259:373,1,120,8|8,3:2|3:2,0:0:0:0:
121,369,50282,5,8,3:2:0:0:
63,354,50438,1,8,3:2:0:0:
37,302,50594,1,8,3:2:0:0:
62,249,50750,1,8,3:2:0:0:
128,236,50907,6,0,L|254:231,3,120,8|8|8|8,0:3|0:3|0:3|0:2,0:0:0:0:
403,309,52157,6,0,L|406:168,1,120,6|8,3:2|3:1,0:0:0:0:
280,153,52782,2,0,L|183:138,2,90,2|2|2,0:0|0:0|0:0,0:0:0:0:
350,144,53407,6,0,L|359:284,1,120,2|8,3:2|3:1,0:0:0:0:
266,297,53953,1,0,3:0:0:0:
172,320,54188,2,0,L|168:250,1,60,0|8,3:0|3:1,0:0:0:0:
305,235,54657,6,0,L|336:174,2,60,2|0|8,3:2|3:0|3:1,0:0:0:0:
183,197,55282,2,0,L|277:176,2,90,2|2|2,0:0|0:0|0:0,0:0:0:0:
118,191,55907,6,0,L|48:117,2,90,2|2|2,3:2|0:0|0:0,0:0:0:0:
178,216,56532,1,2,0:0:0:0:
238,228,56688,1,2,3:2:0:0:
239,275,56844,1,8,3:1:0:0:
104,304,57157,6,0,P|60:290|52:211,1,120,2|8,3:2|3:1,0:0:0:0:
169,180,57782,2,0,L|280:168,2,90,2|2|2,0:0|0:0|0:0,0:0:0:0:
103,186,58407,6,0,L|97:55,1,120,2|8,3:2|3:1,0:0:0:0:
189,56,58953,1,0,3:0:0:0:
284,64,59188,2,0,L|291:143,1,60,2|8,3:2|3:1,0:0:0:0:
154,174,59657,6,0,L|210:220,1,60,2|2,3:2|3:2,0:0:0:0:
266,224,59969,1,8,3:1:0:0:
395,255,60282,2,0,L|468:183,2,90,2|2|2,0:0|0:0|0:0,0:0:0:0:
331,258,60907,6,0,L|250:253,2,60,2|0|8,3:2|3:0|3:1,0:0:0:0:
458,285,61532,2,0,L|359:249,2,90,2|2|8,0:0|0:0|3:1,0:0:0:0:
394,317,62157,6,0,L|252:338,1,120,4|8,3:2|3:1,0:0:0:0:
142,315,62782,2,0,L|80:218,2,90,2|2|2,0:0|0:0|0:0,0:0:0:0:
206,282,63407,6,0,L|333:272,1,120,2|8,3:2|3:1,0:0:0:0:
234,199,63953,1,0,3:0:0:0:
142,190,64188,2,0,L|135:114,1,60,0|8,3:0|3:1,0:0:0:0:
273,109,64657,6,0,L|310:49,2,60,2|0|8,3:2|3:0|3:1,0:0:0:0:
147,102,65282,2,0,L|40:84,2,90,2|2|2,1:2|0:0|0:0,0:0:0:0:
210,116,65907,6,0,L|252:60,2,60,2|0|8,3:2|3:0|3:1,0:0:0:0:
86,140,66532,1,2,1:2:0:0:
54,195,66688,1,2,3:2:0:0:
86,140,66844,1,8,3:1:0:0:
149,133,67000,1,8,3:1:0:0:
217,136,67157,6,0,L|223:259,1,120,2|8,3:2|3:1,0:0:0:0:
345,286,67782,2,0,L|439:298,2,90,2|2|2,1:2|1:2|0:0,0:0:0:0:
279,288,68407,6,0,L|268:148,1,120,2|8,3:2|3:1,0:0:0:0:
358,134,68953,1,0,3:0:0:0:
450,129,69188,2,0,L|365:124,1,60,2|8,3:2|3:1,0:0:0:0:
252,126,69657,6,0,L|217:66,2,60,2|2|8,3:2|3:2|3:1,0:0:0:0:
376,189,70282,2,0,L|466:142,2,90,2|2|2,1:2|0:0|0:0,0:0:0:0:
315,200,70907,5,2,3:2:0:0:
254,202,71063,1,0,3:0:0:0:
315,200,71219,1,8,3:1:0:0:
422,254,71453,2,0,P|437:209|304:126,1,210,8|0,3:1|0:0,0:0:0:0:
258,106,72157,6,0,L|122:88,2,135.000005149841,4|2|2,3:1|0:0|0:0,0:0:0:0:
383,193,73407,2,0,L|247:244,1,135.000005149841,2|2,0:1|0:0,0:0:0:0:
109,268,74344,1,2,0:0:0:0:
228,335,74657,6,0,L|370:289,2,135.000005149841,2|2|2,0:1|0:0|0:0,0:0:0:0:
93,342,75907,2,0,L|67:194,1,135.000005149841,2|2,0:1|0:0,0:0:0:0:
209,182,76844,1,2,0:0:0:0:
327,193,77157,6,0,L|197:116,2,135.000005149841,2|2|2,0:1|0:0|0:0,0:0:0:0:
454,252,78407,2,0,L|319:289,1,135.000005149841,2|2,0:1|0:0,0:0:0:0:
179,307,79344,1,2,0:0:0:0:
301,341,79657,6,0,L|446:298,2,135.000005149841,2|2|2,0:1|0:0|0:0,0:0:0:0:
161,337,80907,2,0,P|146:293|220:237,1,135.000005149841,2|2,0:1|0:0,0:0:0:0:
341,214,81844,1,2,0:0:0:0:
202,181,82157,6,0,L|71:160,1,120,4|8,3:2|0:0,0:0:0:0:
149,132,82625,2,0,L|331:106,1,180,0|8,3:0|0:0,0:0:0:0:
191,64,83407,6,0,L|140:146,2,90,0|0|0,3:0|3:0|3:0,0:0:0:0:
259,66,84032,2,0,L|386:73,1,120,8|8,0:0|0:0,0:0:0:0:
242,214,84657,6,0,L|185:132,2,90,0|0|0,3:0|3:0|3:0,0:0:0:0:
310,232,85282,2,0,L|180:259,1,120,8|8,0:0|0:0,0:0:0:0:
327,337,85907,5,8,3:2:0:0:
361,260,86063,1,8,0:0:0:0:
327,337,86219,1,8,0:0:0:0:
264,342,86375,2,0,L|139:309,1,120,0|8,3:2|3:2,0:0:0:0:
211,275,86844,1,8,0:0:0:0:
346,268,87157,6,0,L|446:261,2,90,0|0|0,3:0|3:0|3:0,0:0:0:0:
282,268,87782,2,0,L|270:135,1,120,2|8,0:0|0:0,0:0:0:0:
139,107,88407,6,0,L|28:103,2,90,0|0|0,3:0|3:0|3:0,0:0:0:0:
203,113,89032,2,0,L|212:233,1,120,8|8,0:0|0:0,0:0:0:0:
68,284,89657,6,0,L|60:183,1,90,2|2,3:2|3:2,0:0:0:0:
161,164,90125,2,0,L|345:140,1,180,2|10,3:2|3:2,0:0:0:0:
202,82,90907,6,0,L|103:69,1,90,10|10,3:2|0:0,0:0:0:0:
215,54,91375,2,0,P|275:55|349:202,1,240,10|0,0:0|0:0,0:0:0:0:
277,218,92157,6,0,L|132:226,1,120,4|8,3:2|3:2,0:0:0:0:
297,310,92782,2,0,L|408:300,2,90,8|8|8,3:2|3:2|3:2,0:0:0:0:
258,247,93407,1,8,3:2:0:0:
296,308,93563,1,8,3:2:0:0:
361,322,93719,5,0,3:0:0:0:
238,340,94032,2,0,L|134:320,2,90,10|2|2,3:2|0:0|0:0,0:0:0:0:
300,344,94657,1,2,3:1:0:0:
172,270,94969,1,10,3:2:0:0:
140,227,95125,1,2,3:2:0:0:
172,193,95282,6,0,L|283:173,1,90,8|8,3:2|3:2,0:0:0:0:
365,149,95750,2,0,L|290:141,1,60,8|0,3:2|3:0,0:0:0:0:
240,86,96063,6,0,L|342:71,2,90,8|8|8,3:2|3:2|3:2,0:0:0:0:
143,116,96766,1,8,3:2:0:0:
235,184,97000,1,8,3:2:0:0:
296,196,97157,6,0,L|314:329,1,120,4|8,3:2|3:2,0:0:0:0:
175,336,97782,2,0,L|69:322,2,90,8|8|8,3:2|3:2|3:2,0:0:0:0:
243,289,98407,6,0,L|165:280,1,60,10|10,3:2|3:2,0:0:0:0:
82,277,98797,2,0,L|67:163,1,90,10|8,3:2|3:2,0:0:0:0:
131,160,99188,1,8,3:2:0:0:
197,157,99344,1,0,3:0:0:0:
332,180,99657,6,0,L|337:58,1,120,2|8,3:2|3:2,0:0:0:0:
272,51,100125,1,0,3:0:0:0:
206,54,100282,6,0,L|105:69,2,90,8|8|8,3:2|3:2|3:2,0:0:0:0:
266,71,100907,1,0,3:0:0:0:
298,137,101063,1,8,3:2:0:0:
266,71,101219,1,2,3:2:0:0:
131,58,101532,6,0,P|88:54|65:165,1,180,0|0,3:0|0:0,0:0:0:0:
134,185,102157,6,0,L|276:208,1,120,4|8,3:2|3:2,0:0:0:0:
387,263,102782,2,0,L|468:189,2,90,8|8|8,3:2|3:2|3:2,0:0:0:0:
326,273,103407,5,8,3:2:0:0:
265,288,103563,1,8,3:2:0:0:
326,273,103719,1,0,3:0:0:0:
452,277,104032,2,0,L|485:217,2,60,8|8|0,3:2|3:2|3:0,0:0:0:0:
310,307,104657,6,0,L|186:288,1,120,2|10,3:1|3:2,0:0:0:0:
329,219,105282,2,0,L|430:199,2,90,8|8|8,3:2|3:2|3:2,0:0:0:0:
296,164,105907,1,0,3:0:0:0:
328,217,106063,1,8,3:2:0:0:
390,236,106219,1,0,3:0:0:0:
255,258,106532,6,0,L|147:251,2,90,8|8|8,3:2|3:2|3:2,0:0:0:0:
321,272,107157,2,0,P|336:236|242:155,1,180,0|0,3:0|0:0,0:0:0:0:
177,129,107782,6,0,L|284:115,2,90,12|8|8,3:2|3:2|3:2,0:0:0:0:
114,119,108407,2,0,L|37:116,2,60,8|8|0,3:2|3:2|3:0,0:0:0:0:
244,160,109032,6,0,L|291:88,2,60,8|8|0,3:2|3:2|3:0,0:0:0:0:
103,204,109657,2,0,L|229:218,1,120,2|8,3:2|3:2,0:0:0:0:
286,231,110125,1,0,3:0:0:0:
352,243,110282,6,0,L|349:352,1,90,8|8,3:2|3:2,0:0:0:0:
251,347,110750,1,8,3:2:0:0:
186,344,110907,6,0,L|62:295,1,120,4|8,3:2|0:3,0:0:0:0:
204,251,111532,1,8,0:3:0:0:
263,241,111688,1,8,0:3:0:0:
322,232,111844,1,4,3:3:0:0:
164,155,112157,6,0,L|29:133,2,120,4|10|0,3:2|3:2|3:0,0:0:0:0:
288,120,113094,2,0,L|360:149,1,60,10|2,3:2|0:0,0:0:0:0:
279,160,113407,6,0,L|183:140,1,90,2|2,3:2|0:0,0:0:0:0:
294,255,113875,2,0,L|438:271,1,120,2|2,0:0|0:0,0:0:0:0:
474,285,114344,1,10,3:2:0:0:
339,206,114657,6,0,L|192:185,1,120,2|10,3:2|3:2,0:0:0:0:
330,170,115203,2,0,L|339:67,1,90,2|2,0:0|0:0,0:0:0:0:
277,65,115594,1,10,3:2:0:0:
217,69,115750,1,2,0:0:0:0:
154,85,115907,6,0,L|59:73,2,90,2|2|2,3:2|0:0|0:0,0:0:0:0:
218,114,116532,2,0,L|266:197,2,90,2|2|2,3:2|0:0|0:0,0:0:0:0:
146,114,117157,6,0,L|14:157,1,120,6|10,3:2|3:2,0:0:0:0:
166,226,117782,2,0,L|236:248,1,60,0|2,3:0|0:0,0:0:0:0:
165,262,118094,2,0,L|100:278,1,60,10|2,3:2|0:0,0:0:0:0:
42,290,118407,6,0,L|36:191,1,90,2|2,3:2|0:0,0:0:0:0:
133,171,118875,2,0,L|263:152,1,120,2|2,0:0|0:0,0:0:0:0:
314,148,119344,1,10,3:2:0:0:
253,143,119500,1,2,0:0:0:0:
183,123,119657,5,6,3:2:0:0:
321,67,119969,2,0,L|430:70,2,90,6|6|10,3:2|3:2|3:2,0:0:0:0:
289,114,120594,1,10,3:2:0:0:
321,66,120750,1,10,3:2:0:0:
394,95,120907,6,0,L|503:114,2,90,6|6|14,3:2|3:2|3:2,0:0:0:0:
322,126,121532,2,0,L|451:150,1,120,4|4,3:3|3:3,0:0:0:0:
284,240,122157,6,0,L|150:257,1,120,4|10,3:2|3:2,0:0:0:0:
45,264,122782,2,0,L|14:193,2,60,0|2|10,3:0|0:0|3:2,0:0:0:0:
183,311,123407,6,0,L|290:305,1,90,2|2,3:2|0:0,0:0:0:0:
173,229,123875,2,0,L|52:204,1,120,2|2,0:0|0:0,0:0:0:0:
115,155,124344,1,10,3:2:0:0:
177,149,124500,1,2,0:0:0:0:
241,149,124657,6,0,L|253:293,1,120,2|10,3:2|3:2,0:0:0:0:
356,323,125203,2,0,L|253:334,1,90,2|2,0:0|0:0,0:0:0:0:
237,292,125594,1,10,3:2:0:0:
266,332,125750,1,2,0:0:0:0:
334,344,125907,6,0,L|440:335,2,90,2|2|2,3:2|0:0|0:0,0:0:0:0:
268,345,126532,2,0,L|217:261,2,90,2|2|2,3:2|0:0|0:0,0:0:0:0:
342,317,127157,6,0,L|219:299,1,120,6|10,3:2|3:2,0:0:0:0:
97,237,127782,1,0,3:2:0:0:
138,194,127938,1,2,3:2:0:0:
193,170,128094,1,10,3:2:0:0:
252,171,128250,1,2,3:2:0:0:
185,146,128407,6,0,L|79:139,1,90,2|2,3:2|3:2,0:0:0:0:
190,69,128875,2,0,L|204:195,1,120,2|2,3:2|3:2,0:0:0:0:
144,210,129344,1,10,3:2:0:0:
83,217,129500,1,2,3:2:0:0:
149,228,129657,6,0,L|287:242,1,120,2|10,3:2|3:2,0:0:0:0:
138,343,130282,2,0,L|53:330,2,60,0|2|8,3:2|3:2|3:2,0:0:0:0:
200,324,130750,1,2,3:2:0:0:
271,302,130907,6,0,L|147:293,1,120,0|8,3:0|3:2,0:0:0:0:
293,219,131532,2,0,L|355:152,2,90,0|0|0,3:0|3:0|3:0,0:0:0:0:
206,222,132157,5,4,3:1:0:0:
256,192,132469,12,0,135907,1:0:0:0:
