osu file format v14

[General]
AudioFilename: audio.mp3
AudioLeadIn: 0
PreviewTime: 43628
Countdown: 0
SampleSet: Soft
StackLeniency: 0.7
Mode: 3
LetterboxInBreaks: 0
SpecialStyle: 0
WidescreenStoryboard: 1

[Editor]
DistanceSpacing: 0.8
BeatDivisor: 6
GridSize: 8
TimelineZoom: 1

[Metadata]
Title:Tokamak
TitleUnicode:Tokamak
Artist:litmus*
ArtistUnicode:litmus*
Creator:LeiN-
Version:Fatality
Source:BMS
Tags:LEINISM stepmania pabat! 2016 Fontes
BeatmapID:1402176
BeatmapSetID:662402

[Difficulty]
HPDrainRate:8
CircleSize:4
OverallDifficulty:7
ApproachRate:5
SliderMultiplier:1.4
SliderTickRate:1

[Events]
//Background and Video events
0,0,"bg.png",0,0
//Break Periods
//Storyboard Layer 0 (Background)
//Storyboard Layer 1 (Fail)
//Storyboard Layer 2 (Pass)
//Storyboard Layer 3 (Foreground)
//Storyboard Layer 4 (Overlay)
//Storyboard Sound Samples

[TimingPoints]
320,451.127819548872,4,2,0,0,1,0

[HitObjects]
64,192,320,5,0,0:0:0:0:
448,192,320,1,0,0:0:0:0:
64,192,771,1,0,0:0:0:0:
192,192,771,1,0,0:0:0:0:
64,192,1222,1,0,0:0:0:0:
320,192,1222,1,0,0:0:0:0:
64,192,1673,1,0,0:0:0:0:
192,192,1898,1,0,0:0:0:0:
64,192,2124,1,0,0:0:0:0:
320,192,2350,1,0,0:0:0:0:
64,192,2575,1,0,0:0:0:0:
448,192,2801,1,0,0:0:0:0:
64,192,3026,1,0,0:0:0:0:
448,192,3026,1,0,0:0:0:0:
448,192,3139,1,0,0:0:0:0:
448,192,3252,1,0,0:0:0:0:
64,192,3477,1,0,0:0:0:0:
320,192,3477,1,0,0:0:0:0:
320,192,3703,128,0,3816:0:0:0:0:
64,192,3929,1,0,0:0:0:0:
448,192,3929,1,0,0:0:0:0:
64,192,4380,1,0,0:0:0:0:
192,192,4380,1,0,0:0:0:0:
64,192,4831,1,0,0:0:0:0:
320,192,4831,1,0,0:0:0:0:
320,192,5056,1,0,0:0:0:0:
64,192,5282,1,0,0:0:0:0:
192,192,5282,1,0,0:0:0:0:
320,192,5507,1,0,0:0:0:0:
64,192,5733,1,0,0:0:0:0:
448,192,5959,1,0,0:0:0:0:
64,192,6184,1,0,0:0:0:0:
448,192,6184,1,0,0:0:0:0:
448,192,6297,1,0,0:0:0:0:
448,192,6410,1,0,0:0:0:0:
64,192,6635,1,0,0:0:0:0:
192,192,6635,1,0,0:0:0:0:
64,192,6861,1,0,0:0:0:0:
320,192,6861,1,0,0:0:0:0:
192,192,6974,1,0,0:0:0:0:
64,192,7086,1,0,0:0:0:0:
320,192,7086,128,0,7312:0:0:0:0:
448,192,7086,128,0,7312:0:0:0:0:
192,192,7312,1,0,0:0:0:0:
64,192,7538,1,0,0:0:0:0:
448,192,7538,1,0,0:0:0:0:
448,192,7763,1,0,0:0:0:0:
64,192,7989,1,0,0:0:0:0:
192,192,7989,1,0,0:0:0:0:
448,192,8214,1,0,0:0:0:0:
64,192,8440,1,0,0:0:0:0:
320,192,8440,1,0,0:0:0:0:
448,192,8665,1,0,0:0:0:0:
64,192,8891,1,0,0:0:0:0:
192,192,9116,1,0,0:0:0:0:
448,192,9116,1,0,0:0:0:0:
64,192,9342,1,0,0:0:0:0:
320,192,9568,1,0,0:0:0:0:
448,192,9568,1,0,0:0:0:0:
64,192,9793,1,0,0:0:0:0:
192,192,10019,1,0,0:0:0:0:
448,192,10019,1,0,0:0:0:0:
64,192,10244,1,0,0:0:0:0:
192,192,10244,1,0,0:0:0:0:
448,192,10244,1,0,0:0:0:0:
448,192,10357,1,0,0:0:0:0:
448,192,10470,1,0,0:0:0:0:
192,192,10470,1,0,0:0:0:0:
64,192,10695,1,0,0:0:0:0:
448,192,10695,1,0,0:0:0:0:
192,192,10921,128,0,11034:0:0:0:0:
64,192,11147,1,0,0:0:0:0:
448,192,11147,1,0,0:0:0:0:
448,192,11372,1,0,0:0:0:0:
64,192,11598,1,0,0:0:0:0:
192,192,11598,1,0,0:0:0:0:
448,192,11823,1,0,0:0:0:0:
64,192,12049,1,0,0:0:0:0:
320,192,12049,1,0,0:0:0:0:
320,192,12274,1,0,0:0:0:0:
448,192,12274,1,0,0:0:0:0:
64,192,12500,1,0,0:0:0:0:
192,192,12500,1,0,0:0:0:0:
320,192,12726,1,0,0:0:0:0:
448,192,12726,1,0,0:0:0:0:
64,192,12951,1,0,0:0:0:0:
192,192,13177,1,0,0:0:0:0:
448,192,13177,1,0,0:0:0:0:
64,192,13402,1,0,0:0:0:0:
192,192,13402,1,0,0:0:0:0:
448,192,13402,1,0,0:0:0:0:
448,192,13515,1,0,0:0:0:0:
448,192,13628,1,0,0:0:0:0:
192,192,13628,1,0,0:0:0:0:
64,192,13853,1,0,0:0:0:0:
448,192,13853,1,0,0:0:0:0:
64,192,14079,1,0,0:0:0:0:
320,192,14079,1,0,0:0:0:0:
192,192,14192,1,0,0:0:0:0:
64,192,14304,128,0,14530:0:0:0:0:
320,192,14304,128,0,14530:0:0:0:0:
448,192,14304,128,0,14530:0:0:0:0:
192,192,14530,1,0,0:0:0:0:
64,192,14756,1,0,0:0:0:0:
320,192,14756,1,0,0:0:0:0:
448,192,14756,1,0,0:0:0:0:
320,192,14981,1,0,0:0:0:0:
192,192,14981,1,0,0:0:0:0:
64,192,15207,1,0,0:0:0:0:
448,192,15207,1,0,0:0:0:0:
320,192,15432,1,0,0:0:0:0:
448,192,15432,1,0,0:0:0:0:
64,192,15658,1,0,0:0:0:0:
192,192,15658,1,0,0:0:0:0:
320,192,15883,1,0,0:0:0:0:
448,192,15883,1,0,0:0:0:0:
64,192,16109,1,0,0:0:0:0:
192,192,16335,1,0,0:0:0:0:
320,192,16335,1,0,0:0:0:0:
64,192,16560,1,0,0:0:0:0:
192,192,16786,1,0,0:0:0:0:
320,192,16786,1,0,0:0:0:0:
64,192,17011,1,0,0:0:0:0:
448,192,17011,1,0,0:0:0:0:
192,192,17237,1,0,0:0:0:0:
320,192,17350,1,0,0:0:0:0:
64,192,17462,1,0,0:0:0:0:
192,192,17688,1,0,0:0:0:0:
320,192,17688,1,0,0:0:0:0:
64,192,17913,1,0,0:0:0:0:
448,192,18026,1,0,0:0:0:0:
192,192,18139,1,0,0:0:0:0:
64,192,18365,1,0,0:0:0:0:
192,192,18590,1,0,0:0:0:0:
320,192,18590,1,0,0:0:0:0:
64,192,18816,1,0,0:0:0:0:
448,192,18816,1,0,0:0:0:0:
320,192,19041,1,0,0:0:0:0:
448,192,19041,1,0,0:0:0:0:
64,192,19267,1,0,0:0:0:0:
192,192,19267,1,0,0:0:0:0:
192,192,19492,1,0,0:0:0:0:
448,192,19492,1,0,0:0:0:0:
64,192,19718,1,0,0:0:0:0:
320,192,19718,1,0,0:0:0:0:
192,192,19944,1,0,0:0:0:0:
448,192,19944,1,0,0:0:0:0:
64,192,20169,1,0,0:0:0:0:
192,192,20395,1,0,0:0:0:0:
448,192,20395,1,0,0:0:0:0:
64,192,20620,1,0,0:0:0:0:
448,192,20620,1,0,0:0:0:0:
192,192,20846,1,0,0:0:0:0:
320,192,20846,1,0,0:0:0:0:
64,192,21071,1,0,0:0:0:0:
448,192,21297,1,0,0:0:0:0:
320,192,21297,1,0,0:0:0:0:
192,192,21410,1,0,0:0:0:0:
64,192,21523,1,0,0:0:0:0:
448,192,21523,1,0,0:0:0:0:
320,192,21748,128,0,21974:0:0:0:0:
64,192,21974,1,0,0:0:0:0:
192,192,21974,1,0,0:0:0:0:
448,192,21974,1,0,0:0:0:0:
192,192,22199,1,0,0:0:0:0:
320,192,22199,1,0,0:0:0:0:
64,192,22425,1,0,0:0:0:0:
320,192,22425,1,0,0:0:0:0:
448,192,22425,1,0,0:0:0:0:
192,192,22650,1,0,0:0:0:0:
448,192,22650,1,0,0:0:0:0:
64,192,22876,1,0,0:0:0:0:
320,192,22876,1,0,0:0:0:0:
448,192,22876,1,0,0:0:0:0:
64,192,23101,1,0,0:0:0:0:
192,192,23101,1,0,0:0:0:0:
64,192,23327,1,0,0:0:0:0:
320,192,23327,1,0,0:0:0:0:
448,192,23327,1,0,0:0:0:0:
192,192,23553,1,0,0:0:0:0:
320,192,23553,1,0,0:0:0:0:
448,192,23553,1,0,0:0:0:0:
64,192,23778,1,0,0:0:0:0:
192,192,24004,1,0,0:0:0:0:
320,192,24004,1,0,0:0:0:0:
448,192,24004,1,0,0:0:0:0:
64,192,24229,1,0,0:0:0:0:
448,192,24229,1,0,0:0:0:0:
192,192,24455,1,0,0:0:0:0:
320,192,24455,1,0,0:0:0:0:
448,192,24568,1,0,0:0:0:0:
64,192,24680,1,0,0:0:0:0:
192,192,24906,1,0,0:0:0:0:
320,192,24906,1,0,0:0:0:0:
448,192,24906,1,0,0:0:0:0:
64,192,25132,1,0,0:0:0:0:
192,192,25132,1,0,0:0:0:0:
448,192,25244,1,0,0:0:0:0:
192,192,25357,1,0,0:0:0:0:
320,192,25357,1,0,0:0:0:0:
64,192,25583,1,0,0:0:0:0:
320,192,25583,1,0,0:0:0:0:
448,192,25583,1,0,0:0:0:0:
192,192,25808,1,0,0:0:0:0:
320,192,25808,1,0,0:0:0:0:
64,192,26034,1,0,0:0:0:0:
192,192,26034,1,0,0:0:0:0:
448,192,26034,1,0,0:0:0:0:
192,192,26259,1,0,0:0:0:0:
320,192,26259,1,0,0:0:0:0:
448,192,26259,1,0,0:0:0:0:
64,192,26485,1,0,0:0:0:0:
448,192,26485,1,0,0:0:0:0:
192,192,26710,1,0,0:0:0:0:
320,192,26710,1,0,0:0:0:0:
448,192,26710,1,0,0:0:0:0:
64,192,26936,1,0,0:0:0:0:
320,192,26936,1,0,0:0:0:0:
448,192,26936,1,0,0:0:0:0:
192,192,27162,1,0,0:0:0:0:
320,192,27162,1,0,0:0:0:0:
448,192,27162,1,0,0:0:0:0:
64,192,27387,1,0,0:0:0:0:
192,192,27613,1,0,0:0:0:0:
320,192,27613,1,0,0:0:0:0:
448,192,27613,1,0,0:0:0:0:
64,192,27838,1,0,0:0:0:0:
192,192,27838,1,0,0:0:0:0:
448,192,27838,1,0,0:0:0:0:
192,192,28064,1,0,0:0:0:0:
320,192,28064,1,0,0:0:0:0:
64,192,28289,1,0,0:0:0:0:
192,192,28515,1,0,0:0:0:0:
320,192,28515,1,0,0:0:0:0:
64,192,28741,1,0,0:0:0:0:
320,192,28741,1,0,0:0:0:0:
448,192,28741,1,0,0:0:0:0:
192,192,28966,1,0,0:0:0:0:
448,192,28966,1,0,0:0:0:0:
64,192,29192,1,0,0:0:0:0:
320,192,29192,1,0,0:0:0:0:
448,192,29192,1,0,0:0:0:0:
192,192,29304,1,0,0:0:0:0:
448,192,29417,1,0,0:0:0:0:
320,192,29530,1,0,0:0:0:0:
64,192,29643,1,0,0:0:0:0:
192,192,29643,1,0,0:0:0:0:
448,192,29756,1,0,0:0:0:0:
192,192,29868,1,0,0:0:0:0:
320,192,29981,1,0,0:0:0:0:
64,192,30094,1,0,0:0:0:0:
448,192,30094,1,0,0:0:0:0:
192,192,30207,1,0,0:0:0:0:
448,192,30319,1,0,0:0:0:0:
320,192,30432,1,0,0:0:0:0:
64,192,30432,1,0,0:0:0:0:
192,192,30545,1,0,0:0:0:0:
448,192,30658,1,0,0:0:0:0:
64,192,30771,1,0,0:0:0:0:
320,192,30771,1,0,0:0:0:0:
192,192,30883,1,0,0:0:0:0:
64,192,30996,1,0,0:0:0:0:
448,192,30996,1,0,0:0:0:0:
320,192,30996,1,0,0:0:0:0:
192,192,31109,1,0,0:0:0:0:
448,192,31222,1,0,0:0:0:0:
320,192,31335,1,0,0:0:0:0:
64,192,31447,1,0,0:0:0:0:
192,192,31447,1,0,0:0:0:0:
448,192,31560,1,0,0:0:0:0:
192,192,31673,1,0,0:0:0:0:
320,192,31786,1,0,0:0:0:0:
64,192,31898,1,0,0:0:0:0:
448,192,31898,1,0,0:0:0:0:
448,192,32011,1,0,0:0:0:0:
448,192,32124,1,0,0:0:0:0:
192,192,32237,1,0,0:0:0:0:
64,192,32237,1,0,0:0:0:0:
448,192,32350,1,0,0:0:0:0:
320,192,32462,1,0,0:0:0:0:
192,192,32575,1,0,0:0:0:0:
64,192,32575,1,0,0:0:0:0:
320,192,32688,1,0,0:0:0:0:
64,192,32801,1,0,0:0:0:0:
192,192,32801,1,0,0:0:0:0:
448,192,32801,1,0,0:0:0:0:
320,192,32913,1,0,0:0:0:0:
64,192,33026,1,0,0:0:0:0:
192,192,33139,1,0,0:0:0:0:
320,192,33252,1,0,0:0:0:0:
448,192,33252,1,0,0:0:0:0:
64,192,33365,1,0,0:0:0:0:
320,192,33477,1,0,0:0:0:0:
192,192,33590,1,0,0:0:0:0:
64,192,33703,1,0,0:0:0:0:
448,192,33703,1,0,0:0:0:0:
320,192,33816,1,0,0:0:0:0:
448,192,33929,1,0,0:0:0:0:
64,192,34041,1,0,0:0:0:0:
320,192,34041,1,0,0:0:0:0:
192,192,34154,1,0,0:0:0:0:
320,192,34267,1,0,0:0:0:0:
64,192,34380,1,0,0:0:0:0:
448,192,34380,1,0,0:0:0:0:
192,192,34492,1,0,0:0:0:0:
64,192,34605,1,0,0:0:0:0:
320,192,34605,1,0,0:0:0:0:
448,192,34605,1,0,0:0:0:0:
192,192,34718,1,0,0:0:0:0:
448,192,34831,1,0,0:0:0:0:
320,192,34944,1,0,0:0:0:0:
64,192,35056,1,0,0:0:0:0:
192,192,35056,1,0,0:0:0:0:
64,192,35169,1,0,0:0:0:0:
64,192,35282,1,0,0:0:0:0:
320,192,35395,1,0,0:0:0:0:
64,192,35507,1,0,0:0:0:0:
448,192,35507,1,0,0:0:0:0:
192,192,35620,1,0,0:0:0:0:
320,192,35733,1,0,0:0:0:0:
192,192,35846,1,0,0:0:0:0:
64,192,35846,1,0,0:0:0:0:
320,192,35959,128,0,36297:0:0:0:0:
448,192,35959,128,0,36297:0:0:0:0:
64,192,36410,1,0,0:0:0:0:
320,192,36410,1,0,0:0:0:0:
448,192,36410,1,0,0:0:0:0:
192,192,36523,1,0,0:0:0:0:
448,192,36635,1,0,0:0:0:0:
320,192,36635,1,0,0:0:0:0:
64,192,36748,1,0,0:0:0:0:
192,192,36748,1,0,0:0:0:0:
448,192,36861,1,0,0:0:0:0:
64,192,36974,1,0,0:0:0:0:
320,192,37086,1,0,0:0:0:0:
448,192,37086,1,0,0:0:0:0:
192,192,37199,1,0,0:0:0:0:
64,192,37312,1,0,0:0:0:0:
320,192,37312,1,0,0:0:0:0:
448,192,37312,1,0,0:0:0:0:
192,192,37425,1,0,0:0:0:0:
320,192,37538,1,0,0:0:0:0:
448,192,37538,1,0,0:0:0:0:
64,192,37650,1,0,0:0:0:0:
192,192,37650,1,0,0:0:0:0:
448,192,37763,1,0,0:0:0:0:
64,192,37876,1,0,0:0:0:0:
320,192,37989,1,0,0:0:0:0:
448,192,37989,1,0,0:0:0:0:
64,192,38101,1,0,0:0:0:0:
192,192,38101,1,0,0:0:0:0:
320,192,38214,1,0,0:0:0:0:
448,192,38214,1,0,0:0:0:0:
64,192,38327,1,0,0:0:0:0:
192,192,38440,1,0,0:0:0:0:
448,192,38553,1,0,0:0:0:0:
320,192,38553,1,0,0:0:0:0:
64,192,38665,1,0,0:0:0:0:
192,192,38778,1,0,0:0:0:0:
320,192,38891,1,0,0:0:0:0:
448,192,38891,1,0,0:0:0:0:
192,192,38966,1,0,0:0:0:0:
64,192,39041,1,0,0:0:0:0:
320,192,39116,1,0,0:0:0:0:
448,192,39116,1,0,0:0:0:0:
192,192,39229,1,0,0:0:0:0:
64,192,39342,1,0,0:0:0:0:
448,192,39342,1,0,0:0:0:0:
192,192,39455,1,0,0:0:0:0:
320,192,39455,1,0,0:0:0:0:
64,192,39568,1,0,0:0:0:0:
448,192,39680,1,0,0:0:0:0:
64,192,39793,1,0,0:0:0:0:
192,192,39793,1,0,0:0:0:0:
320,192,39868,1,0,0:0:0:0:
448,192,39944,1,0,0:0:0:0:
64,192,40019,1,0,0:0:0:0:
192,192,40019,1,0,0:0:0:0:
320,192,40132,1,0,0:0:0:0:
64,192,40244,1,0,0:0:0:0:
448,192,40244,1,0,0:0:0:0:
192,192,40357,1,0,0:0:0:0:
320,192,40470,1,0,0:0:0:0:
448,192,40470,1,0,0:0:0:0:
64,192,40583,1,0,0:0:0:0:
192,192,40695,1,0,0:0:0:0:
320,192,40695,1,0,0:0:0:0:
448,192,40771,1,0,0:0:0:0:
64,192,40771,1,0,0:0:0:0:
320,192,40846,1,0,0:0:0:0:
192,192,40846,1,0,0:0:0:0:
64,192,40921,1,0,0:0:0:0:
448,192,40921,1,0,0:0:0:0:
192,192,41034,1,0,0:0:0:0:
320,192,41034,1,0,0:0:0:0:
64,192,41147,1,0,0:0:0:0:
320,192,41147,1,0,0:0:0:0:
192,192,41259,1,0,0:0:0:0:
448,192,41259,1,0,0:0:0:0:
64,192,41372,1,0,0:0:0:0:
192,192,41372,1,0,0:0:0:0:
320,192,41485,1,0,0:0:0:0:
448,192,41485,1,0,0:0:0:0:
64,192,41598,1,0,0:0:0:0:
320,192,41598,1,0,0:0:0:0:
192,192,41710,1,0,0:0:0:0:
448,192,41710,1,0,0:0:0:0:
320,192,41823,1,0,0:0:0:0:
64,192,41936,1,0,0:0:0:0:
448,192,42049,1,0,0:0:0:0:
192,192,42124,1,0,0:0:0:0:
320,192,42199,1,0,0:0:0:0:
64,192,42274,1,0,0:0:0:0:
320,192,42387,1,0,0:0:0:0:
448,192,42387,1,0,0:0:0:0:
192,192,42500,1,0,0:0:0:0:
448,192,42613,1,0,0:0:0:0:
192,192,42726,1,0,0:0:0:0:
320,192,42801,1,0,0:0:0:0:
64,192,42838,1,0,0:0:0:0:
448,192,42876,1,0,0:0:0:0:
192,192,42951,1,0,0:0:0:0:
320,192,43064,1,0,0:0:0:0:
192,192,43177,128,0,43515:0:0:0:0:
448,192,43177,128,0,43515:0:0:0:0:
64,192,43177,128,0,43515:0:0:0:0:
448,192,43628,1,0,0:0:0:0:
64,192,43628,128,0,43853:0:0:0:0:
320,192,43628,128,0,43853:0:0:0:0:
192,192,43853,1,0,0:0:0:0:
448,192,43853,1,0,0:0:0:0:
64,192,44079,1,0,0:0:0:0:
192,192,44079,1,0,0:0:0:0:
448,192,44079,1,0,0:0:0:0:
320,192,44192,1,0,0:0:0:0:
448,192,44192,1,0,0:0:0:0:
320,192,44304,1,0,0:0:0:0:
448,192,44304,1,0,0:0:0:0:
320,192,44417,1,0,0:0:0:0:
448,192,44417,1,0,0:0:0:0:
64,192,44530,1,0,0:0:0:0:
192,192,44530,1,0,0:0:0:0:
320,192,44643,128,0,44699:0:0:0:0:
448,192,44643,128,0,44699:0:0:0:0:
64,192,44756,128,0,44812:0:0:0:0:
192,192,44756,128,0,44812:0:0:0:0:
320,192,44868,128,0,44925:0:0:0:0:
64,192,44981,1,0,0:0:0:0:
192,192,44981,1,0,0:0:0:0:
448,192,44981,1,0,0:0:0:0:
64,192,45094,1,0,0:0:0:0:
192,192,45094,1,0,0:0:0:0:
320,192,45207,128,0,45319:0:0:0:0:
64,192,45432,128,0,45658:0:0:0:0:
192,192,45432,128,0,45658:0:0:0:0:
448,192,45658,1,0,0:0:0:0:
320,192,45658,1,0,0:0:0:0:
64,192,45883,1,0,0:0:0:0:
192,192,45883,1,0,0:0:0:0:
448,192,45883,1,0,0:0:0:0:
192,192,45996,1,0,0:0:0:0:
320,192,45996,1,0,0:0:0:0:
192,192,46109,1,0,0:0:0:0:
320,192,46109,1,0,0:0:0:0:
192,192,46222,1,0,0:0:0:0:
320,192,46222,1,0,0:0:0:0:
64,192,46335,1,0,0:0:0:0:
448,192,46335,128,0,46447:0:0:0:0:
320,192,46560,1,0,0:0:0:0:
448,192,46560,1,0,0:0:0:0:
320,192,46673,1,0,0:0:0:0:
448,192,46673,1,0,0:0:0:0:
64,192,46786,1,0,0:0:0:0:
448,192,46786,1,0,0:0:0:0:
192,192,46786,128,0,46898:0:0:0:0:
448,192,47011,128,0,47124:0:0:0:0:
64,192,47237,128,0,47462:0:0:0:0:
320,192,47237,128,0,47462:0:0:0:0:
192,192,47462,1,0,0:0:0:0:
448,192,47462,1,0,0:0:0:0:
64,192,47688,1,0,0:0:0:0:
192,192,47688,1,0,0:0:0:0:
448,192,47688,1,0,0:0:0:0:
320,192,47801,1,0,0:0:0:0:
64,192,47913,1,0,0:0:0:0:
448,192,47913,1,0,0:0:0:0:
64,192,48026,1,0,0:0:0:0:
448,192,48026,1,0,0:0:0:0:
64,192,48139,1,0,0:0:0:0:
192,192,48139,1,0,0:0:0:0:
320,192,48252,1,0,0:0:0:0:
448,192,48252,1,0,0:0:0:0:
320,192,48365,1,0,0:0:0:0:
448,192,48365,1,0,0:0:0:0:
192,192,48477,1,0,0:0:0:0:
64,192,48590,1,0,0:0:0:0:
320,192,48590,1,0,0:0:0:0:
448,192,48590,1,0,0:0:0:0:
192,192,48703,1,0,0:0:0:0:
320,192,48816,128,0,48929:0:0:0:0:
64,192,49041,1,0,0:0:0:0:
448,192,49041,1,0,0:0:0:0:
192,192,49154,1,0,0:0:0:0:
448,192,49267,1,0,0:0:0:0:
192,192,49342,1,0,0:0:0:0:
320,192,49417,1,0,0:0:0:0:
448,192,49492,1,0,0:0:0:0:
64,192,49605,1,0,0:0:0:0:
320,192,49718,1,0,0:0:0:0:
192,192,49831,1,0,0:0:0:0:
448,192,49944,1,0,0:0:0:0:
320,192,50019,1,0,0:0:0:0:
192,192,50094,1,0,0:0:0:0:
64,192,50169,1,0,0:0:0:0:
320,192,50282,1,0,0:0:0:0:
64,192,50395,1,0,0:0:0:0:
192,192,50395,1,0,0:0:0:0:
448,192,50395,1,0,0:0:0:0:
64,192,50846,128,0,51071:0:0:0:0:
320,192,50846,128,0,51071:0:0:0:0:
192,192,50846,1,0,0:0:0:0:
192,192,51071,1,0,0:0:0:0:
448,192,51071,1,0,0:0:0:0:
64,192,51297,1,0,0:0:0:0:
320,192,51297,1,0,0:0:0:0:
448,192,51297,1,0,0:0:0:0:
192,192,51410,1,0,0:0:0:0:
448,192,51410,1,0,0:0:0:0:
192,192,51523,1,0,0:0:0:0:
64,192,51523,1,0,0:0:0:0:
192,192,51635,1,0,0:0:0:0:
448,192,51635,1,0,0:0:0:0:
64,192,51748,1,0,0:0:0:0:
320,192,51748,1,0,0:0:0:0:
320,192,51861,1,0,0:0:0:0:
448,192,51861,1,0,0:0:0:0:
64,192,51974,1,0,0:0:0:0:
192,192,51974,1,0,0:0:0:0:
320,192,52086,1,0,0:0:0:0:
448,192,52086,1,0,0:0:0:0:
64,192,52199,1,0,0:0:0:0:
448,192,52199,1,0,0:0:0:0:
192,192,52199,128,0,52312:0:0:0:0:
320,192,52425,128,0,52538:0:0:0:0:
64,192,52650,128,0,52876:0:0:0:0:
448,192,52650,128,0,52876:0:0:0:0:
192,192,52876,1,0,0:0:0:0:
320,192,52876,1,0,0:0:0:0:
64,192,53101,1,0,0:0:0:0:
320,192,53101,1,0,0:0:0:0:
448,192,53101,1,0,0:0:0:0:
192,192,53214,1,0,0:0:0:0:
64,192,53214,1,0,0:0:0:0:
192,192,53327,1,0,0:0:0:0:
64,192,53327,1,0,0:0:0:0:
448,192,53440,1,0,0:0:0:0:
64,192,53553,1,0,0:0:0:0:
192,192,53553,1,0,0:0:0:0:
320,192,53665,1,0,0:0:0:0:
448,192,53665,1,0,0:0:0:0:
64,192,53778,1,0,0:0:0:0:
320,192,53778,1,0,0:0:0:0:
320,192,53891,1,0,0:0:0:0:
448,192,53891,1,0,0:0:0:0:
192,192,54004,1,0,0:0:0:0:
64,192,54004,1,0,0:0:0:0:
448,192,54004,1,0,0:0:0:0:
320,192,54116,1,0,0:0:0:0:
192,192,54229,128,0,54342:0:0:0:0:
64,192,54455,128,0,54680:0:0:0:0:
320,192,54455,128,0,54680:0:0:0:0:
192,192,54680,1,0,0:0:0:0:
448,192,54680,1,0,0:0:0:0:
64,192,54906,1,0,0:0:0:0:
192,192,54906,1,0,0:0:0:0:
448,192,54906,1,0,0:0:0:0:
320,192,55019,1,0,0:0:0:0:
448,192,55019,1,0,0:0:0:0:
64,192,55132,1,0,0:0:0:0:
192,192,55132,1,0,0:0:0:0:
320,192,55244,1,0,0:0:0:0:
64,192,55357,1,0,0:0:0:0:
448,192,55357,1,0,0:0:0:0:
192,192,55470,1,0,0:0:0:0:
448,192,55470,1,0,0:0:0:0:
64,192,55583,1,0,0:0:0:0:
192,192,55583,1,0,0:0:0:0:
320,192,55695,1,0,0:0:0:0:
448,192,55695,1,0,0:0:0:0:
64,192,55808,1,0,0:0:0:0:
320,192,55808,1,0,0:0:0:0:
448,192,55808,1,0,0:0:0:0:
192,192,55921,1,0,0:0:0:0:
448,192,55921,1,0,0:0:0:0:
64,192,56034,1,0,0:0:0:0:
320,192,56034,1,0,0:0:0:0:
192,192,56147,1,0,0:0:0:0:
448,192,56147,1,0,0:0:0:0:
64,192,56259,1,0,0:0:0:0:
320,192,56259,128,0,56485:0:0:0:0:
64,192,56485,1,0,0:0:0:0:
192,192,56598,1,0,0:0:0:0:
448,192,56710,128,0,56936:0:0:0:0:
64,192,56823,1,0,0:0:0:0:
192,192,56936,1,0,0:0:0:0:
320,192,57049,1,0,0:0:0:0:
448,192,57162,128,0,57387:0:0:0:0:
64,192,57274,1,0,0:0:0:0:
320,192,57387,1,0,0:0:0:0:
192,192,57500,1,0,0:0:0:0:
448,192,57613,128,0,57726:0:0:0:0:
448,192,57838,128,0,57951:0:0:0:0:
448,192,58064,1,0,0:0:0:0:
64,192,58064,128,0,58289:0:0:0:0:
320,192,58064,128,0,58289:0:0:0:0:
448,192,58289,1,0,0:0:0:0:
192,192,58289,1,0,0:0:0:0:
448,192,58515,1,0,0:0:0:0:
64,192,58515,128,0,58628:0:0:0:0:
192,192,58515,128,0,58628:0:0:0:0:
320,192,58741,1,0,0:0:0:0:
448,192,58741,1,0,0:0:0:0:
320,192,58853,1,0,0:0:0:0:
448,192,58853,1,0,0:0:0:0:
64,192,58966,1,0,0:0:0:0:
192,192,59079,1,0,0:0:0:0:
448,192,59079,1,0,0:0:0:0:
192,192,59192,1,0,0:0:0:0:
448,192,59192,1,0,0:0:0:0:
320,192,59304,1,0,0:0:0:0:
448,192,59417,1,0,0:0:0:0:
192,192,59417,128,0,59530:0:0:0:0:
64,192,59417,1,0,0:0:0:0:
320,192,59643,128,0,59756:0:0:0:0:
448,192,59643,1,0,0:0:0:0:
192,192,59868,128,0,60094:0:0:0:0:
64,192,59868,128,0,60094:0:0:0:0:
448,192,60094,1,0,0:0:0:0:
320,192,60094,1,0,0:0:0:0:
64,192,60319,1,0,0:0:0:0:
320,192,60319,128,0,60432:0:0:0:0:
448,192,60319,128,0,60432:0:0:0:0:
320,192,60545,1,0,0:0:0:0:
448,192,60545,1,0,0:0:0:0:
320,192,60658,1,0,0:0:0:0:
448,192,60658,1,0,0:0:0:0:
64,192,60771,1,0,0:0:0:0:
192,192,60771,128,0,60996:0:0:0:0:
448,192,60996,128,0,61222:0:0:0:0:
64,192,61222,128,0,61560:0:0:0:0:
192,192,61222,128,0,61447:0:0:0:0:
320,192,61222,128,0,61335:0:0:0:0:
448,192,61673,1,0,0:0:0:0:
64,192,61673,128,0,61898:0:0:0:0:
192,192,61673,128,0,61898:0:0:0:0:
320,192,61898,1,0,0:0:0:0:
448,192,61898,1,0,0:0:0:0:
64,192,62124,1,0,0:0:0:0:
320,192,62124,1,0,0:0:0:0:
448,192,62124,1,0,0:0:0:0:
192,192,62237,1,0,0:0:0:0:
448,192,62237,1,0,0:0:0:0:
64,192,62350,1,0,0:0:0:0:
320,192,62350,1,0,0:0:0:0:
320,192,62462,1,0,0:0:0:0:
448,192,62462,1,0,0:0:0:0:
64,192,62575,1,0,0:0:0:0:
192,192,62575,1,0,0:0:0:0:
320,192,62688,1,0,0:0:0:0:
448,192,62688,1,0,0:0:0:0:
320,192,62801,128,0,62913:0:0:0:0:
448,192,62801,128,0,62913:0:0:0:0:
192,192,62913,1,0,0:0:0:0:
64,192,63026,1,0,0:0:0:0:
320,192,63026,1,0,0:0:0:0:
448,192,63026,1,0,0:0:0:0:
192,192,63139,1,0,0:0:0:0:
320,192,63252,1,0,0:0:0:0:
448,192,63252,1,0,0:0:0:0:
320,192,63365,1,0,0:0:0:0:
448,192,63365,1,0,0:0:0:0:
192,192,63703,1,0,0:0:0:0:
448,192,63816,1,0,0:0:0:0:
320,192,64041,1,0,0:0:0:0:
192,192,64267,1,0,0:0:0:0:
64,192,64380,1,0,0:0:0:0:
448,192,64492,1,0,0:0:0:0:
192,192,64605,1,0,0:0:0:0:
320,192,64718,1,0,0:0:0:0:
64,192,64831,128,0,65169:0:0:0:0:
192,192,64831,128,0,65169:0:0:0:0:
448,192,64831,128,0,65169:0:0:0:0:
448,192,65282,1,0,0:0:0:0:
64,192,65282,128,0,65507:0:0:0:0:
192,192,65282,128,0,65507:0:0:0:0:
320,192,65507,1,0,0:0:0:0:
448,192,65507,1,0,0:0:0:0:
64,192,65733,1,0,0:0:0:0:
192,192,65733,1,0,0:0:0:0:
448,192,65733,1,0,0:0:0:0:
320,192,65846,1,0,0:0:0:0:
448,192,65846,1,0,0:0:0:0:
64,192,65959,1,0,0:0:0:0:
192,192,65959,1,0,0:0:0:0:
64,192,66071,1,0,0:0:0:0:
192,192,66071,1,0,0:0:0:0:
320,192,66184,1,0,0:0:0:0:
448,192,66184,1,0,0:0:0:0:
64,192,66297,1,0,0:0:0:0:
320,192,66297,1,0,0:0:0:0:
192,192,66410,1,0,0:0:0:0:
448,192,66410,1,0,0:0:0:0:
320,192,66523,1,0,0:0:0:0:
64,192,66635,1,0,0:0:0:0:
448,192,66635,1,0,0:0:0:0:
192,192,66635,128,0,66748:0:0:0:0:
320,192,66861,128,0,66974:0:0:0:0:
64,192,67086,128,0,67312:0:0:0:0:
192,192,67086,128,0,67312:0:0:0:0:
320,192,67312,1,0,0:0:0:0:
448,192,67312,1,0,0:0:0:0:
64,192,67538,1,0,0:0:0:0:
192,192,67538,1,0,0:0:0:0:
448,192,67538,1,0,0:0:0:0:
192,192,67650,1,0,0:0:0:0:
320,192,67650,1,0,0:0:0:0:
192,192,67763,128,0,67876:0:0:0:0:
320,192,67763,128,0,67876:0:0:0:0:
64,192,67989,1,0,0:0:0:0:
192,192,67989,1,0,0:0:0:0:
448,192,68101,1,0,0:0:0:0:
64,192,68214,1,0,0:0:0:0:
320,192,68214,1,0,0:0:0:0:
64,192,68327,1,0,0:0:0:0:
320,192,68327,1,0,0:0:0:0:
64,192,68440,1,0,0:0:0:0:
448,192,68440,1,0,0:0:0:0:
192,192,68440,128,0,68553:0:0:0:0:
320,192,68665,128,0,68778:0:0:0:0:
64,192,68891,128,0,69116:0:0:0:0:
192,192,68891,128,0,69116:0:0:0:0:
320,192,69116,1,0,0:0:0:0:
448,192,69116,1,0,0:0:0:0:
64,192,69342,1,0,0:0:0:0:
192,192,69342,1,0,0:0:0:0:
448,192,69342,1,0,0:0:0:0:
64,192,69455,1,0,0:0:0:0:
320,192,69455,1,0,0:0:0:0:
192,192,69568,1,0,0:0:0:0:
448,192,69568,1,0,0:0:0:0:
64,192,69680,1,0,0:0:0:0:
320,192,69680,1,0,0:0:0:0:
320,192,69793,1,0,0:0:0:0:
448,192,69793,1,0,0:0:0:0:
192,192,69906,1,0,0:0:0:0:
448,192,69906,1,0,0:0:0:0:
64,192,70019,1,0,0:0:0:0:
320,192,70019,1,0,0:0:0:0:
64,192,70132,1,0,0:0:0:0:
192,192,70132,1,0,0:0:0:0:
320,192,70244,128,0,70695:0:0:0:0:
448,192,70244,128,0,70695:0:0:0:0:
64,192,70695,128,0,72387:0:0:0:0:
448,192,71147,1,0,0:0:0:0:
448,192,71259,1,0,0:0:0:0:
448,192,71372,1,0,0:0:0:0:
448,192,71485,1,0,0:0:0:0:
448,192,71598,1,0,0:0:0:0:
320,192,71823,1,0,0:0:0:0:
192,192,72049,1,0,0:0:0:0:
64,192,72500,1,0,0:0:0:0:
448,192,72500,1,0,0:0:0:0:
64,192,72726,1,0,0:0:0:0:
64,192,72951,1,0,0:0:0:0:
192,192,72951,1,0,0:0:0:0:
64,192,73177,1,0,0:0:0:0:
64,192,73402,1,0,0:0:0:0:
320,192,73402,1,0,0:0:0:0:
64,192,73628,1,0,0:0:0:0:
64,192,73853,1,0,0:0:0:0:
192,192,73853,1,0,0:0:0:0:
320,192,74079,1,0,0:0:0:0:
64,192,74079,128,0,74135:0:0:0:0:
192,192,74304,1,0,0:0:0:0:
192,192,74530,1,0,0:0:0:0:
64,192,74530,1,0,0:0:0:0:
192,192,74756,128,0,74812:0:0:0:0:
320,192,74756,1,0,0:0:0:0:
448,192,74981,1,0,0:0:0:0:
64,192,74981,1,0,0:0:0:0:
448,192,75207,1,0,0:0:0:0:
448,192,75432,128,0,75489:0:0:0:0:
64,192,75432,1,0,0:0:0:0:
320,192,75658,1,0,0:0:0:0:
192,192,75658,1,0,0:0:0:0:
64,192,75883,1,0,0:0:0:0:
320,192,75883,128,0,75940:0:0:0:0:
192,192,76109,1,0,0:0:0:0:
448,192,76109,1,0,0:0:0:0:
192,192,76335,1,0,0:0:0:0:
192,192,76560,1,0,0:0:0:0:
64,192,76560,1,0,0:0:0:0:
192,192,76786,1,0,0:0:0:0:
192,192,77011,1,0,0:0:0:0:
320,192,77011,1,0,0:0:0:0:
192,192,77237,1,0,0:0:0:0:
192,192,77462,1,0,0:0:0:0:
64,192,77462,1,0,0:0:0:0:
192,192,77688,128,0,77744:0:0:0:0:
448,192,77688,1,0,0:0:0:0:
320,192,77913,1,0,0:0:0:0:
320,192,78139,1,0,0:0:0:0:
64,192,78139,1,0,0:0:0:0:
320,192,78365,128,0,78421:0:0:0:0:
192,192,78365,1,0,0:0:0:0:
448,192,78590,1,0,0:0:0:0:
192,192,78590,1,0,0:0:0:0:
448,192,78816,1,0,0:0:0:0:
448,192,79041,128,0,79098:0:0:0:0:
320,192,79041,1,0,0:0:0:0:
192,192,79267,1,0,0:0:0:0:
320,192,79267,1,0,0:0:0:0:
64,192,79492,1,0,0:0:0:0:
192,192,79492,128,0,79549:0:0:0:0:
448,192,79718,1,0,0:0:0:0:
64,192,79718,1,0,0:0:0:0:
64,192,79944,1,0,0:0:0:0:
320,192,80169,1,0,0:0:0:0:
448,192,80169,1,0,0:0:0:0:
64,192,80395,1,0,0:0:0:0:
320,192,80507,1,0,0:0:0:0:
192,192,80620,1,0,0:0:0:0:
64,192,80620,1,0,0:0:0:0:
448,192,80733,1,0,0:0:0:0:
64,192,80846,1,0,0:0:0:0:
320,192,81071,1,0,0:0:0:0:
448,192,81071,1,0,0:0:0:0:
320,192,81297,1,0,0:0:0:0:
448,192,81297,1,0,0:0:0:0:
64,192,81410,1,0,0:0:0:0:
192,192,81523,1,0,0:0:0:0:
192,192,81748,1,0,0:0:0:0:
64,192,81748,1,0,0:0:0:0:
320,192,81974,1,0,0:0:0:0:
448,192,81974,1,0,0:0:0:0:
64,192,82199,1,0,0:0:0:0:
192,192,82199,1,0,0:0:0:0:
448,192,82312,1,0,0:0:0:0:
320,192,82425,1,0,0:0:0:0:
64,192,82650,1,0,0:0:0:0:
192,192,82650,1,0,0:0:0:0:
64,192,82876,1,0,0:0:0:0:
320,192,82876,1,0,0:0:0:0:
192,192,83101,1,0,0:0:0:0:
448,192,83101,1,0,0:0:0:0:
320,192,83214,1,0,0:0:0:0:
64,192,83327,1,0,0:0:0:0:
448,192,83327,1,0,0:0:0:0:
64,192,83553,1,0,0:0:0:0:
448,192,83553,1,0,0:0:0:0:
192,192,83778,1,0,0:0:0:0:
448,192,83778,1,0,0:0:0:0:
320,192,83778,1,0,0:0:0:0:
64,192,84004,1,0,0:0:0:0:
192,192,84004,1,0,0:0:0:0:
448,192,84116,1,0,0:0:0:0:
64,192,84229,1,0,0:0:0:0:
192,192,84229,1,0,0:0:0:0:
448,192,84342,1,0,0:0:0:0:
192,192,84455,1,0,0:0:0:0:
320,192,84455,1,0,0:0:0:0:
64,192,84568,1,0,0:0:0:0:
192,192,84680,1,0,0:0:0:0:
320,192,84680,1,0,0:0:0:0:
448,192,84680,1,0,0:0:0:0:
192,192,84906,1,0,0:0:0:0:
320,192,84906,1,0,0:0:0:0:
448,192,84906,1,0,0:0:0:0:
64,192,85357,1,0,0:0:0:0:
192,192,85583,1,0,0:0:0:0:
448,192,85808,1,0,0:0:0:0:
320,192,86259,1,0,0:0:0:0:
448,192,86259,1,0,0:0:0:0:
192,192,86372,1,0,0:0:0:0:
64,192,86485,1,0,0:0:0:0:
320,192,86485,1,0,0:0:0:0:
448,192,86485,1,0,0:0:0:0:
64,192,86936,1,0,0:0:0:0:
320,192,86936,1,0,0:0:0:0:
320,192,87049,1,0,0:0:0:0:
192,192,87162,1,0,0:0:0:0:
320,192,87274,1,0,0:0:0:0:
64,192,87387,1,0,0:0:0:0:
448,192,87387,1,0,0:0:0:0:
64,192,87613,1,0,0:0:0:0:
320,192,87613,1,0,0:0:0:0:
64,192,87838,1,0,0:0:0:0:
192,192,87838,1,0,0:0:0:0:
192,192,88007,1,0,0:0:0:0:
448,192,88064,1,0,0:0:0:0:
448,192,88177,1,0,0:0:0:0:
64,192,88289,1,0,0:0:0:0:
192,192,88289,1,0,0:0:0:0:
192,192,88515,1,0,0:0:0:0:
448,192,88515,1,0,0:0:0:0:
64,192,88741,1,0,0:0:0:0:
448,192,88853,1,0,0:0:0:0:
192,192,88910,1,0,0:0:0:0:
448,192,88966,1,0,0:0:0:0:
320,192,89079,1,0,0:0:0:0:
64,192,89192,1,0,0:0:0:0:
192,192,89192,1,0,0:0:0:0:
64,192,89304,1,0,0:0:0:0:
192,192,89304,1,0,0:0:0:0:
448,192,89417,1,0,0:0:0:0:
192,192,89530,1,0,0:0:0:0:
64,192,89643,1,0,0:0:0:0:
448,192,89643,1,0,0:0:0:0:
192,192,89756,1,0,0:0:0:0:
64,192,89868,1,0,0:0:0:0:
320,192,89981,1,0,0:0:0:0:
64,192,90094,1,0,0:0:0:0:
192,192,90094,1,0,0:0:0:0:
320,192,90319,1,0,0:0:0:0:
448,192,90319,1,0,0:0:0:0:
64,192,90545,1,0,0:0:0:0:
448,192,90658,1,0,0:0:0:0:
192,192,90771,1,0,0:0:0:0:
192,192,90883,1,0,0:0:0:0:
64,192,90996,1,0,0:0:0:0:
448,192,90996,1,0,0:0:0:0:
320,192,91071,1,0,0:0:0:0:
192,192,91222,1,0,0:0:0:0:
448,192,91297,1,0,0:0:0:0:
192,192,91335,1,0,0:0:0:0:
64,192,91447,1,0,0:0:0:0:
448,192,91447,1,0,0:0:0:0:
320,192,91523,1,0,0:0:0:0:
192,192,91598,1,0,0:0:0:0:
448,192,91673,1,0,0:0:0:0:
320,192,91786,1,0,0:0:0:0:
64,192,91898,1,0,0:0:0:0:
192,192,91898,1,0,0:0:0:0:
320,192,92011,1,0,0:0:0:0:
448,192,92011,1,0,0:0:0:0:
64,192,92124,1,0,0:0:0:0:
192,192,92124,1,0,0:0:0:0:
64,192,92350,1,0,0:0:0:0:
448,192,92350,1,0,0:0:0:0:
448,192,92462,1,0,0:0:0:0:
192,192,92575,1,0,0:0:0:0:
320,192,92688,1,0,0:0:0:0:
64,192,92801,1,0,0:0:0:0:
448,192,92801,1,0,0:0:0:0:
448,192,92913,1,0,0:0:0:0:
192,192,93026,1,0,0:0:0:0:
320,192,93139,1,0,0:0:0:0:
64,192,93252,1,0,0:0:0:0:
448,192,93252,1,0,0:0:0:0:
64,192,93365,1,0,0:0:0:0:
192,192,93477,1,0,0:0:0:0:
320,192,93590,1,0,0:0:0:0:
64,192,93703,1,0,0:0:0:0:
448,192,93703,1,0,0:0:0:0:
64,192,93816,1,0,0:0:0:0:
448,192,93816,1,0,0:0:0:0:
192,192,93929,1,0,0:0:0:0:
320,192,94041,1,0,0:0:0:0:
64,192,94154,1,0,0:0:0:0:
192,192,94154,1,0,0:0:0:0:
448,192,94154,1,0,0:0:0:0:
64,192,94267,1,0,0:0:0:0:
192,192,94267,1,0,0:0:0:0:
448,192,94380,1,0,0:0:0:0:
320,192,94492,1,0,0:0:0:0:
64,192,94605,1,0,0:0:0:0:
192,192,94605,1,0,0:0:0:0:
320,192,94718,1,0,0:0:0:0:
448,192,94718,1,0,0:0:0:0:
64,192,94831,1,0,0:0:0:0:
192,192,94831,1,0,0:0:0:0:
64,192,95056,1,0,0:0:0:0:
448,192,95056,1,0,0:0:0:0:
192,192,95169,1,0,0:0:0:0:
320,192,95282,1,0,0:0:0:0:
448,192,95282,1,0,0:0:0:0:
320,192,95395,1,0,0:0:0:0:
448,192,95395,1,0,0:0:0:0:
64,192,95507,1,0,0:0:0:0:
448,192,95507,1,0,0:0:0:0:
192,192,95620,1,0,0:0:0:0:
320,192,95733,128,0,95959:0:0:0:0:
64,192,95959,1,0,0:0:0:0:
320,192,96184,1,0,0:0:0:0:
448,192,96184,1,0,0:0:0:0:
320,192,96297,1,0,0:0:0:0:
64,192,96410,1,0,0:0:0:0:
192,192,96410,1,0,0:0:0:0:
448,192,96523,1,0,0:0:0:0:
64,192,96635,1,0,0:0:0:0:
192,192,96635,1,0,0:0:0:0:
448,192,96748,1,0,0:0:0:0:
64,192,96861,1,0,0:0:0:0:
192,192,96861,1,0,0:0:0:0:
320,192,97011,1,0,0:0:0:0:
64,192,97086,1,0,0:0:0:0:
448,192,97086,1,0,0:0:0:0:
192,192,97199,1,0,0:0:0:0:
320,192,97312,1,0,0:0:0:0:
448,192,97312,1,0,0:0:0:0:
64,192,97425,1,0,0:0:0:0:
192,192,97425,1,0,0:0:0:0:
320,192,97538,1,0,0:0:0:0:
448,192,97538,1,0,0:0:0:0:
64,192,97763,1,0,0:0:0:0:
448,192,97763,1,0,0:0:0:0:
192,192,97989,1,0,0:0:0:0:
448,192,98101,1,0,0:0:0:0:
320,192,98158,1,0,0:0:0:0:
64,192,98214,1,0,0:0:0:0:
192,192,98214,1,0,0:0:0:0:
448,192,98327,1,0,0:0:0:0:
448,192,98440,1,0,0:0:0:0:
192,192,98440,1,0,0:0:0:0:
320,192,98553,1,0,0:0:0:0:
64,192,98665,1,0,0:0:0:0:
448,192,98665,1,0,0:0:0:0:
64,192,98835,1,0,0:0:0:0:
320,192,98891,1,0,0:0:0:0:
192,192,99004,1,0,0:0:0:0:
64,192,99116,1,0,0:0:0:0:
448,192,99116,1,0,0:0:0:0:
64,192,99229,1,0,0:0:0:0:
448,192,99229,1,0,0:0:0:0:
320,192,99342,1,0,0:0:0:0:
192,192,99455,1,0,0:0:0:0:
64,192,99568,1,0,0:0:0:0:
448,192,99568,1,0,0:0:0:0:
192,192,99718,1,0,0:0:0:0:
64,192,99718,1,0,0:0:0:0:
448,192,99793,1,0,0:0:0:0:
320,192,99906,1,0,0:0:0:0:
64,192,100019,1,0,0:0:0:0:
192,192,100019,1,0,0:0:0:0:
448,192,100132,1,0,0:0:0:0:
192,192,100244,1,0,0:0:0:0:
320,192,100244,1,0,0:0:0:0:
64,192,100357,1,0,0:0:0:0:
320,192,100470,1,0,0:0:0:0:
448,192,100470,1,0,0:0:0:0:
320,192,100583,1,0,0:0:0:0:
64,192,100695,1,0,0:0:0:0:
320,192,100808,1,0,0:0:0:0:
64,192,100921,1,0,0:0:0:0:
192,192,100921,1,0,0:0:0:0:
448,192,101090,1,0,0:0:0:0:
448,192,101372,1,0,0:0:0:0:
320,192,101372,1,0,0:0:0:0:
64,192,101372,1,0,0:0:0:0:
192,192,101485,1,0,0:0:0:0:
448,192,101598,1,0,0:0:0:0:
64,192,101598,1,0,0:0:0:0:
320,192,101710,1,0,0:0:0:0:
192,192,101823,1,0,0:0:0:0:
64,192,101823,1,0,0:0:0:0:
448,192,101936,1,0,0:0:0:0:
320,192,101936,1,0,0:0:0:0:
192,192,102049,1,0,0:0:0:0:
64,192,102049,1,0,0:0:0:0:
448,192,102124,1,0,0:0:0:0:
320,192,102199,1,0,0:0:0:0:
192,192,102274,1,0,0:0:0:0:
64,192,102274,1,0,0:0:0:0:
320,192,102387,1,0,0:0:0:0:
448,192,102500,1,0,0:0:0:0:
192,192,102500,1,0,0:0:0:0:
64,192,102613,1,0,0:0:0:0:
320,192,102613,1,0,0:0:0:0:
192,192,102726,1,0,0:0:0:0:
448,192,102838,1,0,0:0:0:0:
320,192,102838,1,0,0:0:0:0:
192,192,102951,1,0,0:0:0:0:
64,192,102951,1,0,0:0:0:0:
320,192,103026,1,0,0:0:0:0:
448,192,103101,1,0,0:0:0:0:
192,192,103177,1,0,0:0:0:0:
64,192,103177,1,0,0:0:0:0:
192,192,103289,1,0,0:0:0:0:
64,192,103289,1,0,0:0:0:0:
448,192,103402,1,0,0:0:0:0:
320,192,103515,1,0,0:0:0:0:
64,192,103515,1,0,0:0:0:0:
192,192,103628,1,0,0:0:0:0:
448,192,103628,1,0,0:0:0:0:
448,192,103741,1,0,0:0:0:0:
320,192,103853,1,0,0:0:0:0:
64,192,103853,1,0,0:0:0:0:
192,192,103929,1,0,0:0:0:0:
320,192,104004,1,0,0:0:0:0:
448,192,104079,1,0,0:0:0:0:
64,192,104079,1,0,0:0:0:0:
448,192,104192,1,0,0:0:0:0:
448,192,104304,1,0,0:0:0:0:
64,192,104417,1,0,0:0:0:0:
192,192,104417,1,0,0:0:0:0:
448,192,104530,1,0,0:0:0:0:
320,192,104643,1,0,0:0:0:0:
64,192,104756,1,0,0:0:0:0:
192,192,104756,1,0,0:0:0:0:
320,192,104831,1,0,0:0:0:0:
448,192,104906,1,0,0:0:0:0:
64,192,104981,128,0,105094:0:0:0:0:
192,192,104981,128,0,105094:0:0:0:0:
64,192,105207,1,0,0:0:0:0:
192,192,105207,1,0,0:0:0:0:
448,192,105432,1,0,0:0:0:0:
320,192,105432,1,0,0:0:0:0:
320,192,105545,1,0,0:0:0:0:
448,192,105545,1,0,0:0:0:0:
64,192,105658,1,0,0:0:0:0:
192,192,105733,1,0,0:0:0:0:
448,192,105808,1,0,0:0:0:0:
320,192,105883,1,0,0:0:0:0:
64,192,105883,1,0,0:0:0:0:
192,192,105996,1,0,0:0:0:0:
320,192,106053,1,0,0:0:0:0:
448,192,106109,1,0,0:0:0:0:
192,192,106222,1,0,0:0:0:0:
64,192,106222,1,0,0:0:0:0:
448,192,106335,1,0,0:0:0:0:
320,192,106335,1,0,0:0:0:0:
192,192,106391,1,0,0:0:0:0:
64,192,106447,1,0,0:0:0:0:
448,192,106560,1,0,0:0:0:0:
320,192,106560,1,0,0:0:0:0:
192,192,106673,1,0,0:0:0:0:
64,192,106673,1,0,0:0:0:0:
448,192,106786,1,0,0:0:0:0:
320,192,106898,1,0,0:0:0:0:
192,192,107011,1,0,0:0:0:0:
64,192,107011,1,0,0:0:0:0:
448,192,107124,1,0,0:0:0:0:
320,192,107124,1,0,0:0:0:0:
64,192,107237,1,0,0:0:0:0:
320,192,107350,1,0,0:0:0:0:
192,192,107350,1,0,0:0:0:0:
448,192,107462,1,0,0:0:0:0:
192,192,107575,1,0,0:0:0:0:
64,192,107575,1,0,0:0:0:0:
448,192,107688,1,0,0:0:0:0:
320,192,107801,1,0,0:0:0:0:
64,192,107838,1,0,0:0:0:0:
448,192,107913,1,0,0:0:0:0:
192,192,108026,1,0,0:0:0:0:
320,192,108139,128,0,108477:0:0:0:0:
448,192,108139,128,0,108477:0:0:0:0:
64,192,108139,128,0,108477:0:0:0:0:
64,192,108590,128,0,108816:0:0:0:0:
192,192,108590,128,0,108816:0:0:0:0:
448,192,108590,1,0,0:0:0:0:
320,192,108816,1,0,0:0:0:0:
448,192,108816,1,0,0:0:0:0:
64,192,109041,1,0,0:0:0:0:
192,192,109041,1,0,0:0:0:0:
448,192,109041,1,0,0:0:0:0:
320,192,109154,1,0,0:0:0:0:
448,192,109154,1,0,0:0:0:0:
320,192,109267,1,0,0:0:0:0:
448,192,109267,1,0,0:0:0:0:
320,192,109380,1,0,0:0:0:0:
448,192,109380,1,0,0:0:0:0:
64,192,109492,1,0,0:0:0:0:
192,192,109492,1,0,0:0:0:0:
448,192,109605,1,0,0:0:0:0:
64,192,109718,128,0,109831:0:0:0:0:
320,192,109718,128,0,109831:0:0:0:0:
64,192,109944,1,0,0:0:0:0:
192,192,109944,1,0,0:0:0:0:
448,192,109944,1,0,0:0:0:0:
192,192,110056,1,0,0:0:0:0:
320,192,110056,1,0,0:0:0:0:
192,192,110169,128,0,110282:0:0:0:0:
320,192,110169,128,0,110282:0:0:0:0:
64,192,110395,128,0,110733:0:0:0:0:
448,192,110395,128,0,110733:0:0:0:0:
64,192,110846,1,0,0:0:0:0:
192,192,110846,1,0,0:0:0:0:
448,192,110846,1,0,0:0:0:0:
192,192,110959,1,0,0:0:0:0:
448,192,110959,1,0,0:0:0:0:
64,192,111071,1,0,0:0:0:0:
320,192,111071,1,0,0:0:0:0:
192,192,111184,1,0,0:0:0:0:
448,192,111184,1,0,0:0:0:0:
64,192,111297,1,0,0:0:0:0:
192,192,111297,1,0,0:0:0:0:
320,192,111410,1,0,0:0:0:0:
448,192,111410,1,0,0:0:0:0:
64,192,111523,1,0,0:0:0:0:
320,192,111523,1,0,0:0:0:0:
320,192,111635,1,0,0:0:0:0:
448,192,111635,1,0,0:0:0:0:
192,192,111748,1,0,0:0:0:0:
64,192,111748,1,0,0:0:0:0:
448,192,111748,1,0,0:0:0:0:
320,192,111861,1,0,0:0:0:0:
64,192,111861,1,0,0:0:0:0:
448,192,111974,1,0,0:0:0:0:
192,192,111974,1,0,0:0:0:0:
320,192,112086,1,0,0:0:0:0:
64,192,112086,1,0,0:0:0:0:
64,192,112199,128,0,112425:0:0:0:0:
192,192,112199,128,0,112425:0:0:0:0:
320,192,112425,1,0,0:0:0:0:
448,192,112425,1,0,0:0:0:0:
64,192,112650,1,0,0:0:0:0:
192,192,112650,1,0,0:0:0:0:
448,192,112650,1,0,0:0:0:0:
320,192,112763,1,0,0:0:0:0:
64,192,112876,1,0,0:0:0:0:
448,192,112876,1,0,0:0:0:0:
64,192,112989,1,0,0:0:0:0:
448,192,112989,1,0,0:0:0:0:
192,192,113101,1,0,0:0:0:0:
320,192,113101,1,0,0:0:0:0:
192,192,113214,1,0,0:0:0:0:
448,192,113214,1,0,0:0:0:0:
64,192,113327,1,0,0:0:0:0:
320,192,113327,1,0,0:0:0:0:
64,192,113440,1,0,0:0:0:0:
320,192,113440,1,0,0:0:0:0:
64,192,113553,1,0,0:0:0:0:
192,192,113553,1,0,0:0:0:0:
448,192,113553,1,0,0:0:0:0:
320,192,113665,1,0,0:0:0:0:
192,192,113778,128,0,113891:0:0:0:0:
192,192,114004,128,0,114342:0:0:0:0:
320,192,114004,128,0,114342:0:0:0:0:
64,192,114455,1,0,0:0:0:0:
320,192,114455,1,0,0:0:0:0:
448,192,114455,1,0,0:0:0:0:
192,192,114568,1,0,0:0:0:0:
448,192,114568,1,0,0:0:0:0:
192,192,114680,1,0,0:0:0:0:
448,192,114680,1,0,0:0:0:0:
320,192,114793,1,0,0:0:0:0:
64,192,114906,128,0,115019:0:0:0:0:
192,192,114906,128,0,115019:0:0:0:0:
448,192,115019,1,0,0:0:0:0:
64,192,115132,1,0,0:0:0:0:
320,192,115132,1,0,0:0:0:0:
64,192,115244,1,0,0:0:0:0:
320,192,115244,1,0,0:0:0:0:
192,192,115357,1,0,0:0:0:0:
448,192,115357,1,0,0:0:0:0:
320,192,115357,128,0,115470:0:0:0:0:
192,192,115583,128,0,115695:0:0:0:0:
64,192,115808,128,0,116034:0:0:0:0:
192,192,115808,128,0,116034:0:0:0:0:
448,192,115808,1,0,0:0:0:0:
320,192,116034,1,0,0:0:0:0:
448,192,116034,1,0,0:0:0:0:
64,192,116259,1,0,0:0:0:0:
192,192,116259,1,0,0:0:0:0:
448,192,116259,1,0,0:0:0:0:
320,192,116372,1,0,0:0:0:0:
448,192,116372,1,0,0:0:0:0:
64,192,116485,1,0,0:0:0:0:
192,192,116485,1,0,0:0:0:0:
192,192,116598,1,0,0:0:0:0:
320,192,116598,1,0,0:0:0:0:
320,192,116710,128,0,116823:0:0:0:0:
448,192,116710,128,0,116823:0:0:0:0:
64,192,116823,1,0,0:0:0:0:
320,192,116936,1,0,0:0:0:0:
448,192,116936,1,0,0:0:0:0:
320,192,117049,1,0,0:0:0:0:
448,192,117049,1,0,0:0:0:0:
64,192,117162,1,0,0:0:0:0:
448,192,117162,1,0,0:0:0:0:
192,192,117162,128,0,117274:0:0:0:0:
320,192,117387,128,0,117500:0:0:0:0:
64,192,117613,128,0,117951:0:0:0:0:
448,192,117613,128,0,117951:0:0:0:0:
64,192,118064,1,0,0:0:0:0:
320,192,118064,1,0,0:0:0:0:
448,192,118064,1,0,0:0:0:0:
192,192,118177,1,0,0:0:0:0:
448,192,118177,1,0,0:0:0:0:
64,192,118289,128,0,118402:0:0:0:0:
320,192,118289,128,0,118402:0:0:0:0:
64,192,118515,1,0,0:0:0:0:
192,192,118515,1,0,0:0:0:0:
192,192,118628,1,0,0:0:0:0:
448,192,118628,1,0,0:0:0:0:
64,192,118741,1,0,0:0:0:0:
320,192,118741,1,0,0:0:0:0:
192,192,118853,1,0,0:0:0:0:
448,192,118853,1,0,0:0:0:0:
320,192,118966,1,0,0:0:0:0:
448,192,118966,1,0,0:0:0:0:
64,192,118966,1,0,0:0:0:0:
192,192,119079,1,0,0:0:0:0:
320,192,119079,1,0,0:0:0:0:
64,192,119192,1,0,0:0:0:0:
448,192,119192,1,0,0:0:0:0:
192,192,119304,1,0,0:0:0:0:
320,192,119304,1,0,0:0:0:0:
64,192,119417,128,0,119643:0:0:0:0:
192,192,119417,128,0,119643:0:0:0:0:
320,192,119643,1,0,0:0:0:0:
448,192,119643,1,0,0:0:0:0:
64,192,119868,1,0,0:0:0:0:
320,192,119868,1,0,0:0:0:0:
448,192,119868,1,0,0:0:0:0:
192,192,119981,1,0,0:0:0:0:
448,192,119981,1,0,0:0:0:0:
192,192,120094,128,0,120207:0:0:0:0:
448,192,120094,128,0,120207:0:0:0:0:
64,192,120319,1,0,0:0:0:0:
192,192,120319,1,0,0:0:0:0:
448,192,120432,1,0,0:0:0:0:
64,192,120545,1,0,0:0:0:0:
320,192,120545,1,0,0:0:0:0:
64,192,120658,1,0,0:0:0:0:
320,192,120658,1,0,0:0:0:0:
64,192,120771,1,0,0:0:0:0:
448,192,120771,1,0,0:0:0:0:
192,192,120771,128,0,120883:0:0:0:0:
320,192,120996,1,0,0:0:0:0:
64,192,121222,128,0,123026:0:0:0:0:
320,192,121955,128,0,122124:0:0:0:0:
320,192,122237,1,0,0:0:0:0:
320,192,122350,1,0,0:0:0:0:
320,192,122462,1,0,0:0:0:0:
320,192,122575,128,0,122913:0:0:0:0:
448,192,122575,128,0,122913:0:0:0:0:
192,192,123026,128,0,123139:0:0:0:0:
320,192,123026,128,0,123252:0:0:0:0:
448,192,123026,128,0,123365:0:0:0:0:
64,192,123477,1,0,0:0:0:0:
192,192,123477,1,0,0:0:0:0:
448,192,123477,1,0,0:0:0:0:
64,192,123590,1,0,0:0:0:0:
448,192,123590,1,0,0:0:0:0:
192,192,123590,1,0,0:0:0:0:
448,192,123703,1,0,0:0:0:0:
64,192,123703,1,0,0:0:0:0:
192,192,123703,1,0,0:0:0:0:
192,192,123816,1,0,0:0:0:0:
64,192,123816,1,0,0:0:0:0:
448,192,123816,1,0,0:0:0:0:
64,192,123929,1,0,0:0:0:0:
192,192,123929,1,0,0:0:0:0:
320,192,124041,128,0,124154:0:0:0:0:
448,192,124041,128,0,124154:0:0:0:0:
192,192,124154,1,0,0:0:0:0:
64,192,124267,1,0,0:0:0:0:
320,192,124267,1,0,0:0:0:0:
192,192,124380,1,0,0:0:0:0:
448,192,124380,1,0,0:0:0:0:
64,192,124380,1,0,0:0:0:0:
448,192,124492,1,0,0:0:0:0:
320,192,124492,1,0,0:0:0:0:
192,192,124492,1,0,0:0:0:0:
320,192,124605,1,0,0:0:0:0:
192,192,124605,1,0,0:0:0:0:
448,192,124605,1,0,0:0:0:0:
320,192,124718,1,0,0:0:0:0:
192,192,124718,1,0,0:0:0:0:
448,192,124718,1,0,0:0:0:0:
64,192,124831,128,0,125169:0:0:0:0:
192,192,124831,128,0,125169:0:0:0:0:
448,192,124831,1,0,0:0:0:0:
64,192,125282,1,0,0:0:0:0:
320,192,125282,1,0,0:0:0:0:
448,192,125282,1,0,0:0:0:0:
64,192,125395,1,0,0:0:0:0:
320,192,125395,1,0,0:0:0:0:
448,192,125395,1,0,0:0:0:0:
320,192,125507,1,0,0:0:0:0:
448,192,125507,1,0,0:0:0:0:
64,192,125507,1,0,0:0:0:0:
64,192,125620,1,0,0:0:0:0:
320,192,125620,1,0,0:0:0:0:
448,192,125620,1,0,0:0:0:0:
64,192,125733,1,0,0:0:0:0:
192,192,125733,1,0,0:0:0:0:
320,192,125846,128,0,125959:0:0:0:0:
448,192,125846,128,0,125959:0:0:0:0:
192,192,125959,1,0,0:0:0:0:
320,192,126071,1,0,0:0:0:0:
448,192,126071,1,0,0:0:0:0:
64,192,126184,1,0,0:0:0:0:
192,192,126184,1,0,0:0:0:0:
448,192,126184,1,0,0:0:0:0:
320,192,126410,1,0,0:0:0:0:
64,192,126635,128,0,126861:0:0:0:0:
192,192,126635,128,0,126861:0:0:0:0:
320,192,126861,1,0,0:0:0:0:
448,192,126861,1,0,0:0:0:0:
64,192,127086,1,0,0:0:0:0:
320,192,127086,1,0,0:0:0:0:
448,192,127086,1,0,0:0:0:0:
192,192,127199,1,0,0:0:0:0:
448,192,127199,1,0,0:0:0:0:
64,192,127312,1,0,0:0:0:0:
320,192,127312,1,0,0:0:0:0:
192,192,127425,1,0,0:0:0:0:
448,192,127425,1,0,0:0:0:0:
64,192,127538,1,0,0:0:0:0:
192,192,127538,1,0,0:0:0:0:
320,192,127650,1,0,0:0:0:0:
448,192,127650,1,0,0:0:0:0:
320,192,127763,1,0,0:0:0:0:
448,192,127763,1,0,0:0:0:0:
320,192,127876,1,0,0:0:0:0:
448,192,127876,1,0,0:0:0:0:
64,192,127989,1,0,0:0:0:0:
192,192,127989,1,0,0:0:0:0:
448,192,127989,1,0,0:0:0:0:
192,192,128101,128,0,128214:0:0:0:0:
320,192,128101,128,0,128214:0:0:0:0:
192,192,128327,1,0,0:0:0:0:
320,192,128327,1,0,0:0:0:0:
64,192,128440,128,0,128778:0:0:0:0:
448,192,128440,128,0,128778:0:0:0:0:
64,192,128891,1,0,0:0:0:0:
320,192,128891,1,0,0:0:0:0:
448,192,128891,1,0,0:0:0:0:
192,192,129004,1,0,0:0:0:0:
448,192,129004,1,0,0:0:0:0:
64,192,129116,128,0,129229:0:0:0:0:
320,192,129116,128,0,129229:0:0:0:0:
64,192,129342,1,0,0:0:0:0:
192,192,129342,1,0,0:0:0:0:
192,192,129455,1,0,0:0:0:0:
448,192,129455,1,0,0:0:0:0:
64,192,129568,1,0,0:0:0:0:
320,192,129568,1,0,0:0:0:0:
192,192,129680,1,0,0:0:0:0:
448,192,129680,1,0,0:0:0:0:
320,192,129793,1,0,0:0:0:0:
448,192,129793,1,0,0:0:0:0:
64,192,129793,1,0,0:0:0:0:
192,192,129906,1,0,0:0:0:0:
320,192,129906,1,0,0:0:0:0:
64,192,130019,1,0,0:0:0:0:
192,192,130019,1,0,0:0:0:0:
320,192,130132,1,0,0:0:0:0:
448,192,130132,1,0,0:0:0:0:
448,192,130244,1,0,0:0:0:0:
192,192,130244,128,0,130470:0:0:0:0:
64,192,130244,128,0,130470:0:0:0:0:
448,192,130470,1,0,0:0:0:0:
320,192,130470,1,0,0:0:0:0:
192,192,130583,1,0,0:0:0:0:
64,192,130695,1,0,0:0:0:0:
320,192,130695,1,0,0:0:0:0:
448,192,130695,1,0,0:0:0:0:
192,192,130808,1,0,0:0:0:0:
448,192,130808,1,0,0:0:0:0:
64,192,130921,1,0,0:0:0:0:
192,192,130921,1,0,0:0:0:0:
320,192,130996,1,0,0:0:0:0:
448,192,131071,1,0,0:0:0:0:
64,192,131147,1,0,0:0:0:0:
192,192,131147,1,0,0:0:0:0:
320,192,131259,128,0,131372:0:0:0:0:
448,192,131259,128,0,131372:0:0:0:0:
64,192,131372,1,0,0:0:0:0:
320,192,131485,1,0,0:0:0:0:
448,192,131485,1,0,0:0:0:0:
64,192,131598,1,0,0:0:0:0:
192,192,131598,1,0,0:0:0:0:
448,192,131598,1,0,0:0:0:0:
320,192,131710,1,0,0:0:0:0:
192,192,131710,1,0,0:0:0:0:
64,192,131823,1,0,0:0:0:0:
448,192,131823,1,0,0:0:0:0:
192,192,131898,1,0,0:0:0:0:
320,192,131974,1,0,0:0:0:0:
64,192,132049,1,0,0:0:0:0:
192,192,132049,128,0,132387:0:0:0:0:
448,192,132049,128,0,132387:0:0:0:0:
448,192,132500,1,0,0:0:0:0:
320,192,132500,1,0,0:0:0:0:
64,192,132500,1,0,0:0:0:0:
192,192,132613,128,0,132726:0:0:0:0:
64,192,132613,128,0,132726:0:0:0:0:
448,192,132726,1,0,0:0:0:0:
320,192,132801,1,0,0:0:0:0:
192,192,132876,1,0,0:0:0:0:
448,192,132951,1,0,0:0:0:0:
64,192,132951,1,0,0:0:0:0:
192,192,133064,1,0,0:0:0:0:
320,192,133064,1,0,0:0:0:0:
192,192,133177,1,0,0:0:0:0:
448,192,133177,1,0,0:0:0:0:
192,192,133289,1,0,0:0:0:0:
320,192,133289,1,0,0:0:0:0:
64,192,133402,1,0,0:0:0:0:
192,192,133402,1,0,0:0:0:0:
448,192,133402,1,0,0:0:0:0:
320,192,133515,128,0,133628:0:0:0:0:
192,192,133628,1,0,0:0:0:0:
320,192,133703,1,0,0:0:0:0:
192,192,133778,1,0,0:0:0:0:
320,192,133853,1,0,0:0:0:0:
64,192,133853,128,0,134079:0:0:0:0:
448,192,133853,128,0,134079:0:0:0:0:
192,192,134079,1,0,0:0:0:0:
320,192,134079,1,0,0:0:0:0:
64,192,134304,1,0,0:0:0:0:
192,192,134304,1,0,0:0:0:0:
448,192,134304,1,0,0:0:0:0:
320,192,134380,1,0,0:0:0:0:
448,192,134417,1,0,0:0:0:0:
192,192,134455,1,0,0:0:0:0:
64,192,134530,1,0,0:0:0:0:
320,192,134530,1,0,0:0:0:0:
448,192,134605,1,0,0:0:0:0:
192,192,134643,1,0,0:0:0:0:
320,192,134680,1,0,0:0:0:0:
64,192,134756,1,0,0:0:0:0:
448,192,134756,1,0,0:0:0:0:
192,192,134831,1,0,0:0:0:0:
320,192,134906,1,0,0:0:0:0:
64,192,134981,1,0,0:0:0:0:
192,192,135056,1,0,0:0:0:0:
320,192,135094,1,0,0:0:0:0:
448,192,135094,1,0,0:0:0:0:
64,192,135207,128,0,135319:0:0:0:0:
192,192,135207,1,0,0:0:0:0:
320,192,135282,1,0,0:0:0:0:
448,192,135357,1,0,0:0:0:0:
64,192,135432,128,0,135545:0:0:0:0:
192,192,135432,1,0,0:0:0:0:
320,192,135507,1,0,0:0:0:0:
448,192,135583,1,0,0:0:0:0:
64,192,135658,1,0,0:0:0:0:
448,192,135771,1,0,0:0:0:0:
64,192,135883,1,0,0:0:0:0:
320,192,135959,1,0,0:0:0:0:
192,192,136034,1,0,0:0:0:0:
448,192,136109,1,0,0:0:0:0:
192,192,136222,1,0,0:0:0:0:
64,192,136222,1,0,0:0:0:0:
320,192,136335,1,0,0:0:0:0:
64,192,136447,1,0,0:0:0:0:
320,192,136560,1,0,0:0:0:0:
192,192,136635,1,0,0:0:0:0:
448,192,136673,1,0,0:0:0:0:
64,192,136710,1,0,0:0:0:0:
320,192,136786,1,0,0:0:0:0:
192,192,136898,1,0,0:0:0:0:
64,192,137011,128,0,137350:0:0:0:0:
320,192,137011,128,0,137350:0:0:0:0:
448,192,137011,128,0,137350:0:0:0:0:
64,192,137462,128,0,137688:0:0:0:0:
192,192,137462,128,0,137688:0:0:0:0:
320,192,137462,128,0,137688:0:0:0:0:
448,192,137462,128,0,137688:0:0:0:0:
