osu file format v14

[General]
AudioFilename: audio.mp3
AudioLeadIn: 0
PreviewTime: 23573
Countdown: 0
SampleSet: Soft
StackLeniency: 0.7
Mode: 3
LetterboxInBreaks: 0
SpecialStyle: 0
WidescreenStoryboard: 0

[Editor]
Bookmarks: 417,6417,12417,18417,24417,30417,36417,42417,48417,54417,60417,66417,72417,75417,81417,87417,93417,99417,105135,108417,111042
DistanceSpacing: 0.5
BeatDivisor: 4
GridSize: 8
TimelineZoom: 2.1

[Metadata]
Title:Rush-More
TitleUnicode:Rush-More
Artist:litmus*
ArtistUnicode:litmus*
Creator:FAMoss
Version:Crazy
Source:maimai でらっくす
Tags:VorticalEx muse dash ester shibe doge BOFXV -THE BMS OF FIGHTERS eXtreme Violence- milkyway TRAXX isekai truck dance music edm hybrid trap electronic instrumental future bass dubstep disco hardcore hardclap clap mkwy-0007 deluxe dx sega video game
BeatmapID:3083498
BeatmapSetID:1505336

[Difficulty]
HPDrainRate:8.5
CircleSize:4
OverallDifficulty:8.5
ApproachRate:5
SliderMultiplier:1.4
SliderTickRate:1

[Events]
//Background and Video events
0,0,"BGFAMOSSRUSHMORE.jpg",0,0
//Break Periods
//Storyboard Layer 0 (Background)
//Storyboard Layer 1 (Fail)
//Storyboard Layer 2 (Pass)
//Storyboard Layer 3 (Foreground)
//Storyboard Layer 4 (Overlay)
//Storyboard Sound Samples
Sample,32488,0,"02_clap_snare - Part_1.wav",100
Sample,33238,0,"02_clap_snare - Part_1.wav",100
Sample,70926,0,"07_snare808_022.wav",100
Sample,71113,0,"07_snare808_024.wav",100
Sample,71301,0,"07_snare808_026.wav",100
Sample,71488,0,"07_snare808_028.wav",100
Sample,71676,0,"07_snare808_030.wav",100
Sample,71863,0,"07_snare808_032.wav",100
Sample,72051,0,"07_snare808_017.wav",100
Sample,72238,0,"07_snare808_019.wav",100

[TimingPoints]
426,375,4,2,1,60,1,0
37176,-100,4,2,1,60,0,1
46926,-100,4,2,1,60,0,0
75426,-100,4,2,1,60,0,1
87051,-100,4,2,1,60,0,0
87426,-100,4,2,1,60,0,1
99426,-100,4,2,1,60,0,0

[HitObjects]
64,192,426,5,2,0:0:0:0:
320,192,426,1,0,0:0:0:100:04_crash - Part_2.wav
448,192,426,1,0,0:0:0:0:
448,192,613,1,0,0:0:0:0:
192,192,801,1,0,0:0:0:100:02_clap_snare - Part_1.wav
192,192,988,1,0,0:0:0:0:
64,192,1176,1,0,0:0:0:100:02_clap_snare - Part_1.wav
320,192,1176,1,0,0:0:0:0:
320,192,1363,1,0,0:0:0:0:
64,192,1551,1,0,0:0:0:100:02_clap_snare - Part_1.wav
448,192,1738,128,0,1926:0:0:0:0:
64,192,1926,1,0,0:0:0:100:02_clap_snare - Part_1.wav
192,192,1926,1,0,0:0:0:0:
64,192,2113,1,0,0:0:0:0:
320,192,2301,1,0,0:0:0:100:02_clap_snare - Part_1.wav
64,192,2488,1,2,0:0:0:0:
320,192,2488,1,0,0:0:0:100:04_crash - Part_2.wav
448,192,2488,1,0,0:0:0:0:
192,192,2676,1,0,0:0:0:100:02_clap_snare - Part_1.wav
64,192,2863,1,2,0:0:0:0:
192,192,2863,1,0,0:0:0:100:04_crash - Part_2.wav
448,192,2863,1,0,0:0:0:0:
320,192,3051,1,0,0:0:0:100:02_clap_snare - Part_1.wav
192,192,3238,128,0,3426:0:0:0:0:
64,192,3426,1,2,0:0:0:0:
320,192,3426,1,0,0:0:0:100:04_crash - Part_2.wav
448,192,3426,1,0,0:0:0:0:
320,192,3613,1,0,0:0:0:0:
192,192,3801,1,0,0:0:0:100:02_clap_snare - Part_1.wav
192,192,3988,1,0,0:0:0:0:
64,192,4176,1,0,0:0:0:100:02_clap_snare - Part_1.wav
448,192,4176,1,0,0:0:0:0:
448,192,4363,1,0,0:0:0:0:
192,192,4551,128,0,4738:0:0:0:100:02_clap_snare - Part_1.wav
448,192,4738,1,0,0:0:0:0:
64,192,4926,1,0,0:0:0:100:02_clap_snare - Part_1.wav
192,192,4926,1,0,0:0:0:0:
192,192,5113,1,0,0:0:0:0:
448,192,5301,1,0,0:0:0:100:02_clap_snare - Part_1.wav
192,192,5488,1,2,0:0:0:0:
320,192,5488,1,0,0:0:0:100:04_crash - Part_2.wav
448,192,5488,1,0,0:0:0:0:
64,192,5676,1,0,0:0:0:100:02_clap_snare - Part_1.wav
64,192,5863,1,2,0:0:0:0:
192,192,5863,1,0,0:0:0:100:04_crash - Part_2.wav
320,192,5863,1,0,0:0:0:0:
448,192,6051,128,0,6238:0:0:0:100:02_clap_snare - Part_1.wav
320,192,6238,1,0,0:0:0:0:
64,192,6426,1,2,0:0:0:0:
192,192,6426,1,0,0:0:0:100:04_crash - Part_2.wav
448,192,6426,1,0,0:0:0:0:
64,192,6613,1,0,0:0:0:0:
320,192,6801,1,0,0:0:0:100:02_clap_snare - Part_1.wav
320,192,6988,1,0,0:0:0:0:
192,192,7176,1,0,0:0:0:100:02_clap_snare - Part_1.wav
448,192,7176,1,0,0:0:0:0:
192,192,7363,1,0,0:0:0:0:
448,192,7551,1,0,0:0:0:100:02_clap_snare - Part_1.wav
64,192,7738,128,0,7926:0:0:0:0:
320,192,7926,1,0,0:0:0:100:02_clap_snare - Part_1.wav
448,192,7926,1,0,0:0:0:0:
448,192,8113,1,0,0:0:0:0:
192,192,8301,1,0,0:0:0:100:02_clap_snare - Part_1.wav
64,192,8488,1,2,0:0:0:0:
192,192,8488,1,0,0:0:0:100:04_crash - Part_2.wav
448,192,8488,1,0,0:0:0:0:
320,192,8676,1,0,0:0:0:100:02_clap_snare - Part_1.wav
64,192,8863,1,2,0:0:0:0:
320,192,8863,1,0,0:0:0:100:04_crash - Part_2.wav
448,192,8863,1,0,0:0:0:0:
192,192,9051,1,0,0:0:0:100:02_clap_snare - Part_1.wav
320,192,9238,128,0,9426:0:0:0:0:
64,192,9426,1,2,0:0:0:0:
192,192,9426,1,0,0:0:0:100:04_crash - Part_2.wav
448,192,9426,1,0,0:0:0:0:
192,192,9613,1,0,0:0:0:0:
320,192,9801,1,0,0:0:0:100:02_clap_snare - Part_1.wav
320,192,9988,1,0,0:0:0:0:
64,192,10176,1,0,0:0:0:100:02_clap_snare - Part_1.wav
448,192,10176,1,0,0:0:0:0:
64,192,10363,1,0,0:0:0:0:
320,192,10551,128,0,10738:0:0:0:100:02_clap_snare - Part_1.wav
64,192,10738,128,0,10926:0:0:0:0:
320,192,10926,1,2,0:0:0:0:
448,192,10926,1,0,0:0:0:0:
192,192,11019,1,0,0:0:0:100:10_tomroll_000.wav
448,192,11113,1,0,0:0:0:100:10_tomroll_000.wav
320,192,11207,1,0,0:0:0:100:10_tomroll_000.wav
64,192,11301,1,2,0:0:0:0:
192,192,11301,1,0,0:0:0:0:
448,192,11394,1,0,0:0:0:100:10_tomroll_004.wav
192,192,11488,1,0,0:0:0:100:10_tomroll_004.wav
320,192,11582,1,0,0:0:0:100:10_tomroll_004.wav
64,192,11676,1,2,0:0:0:0:
448,192,11676,1,0,0:0:0:0:
320,192,11863,1,0,0:0:0:100:10_tomroll_008.wav
192,192,11957,1,0,0:0:0:100:10_tomroll_008.wav
64,192,12051,1,0,0:0:0:100:13_perc_002.wav
320,192,12051,1,0,0:0:0:0:
448,192,12051,128,0,12332:0:0:0:0:
192,192,12144,128,0,12238:0:0:0:0:
64,192,12238,128,0,12332:0:0:0:0:
320,192,12332,1,0,0:0:0:0:
64,192,12426,1,4,0:0:0:0:
192,192,12426,1,2,0:0:0:0:
448,192,12426,1,0,0:0:0:100:07_snare808_000.wav
320,192,12519,1,0,0:0:0:0:
64,192,12613,1,0,0:0:0:0:
320,192,12707,1,0,0:0:0:100:06_tom - Part_1.wav
64,192,12801,1,2,0:0:0:0:
192,192,12801,1,0,0:0:0:100:07_snare808_000.wav
448,192,12894,1,0,0:0:0:0:
192,192,12988,1,0,0:0:0:100:06_tom - Part_2.wav
320,192,13082,1,0,0:0:0:0:
64,192,13176,1,2,0:0:0:0:
448,192,13176,1,0,0:0:0:100:07_snare808_000.wav
192,192,13269,1,0,0:0:0:0:
448,192,13363,1,0,0:0:0:100:06_tom - Part_1.wav
320,192,13457,1,0,0:0:0:100:07_snare808_000.wav
64,192,13551,1,2,0:0:0:0:
192,192,13551,1,0,0:0:0:0:
320,192,13644,1,0,0:0:0:100:06_tom - Part_2.wav
64,192,13738,1,0,0:0:0:100:07_snare808_000.wav
192,192,13738,1,0,0:0:0:0:
320,192,13832,1,0,0:0:0:100:06_tom - Part_1.wav
64,192,13926,1,2,0:0:0:0:
448,192,13926,1,0,0:0:0:100:07_snare808_000.wav
192,192,14019,1,0,0:0:0:0:
448,192,14113,1,0,0:0:0:0:
192,192,14207,1,0,0:0:0:100:06_tom - Part_2.wav
320,192,14301,1,2,0:0:0:0:
448,192,14301,1,0,0:0:0:100:07_snare808_000.wav
64,192,14394,1,0,0:0:0:0:
320,192,14488,1,0,0:0:0:100:06_tom - Part_1.wav
192,192,14582,1,0,0:0:0:0:
64,192,14676,1,2,0:0:0:0:
448,192,14676,1,0,0:0:0:100:07_snare808_000.wav
320,192,14769,1,0,0:0:0:0:
192,192,14863,1,0,0:0:0:100:06_tom - Part_2.wav
320,192,14957,1,0,0:0:0:100:07_snare808_000.wav
448,192,14957,1,0,0:0:0:0:
64,192,15051,1,2,0:0:0:0:
192,192,15051,1,0,0:0:0:0:
320,192,15144,1,0,0:0:0:100:06_tom - Part_1.wav
64,192,15238,1,0,0:0:0:100:07_snare808_000.wav
448,192,15238,1,0,0:0:0:0:
192,192,15332,1,0,0:0:0:100:06_tom - Part_2.wav
320,192,15426,1,2,0:0:0:0:
448,192,15426,1,0,0:0:0:100:07_snare808_000.wav
192,192,15519,1,0,0:0:0:0:
64,192,15613,1,0,0:0:0:0:
320,192,15707,1,0,0:0:0:100:06_tom - Part_1.wav
64,192,15801,1,2,0:0:0:0:
192,192,15801,1,0,0:0:0:100:07_snare808_000.wav
448,192,15894,1,0,0:0:0:0:
192,192,15988,1,0,0:0:0:100:06_tom - Part_2.wav
320,192,16082,1,0,0:0:0:0:
64,192,16176,1,2,0:0:0:0:
448,192,16176,1,0,0:0:0:100:07_snare808_000.wav
192,192,16269,1,0,0:0:0:0:
448,192,16363,1,0,0:0:0:100:06_tom - Part_1.wav
320,192,16457,1,0,0:0:0:100:07_snare808_000.wav
64,192,16551,1,2,0:0:0:0:
192,192,16551,1,0,0:0:0:0:
320,192,16644,1,0,0:0:0:100:06_tom - Part_2.wav
64,192,16738,1,0,0:0:0:100:07_snare808_000.wav
192,192,16738,1,0,0:0:0:0:
320,192,16832,1,0,0:0:0:100:06_tom - Part_1.wav
64,192,16926,1,2,0:0:0:0:
448,192,16926,1,0,0:0:0:100:07_snare808_000.wav
192,192,17019,1,0,0:0:0:0:
448,192,17113,1,0,0:0:0:100:07_snare808_000.wav
192,192,17207,1,0,0:0:0:100:07_snare808_000.wav
320,192,17301,1,2,0:0:0:0:
448,192,17301,1,0,0:0:0:0:
64,192,17394,1,0,0:0:0:100:07_snare808_000.wav
192,192,17488,1,0,0:0:0:100:07_snare808_000.wav
320,192,17582,1,0,0:0:0:100:07_snare808_000.wav
64,192,17676,1,2,0:0:0:0:
448,192,17676,1,0,0:0:0:100:07_snare808_000.wav
192,192,17769,1,0,0:0:0:0:
320,192,17863,1,0,0:0:0:100:07_snare808_000.wav
448,192,17863,1,0,0:0:0:0:
64,192,17957,1,0,0:0:0:100:11_fillin_001.wav
192,192,17957,1,0,0:0:0:100:07_snare808_000.wav
320,192,18051,1,2,0:0:0:0:
448,192,18051,1,0,0:0:0:100:11_fillin_002.wav
192,192,18144,1,0,0:0:0:100:07_snare808_000.wav
64,192,18238,1,0,0:0:0:100:11_fillin_002.wav
448,192,18238,1,0,0:0:0:100:07_snare808_000.wav
320,192,18332,1,0,0:0:0:100:07_snare808_000.wav
64,192,18426,1,2,0:0:0:0:
192,192,18426,1,4,0:0:0:0:
448,192,18426,1,0,0:0:0:100:07_snare808_001.wav
320,192,18519,1,0,0:0:0:0:
192,192,18613,1,0,0:0:0:100:07_snare808_002.wav
64,192,18707,1,0,0:0:0:0:
320,192,18801,1,2,0:0:0:0:
448,192,18801,1,0,0:0:0:100:07_snare808_003.wav
192,192,18894,1,0,0:0:0:0:
320,192,18988,1,0,0:0:0:100:07_snare808_004.wav
192,192,19082,1,0,0:0:0:0:
64,192,19176,1,4,0:0:0:0:
320,192,19176,1,2,0:0:0:0:
448,192,19176,1,0,0:0:0:100:07_snare808_005.wav
192,192,19269,1,0,0:0:0:0:
320,192,19363,1,0,0:0:0:100:07_snare808_006.wav
448,192,19457,1,0,0:0:0:0:
64,192,19551,1,2,0:0:0:0:
192,192,19551,1,0,0:0:0:100:07_snare808_007.wav
320,192,19644,1,0,0:0:0:0:
192,192,19738,1,0,0:0:0:100:07_snare808_008.wav
320,192,19832,1,0,0:0:0:0:
64,192,19926,1,4,0:0:0:0:
192,192,19926,1,2,0:0:0:0:
448,192,19926,1,0,0:0:0:100:07_snare808_009.wav
320,192,20019,1,0,0:0:0:0:
192,192,20113,1,0,0:0:0:100:07_snare808_010.wav
64,192,20207,1,0,0:0:0:0:
320,192,20301,1,2,0:0:0:0:
448,192,20301,1,0,0:0:0:100:07_snare808_011.wav
192,192,20394,1,0,0:0:0:0:
320,192,20488,1,0,0:0:0:100:07_snare808_012.wav
192,192,20582,1,0,0:0:0:0:
64,192,20676,1,4,0:0:0:0:
320,192,20676,1,2,0:0:0:0:
448,192,20676,1,0,0:0:0:100:07_snare808_013.wav
192,192,20769,1,0,0:0:0:0:
320,192,20863,1,0,0:0:0:100:07_snare808_014.wav
448,192,20957,1,0,0:0:0:0:
64,192,21051,1,2,0:0:0:0:
192,192,21051,1,0,0:0:0:100:07_snare808_015.wav
320,192,21144,1,0,0:0:0:0:
192,192,21238,1,0,0:0:0:100:07_snare808_016.wav
320,192,21332,1,0,0:0:0:0:
64,192,21426,1,2,0:0:0:0:
192,192,21426,1,0,0:0:0:100:04_crash - Part_2.wav
448,192,21426,1,0,0:0:0:100:07_snare808_022.wav
320,192,21519,1,0,0:0:0:100:07_snare808_023.wav
64,192,21613,1,2,0:0:0:0:
448,192,21613,1,0,0:0:0:100:07_snare808_024.wav
192,192,21707,1,0,0:0:0:100:07_snare808_025.wav
64,192,21801,1,2,0:0:0:0:
320,192,21801,1,0,0:0:0:100:04_crash - Part_2.wav
448,192,21801,1,0,0:0:0:100:07_snare808_026.wav
192,192,21894,1,0,0:0:0:100:07_snare808_027.wav
320,192,21988,1,2,0:0:0:0:
448,192,21988,1,0,0:0:0:100:07_snare808_028.wav
192,192,22082,1,0,0:0:0:100:07_snare808_029.wav
64,192,22176,1,2,0:0:0:0:
320,192,22176,1,0,0:0:0:100:04_crash - Part_2.wav
448,192,22176,1,0,0:0:0:100:07_snare808_030.wav
192,192,22269,1,0,0:0:0:100:07_snare808_031.wav
64,192,22363,1,2,0:0:0:0:
448,192,22363,1,0,0:0:0:100:07_snare808_032.wav
320,192,22457,1,0,0:0:0:100:07_snare808_033.wav
64,192,22551,1,2,0:0:0:0:
192,192,22551,1,0,0:0:0:100:04_crash - Part_2.wav
448,192,22551,1,0,0:0:0:100:07_snare808_017.wav
320,192,22644,1,0,0:0:0:100:07_snare808_018.wav
64,192,22738,1,2,0:0:0:0:
192,192,22738,1,0,0:0:0:100:07_snare808_019.wav
320,192,22832,1,0,0:0:0:100:07_snare808_020.wav
64,192,22926,1,0,0:0:0:100:12_snareroll_040.wav
192,192,22926,1,0,0:0:0:0:
448,192,22926,1,0,0:0:0:0:
64,192,23113,1,0,0:0:0:100:12_snareroll_041.wav
192,192,23113,1,0,0:0:0:0:
448,192,23113,1,0,0:0:0:0:
64,192,23301,1,0,0:0:0:100:12_snareroll_042.wav
320,192,23301,1,0,0:0:0:0:
448,192,23301,1,0,0:0:0:0:
64,192,23488,1,0,0:0:0:100:12_snareroll_043.wav
320,192,23488,1,0,0:0:0:0:
448,192,23488,1,0,0:0:0:0:
192,192,23676,128,0,23957:0:0:0:100:21_misc_011.wav
320,192,23769,128,0,23957:0:0:0:0:
448,192,24051,128,0,24332:0:0:0:100:21_misc_012.wav
64,192,24144,128,0,24332:0:0:0:0:
64,192,24426,128,2,24613:0:0:0:0:
192,192,24426,1,0,0:0:0:100:04_crash - Part_5.wav
448,192,24426,1,0,0:0:0:0:
320,192,24613,128,0,24801:0:0:0:0:
64,192,24801,128,2,24988:0:0:0:0:
448,192,24801,128,0,24894:0:0:0:0:
320,192,24988,1,0,0:0:0:0:
192,192,25082,1,0,0:0:0:0:
320,192,25176,128,2,25269:0:0:0:0:
448,192,25176,128,0,25363:0:0:0:0:
64,192,25363,1,0,0:0:0:0:
192,192,25457,1,0,0:0:0:0:
320,192,25551,128,2,25738:0:0:0:0:
448,192,25551,128,0,25644:0:0:0:0:
192,192,25738,1,0,0:0:0:0:
448,192,25832,1,0,0:0:0:0:
64,192,25926,128,2,26113:0:0:0:0:
320,192,25926,128,0,26019:0:0:0:0:
192,192,26113,1,0,0:0:0:0:
448,192,26207,1,0,0:0:0:0:
320,192,26254,1,0,0:0:0:0:
64,192,26301,128,2,26394:0:0:0:0:
192,192,26301,128,0,26488:0:0:0:0:
320,192,26488,1,0,0:0:0:0:
192,192,26582,1,0,0:0:0:0:
64,192,26676,128,2,26769:0:0:0:0:
448,192,26676,128,0,26863:0:0:0:0:
192,192,26863,1,0,0:0:0:0:
320,192,26926,1,0,0:0:0:0:
448,192,26988,1,0,0:0:0:0:
64,192,27051,128,2,27238:0:0:0:0:
192,192,27051,128,0,27426:0:0:0:0:
448,192,27238,128,0,27426:0:0:0:0:
64,192,27426,128,2,27613:0:0:0:0:
320,192,27426,1,0,0:0:0:0:
320,192,27613,128,0,27801:0:0:0:0:
64,192,27801,128,2,27988:0:0:0:0:
448,192,27801,128,0,27894:0:0:0:0:
320,192,27988,1,0,0:0:0:0:
192,192,28082,1,0,0:0:0:0:
320,192,28176,128,2,28269:0:0:0:0:
448,192,28176,128,0,28363:0:0:0:0:
64,192,28363,1,0,0:0:0:0:
320,192,28457,1,0,0:0:0:0:
192,192,28551,128,2,28738:0:0:0:0:
448,192,28551,128,0,28644:0:0:0:0:
320,192,28738,1,0,0:0:0:0:
448,192,28832,1,0,0:0:0:0:
64,192,28926,128,2,29113:0:0:0:0:
192,192,28926,128,0,29019:0:0:0:0:
320,192,29113,1,0,0:0:0:0:
64,192,29207,1,0,0:0:0:0:
192,192,29254,1,0,0:0:0:0:
320,192,29301,128,2,29488:0:0:0:0:
448,192,29301,128,0,29394:0:0:0:0:
64,192,29488,1,0,0:0:0:0:
192,192,29582,1,0,0:0:0:0:
64,192,29676,1,0,0:0:0:100:07_snare808_000.wav
448,192,29676,128,0,29863:0:0:0:0:
320,192,29769,1,0,0:0:0:100:07_snare808_000.wav
64,192,29863,128,0,30051:0:0:0:100:07_snare808_000.wav
192,192,29863,1,0,0:0:0:0:
320,192,29957,1,0,0:0:0:100:07_snare808_000.wav
448,192,30051,1,0,0:0:0:100:07_snare808_021.wav
192,192,30097,1,0,0:0:0:0:
64,192,30144,1,0,0:0:0:0:
448,192,30238,1,0,0:0:0:100:07_snare808_021.wav
320,192,30285,1,0,0:0:0:0:
192,192,30332,1,0,0:0:0:0:
64,192,30426,1,2,0:0:0:0:
320,192,30426,128,0,30613:0:0:0:100:04_crash - Part_5.wav
448,192,30426,128,0,30613:0:0:0:100:02_clap_snare - Part_1.wav
192,192,30613,1,0,0:0:0:100:02_clap_snare - Part_1.wav
320,192,30707,1,0,0:0:0:100:06_tom - Part_1.wav
64,192,30801,128,2,30894:0:0:0:0:
448,192,30801,128,0,30988:0:0:0:0:
192,192,30988,1,0,0:0:0:100:02_clap_snare - Part_1.wav
320,192,31082,1,0,0:0:0:0:
64,192,31176,128,2,31363:0:0:0:0:
192,192,31176,128,0,31269:0:0:0:0:
448,192,31363,1,0,0:0:0:100:02_clap_snare - Part_1.wav
320,192,31457,1,0,0:0:0:100:06_tom - Part_2.wav
64,192,31551,128,2,31644:0:0:0:0:
192,192,31551,128,0,31738:0:0:0:0:
320,192,31738,1,0,0:0:0:100:02_clap_snare - Part_1.wav
64,192,31832,1,0,0:0:0:0:
192,192,31879,1,0,0:0:0:0:
320,192,31926,128,2,32019:0:0:0:0:
448,192,31926,128,0,32113:0:0:0:0:
64,192,32113,1,0,0:0:0:100:02_clap_snare - Part_1.wav
192,192,32207,1,0,0:0:0:100:06_tom - Part_2.wav
320,192,32301,128,2,32488:0:0:0:0:
448,192,32301,128,0,32394:0:0:0:0:
192,192,32488,1,0,0:0:0:100:06_tom - Part_2.wav
320,192,32582,1,0,0:0:0:0:
64,192,32676,128,2,32863:0:0:0:0:
448,192,32676,128,0,32769:0:0:0:0:
320,192,32863,1,0,0:0:0:100:02_clap_snare - Part_1.wav
192,192,32926,1,0,0:0:0:0:
64,192,32988,1,0,0:0:0:0:
320,192,33051,128,2,33426:0:0:0:0:
448,192,33051,1,0,0:0:0:0:
192,192,33144,1,0,0:0:0:100:06_tom - Part_2.wav
448,192,33238,1,0,0:0:0:100:06_tom - Part_1.wav
64,192,33332,1,0,0:0:0:100:06_tom - Part_2.wav
192,192,33426,1,2,0:0:0:0:
448,192,33426,128,0,33613:0:0:0:100:02_clap_snare - Part_1.wav
192,192,33613,1,0,0:0:0:100:02_clap_snare - Part_1.wav
320,192,33707,1,0,0:0:0:100:06_tom - Part_2.wav
64,192,33801,128,2,33894:0:0:0:0:
448,192,33801,128,0,33988:0:0:0:0:
192,192,33988,1,0,0:0:0:100:02_clap_snare - Part_1.wav
320,192,34082,1,0,0:0:0:0:
64,192,34176,128,2,34363:0:0:0:0:
192,192,34176,128,0,34269:0:0:0:0:
448,192,34363,1,0,0:0:0:100:02_clap_snare - Part_1.wav
192,192,34457,1,0,0:0:0:100:06_tom - Part_2.wav
64,192,34551,128,2,34644:0:0:0:0:
320,192,34551,128,0,34738:0:0:0:0:
192,192,34738,1,0,0:0:0:100:02_clap_snare - Part_1.wav
64,192,34832,1,0,0:0:0:0:
320,192,34926,1,2,0:0:0:0:
448,192,34926,1,0,0:0:0:0:
192,192,35019,1,0,0:0:0:100:13_perc_005.wav
64,192,35113,1,0,0:0:0:100:13_perc_006.wav
448,192,35113,1,0,0:0:0:0:
320,192,35207,1,0,0:0:0:0:
64,192,35301,1,0,0:0:0:100:13_perc_006.wav
448,192,35301,1,0,0:0:0:0:
192,192,35394,1,0,0:0:0:0:
320,192,35488,1,0,0:0:0:100:13_perc_008.wav
64,192,35582,1,0,0:0:0:100:13_perc_006.wav
448,192,35582,1,0,0:0:0:0:
192,192,35676,1,0,0:0:0:100:11_fillin_000.wav
64,192,35769,1,0,0:0:0:100:13_perc_005.wav
448,192,35769,1,0,0:0:0:0:
320,192,35863,1,0,0:0:0:100:11_fillin_001.wav
192,192,35957,1,0,0:0:0:100:11_fillin_002.wav
64,192,36051,1,0,0:0:0:100:12_snareroll_186.wav
320,192,36051,1,0,0:0:0:0:
448,192,36051,1,0,0:0:0:0:
64,192,36426,1,2,0:0:0:0:
192,192,36426,1,0,0:0:0:100:21_misc_013.wav
448,192,36707,1,0,0:0:0:100:21_misc_014.wav
192,192,36707,1,2,0:0:0:0:
320,192,36988,1,2,0:0:0:0:
448,192,36988,1,0,0:0:0:100:21_misc_015.wav
64,192,37176,128,6,37363:0:0:0:0:
192,192,37176,1,0,0:0:0:100:02_clap_snare - Part_2.wav
448,192,37217,1,0,0:0:0:0:
320,192,37363,1,0,0:0:0:0:
192,192,37457,1,0,0:0:0:0:
64,192,37551,1,2,0:0:0:0:
448,192,37551,1,0,0:0:0:0:
320,192,37644,1,0,0:0:0:0:
192,192,37738,128,0,37926:0:0:0:0:
448,192,37926,128,0,38113:0:0:0:0:
64,192,38113,1,2,0:0:0:0:
192,192,38113,1,0,0:0:0:0:
320,192,38207,1,0,0:0:0:0:
64,192,38301,128,2,38488:0:0:0:0:
448,192,38301,1,0,0:0:0:0:
192,192,38488,128,0,38676:0:0:0:0:
64,192,38676,1,0,0:0:0:100:02_clap_snare - Part_2.wav
448,192,38676,1,0,0:0:0:0:
320,192,38717,1,0,0:0:0:0:
192,192,38769,1,0,0:0:0:0:
320,192,38863,1,0,0:0:0:0:
448,192,38957,1,0,0:0:0:0:
192,192,39051,128,0,39238:0:0:0:0:
320,192,39238,1,2,0:0:0:0:
448,192,39238,1,0,0:0:0:0:
192,192,39332,1,0,0:0:0:0:
64,192,39426,1,2,0:0:0:0:
448,192,39426,1,0,0:0:0:0:
320,192,39519,1,0,0:0:0:0:
64,192,39613,1,0,0:0:0:0:
192,192,39707,1,0,0:0:0:0:
448,192,39801,128,0,39988:0:0:0:0:
64,192,39988,1,2,0:0:0:0:
192,192,39988,1,0,0:0:0:0:
320,192,40082,1,0,0:0:0:0:
64,192,40176,1,0,0:0:0:100:02_clap_snare - Part_2.wav
448,192,40176,1,0,0:0:0:0:
192,192,40217,1,0,0:0:0:0:
320,192,40269,1,0,0:0:0:0:
192,192,40363,128,0,40551:0:0:0:0:
64,192,40551,1,2,0:0:0:0:
448,192,40551,128,0,40738:0:0:0:0:
64,192,40738,128,0,40926:0:0:0:0:
320,192,40926,128,0,41113:0:0:0:0:
448,192,40926,128,0,41113:0:0:0:0:
64,192,41113,1,2,0:0:0:0:
192,192,41113,1,0,0:0:0:0:
320,192,41207,1,0,0:0:0:0:
64,192,41301,128,2,41488:0:0:0:0:
192,192,41301,1,0,0:0:0:0:
320,192,41488,1,0,0:0:0:0:
192,192,41582,1,0,0:0:0:0:
64,192,41676,1,0,0:0:0:100:02_clap_snare - Part_2.wav
448,192,41676,1,0,0:0:0:0:
320,192,41717,1,0,0:0:0:0:
64,192,41863,1,0,0:0:0:100:11_fillin_002.wav
192,192,41863,1,0,0:0:0:0:
64,192,41957,1,0,0:0:0:100:11_fillin_002.wav
192,192,41957,1,0,0:0:0:0:
320,192,42051,1,0,0:0:0:100:11_fillin_002.wav
448,192,42051,1,0,0:0:0:0:
192,192,42238,1,0,0:0:0:100:11_fillin_002.wav
320,192,42238,1,0,0:0:0:0:
64,192,42426,128,4,42613:0:0:0:0:
192,192,42426,1,2,0:0:0:0:
448,192,42426,1,0,0:0:0:0:
320,192,42613,1,0,0:0:0:0:
192,192,42707,1,0,0:0:0:0:
64,192,42801,1,2,0:0:0:0:
320,192,42801,1,0,0:0:0:100:02_clap_snare - Part_3.wav
448,192,42801,128,0,42988:0:0:0:0:
192,192,42988,1,0,0:0:0:0:
320,192,43082,1,0,0:0:0:0:
64,192,43176,128,2,43363:0:0:0:0:
192,192,43176,1,4,0:0:0:0:
448,192,43176,1,0,0:0:0:0:
320,192,43363,1,0,0:0:0:0:
64,192,43457,1,2,0:0:0:0:
192,192,43457,1,0,0:0:0:0:
320,192,43551,1,0,0:0:0:100:02_clap_snare - Part_3.wav
448,192,43551,128,0,43738:0:0:0:0:
64,192,43738,1,2,0:0:0:0:
192,192,43738,1,0,0:0:0:0:
320,192,43832,1,0,0:0:0:0:
64,192,43926,1,2,0:0:0:0:
192,192,43926,1,4,0:0:0:0:
448,192,43926,128,0,44113:0:0:0:0:
192,192,44113,1,0,0:0:0:0:
320,192,44207,1,0,0:0:0:0:
64,192,44301,128,2,44488:0:0:0:0:
192,192,44301,1,0,0:0:0:100:02_clap_snare - Part_3.wav
448,192,44301,1,0,0:0:0:0:
320,192,44488,1,0,0:0:0:0:
192,192,44582,1,0,0:0:0:0:
64,192,44676,1,2,0:0:0:0:
320,192,44676,1,4,0:0:0:0:
448,192,44676,128,0,44863:0:0:0:0:
192,192,44863,1,0,0:0:0:0:
320,192,44957,1,2,0:0:0:0:
448,192,44957,1,0,0:0:0:0:
64,192,45051,128,0,45238:0:0:0:100:02_clap_snare - Part_3.wav
192,192,45051,1,0,0:0:0:0:
320,192,45238,1,2,0:0:0:0:
448,192,45238,1,0,0:0:0:0:
192,192,45332,1,0,0:0:0:0:
64,192,45426,1,2,0:0:0:0:
320,192,45426,1,0,0:0:0:100:04_crash - Part_2.wav
448,192,45426,128,0,45519:0:0:0:100:02_clap_snare - Part_3.wav
192,192,45519,1,0,0:0:0:0:
320,192,45613,1,2,0:0:0:0:
448,192,45613,1,0,0:0:0:0:
192,192,45707,1,0,0:0:0:100:02_clap_snare - Part_3.wav
64,192,45801,1,2,0:0:0:0:
320,192,45801,128,0,45894:0:0:0:100:04_crash - Part_2.wav
448,192,45801,1,0,0:0:0:0:
192,192,45894,1,0,0:0:0:0:
64,192,45988,1,2,0:0:0:0:
448,192,45988,1,0,0:0:0:100:02_clap_snare - Part_3.wav
320,192,46082,1,0,0:0:0:0:
64,192,46176,1,2,0:0:0:0:
192,192,46176,128,0,46269:0:0:0:100:04_crash - Part_2.wav
448,192,46176,1,0,0:0:0:0:
320,192,46269,1,0,0:0:0:100:02_clap_snare - Part_3.wav
64,192,46363,1,2,0:0:0:0:
192,192,46363,1,0,0:0:0:0:
320,192,46457,1,0,0:0:0:0:
64,192,46551,128,2,46644:0:0:0:0:
192,192,46551,1,0,0:0:0:100:04_crash - Part_2.wav
448,192,46551,1,0,0:0:0:100:02_clap_snare - Part_3.wav
320,192,46644,1,0,0:0:0:0:
64,192,46738,1,2,0:0:0:0:
448,192,46738,128,0,46832:0:0:0:0:
192,192,46832,1,0,0:0:0:0:
64,192,46926,1,0,0:0:0:100:12_snareroll_110.wav
320,192,46926,128,0,47019:0:0:0:0:
448,192,46926,128,0,47019:0:0:0:0:
64,192,47113,128,0,47207:0:0:0:100:12_snareroll_110.wav
320,192,47113,128,0,47207:0:0:0:0:
448,192,47113,1,0,0:0:0:0:
64,192,47301,128,0,47394:0:0:0:100:12_snareroll_110.wav
192,192,47301,128,0,47394:0:0:0:0:
448,192,47301,1,0,0:0:0:0:
64,192,47488,1,0,0:0:0:100:12_snareroll_110.wav
192,192,47488,128,0,47582:0:0:0:0:
448,192,47488,128,0,47582:0:0:0:0:
320,192,47676,1,0,0:0:0:100:11_fillin_004.wav
448,192,47676,1,0,0:0:0:0:
64,192,47769,1,0,0:0:0:100:11_fillin_004.wav
320,192,47769,1,0,0:0:0:0:
64,192,47957,1,0,0:0:0:100:11_fillin_001.wav
192,192,47957,1,0,0:0:0:0:
64,192,48051,1,0,0:0:0:100:11_fillin_002.wav
448,192,48051,1,0,0:0:0:0:
192,192,48238,1,0,0:0:0:100:11_fillin_002.wav
320,192,48238,1,0,0:0:0:0:
64,192,48426,1,2,0:0:0:0:
192,192,48426,1,4,0:0:0:0:
320,192,48426,1,0,0:0:0:100:25_explode_005.wav
448,192,48426,1,0,0:0:0:0:
320,192,48613,1,0,0:0:0:0:
64,192,48801,1,0,0:0:0:100:02_clap_snare - Part_4.wav
192,192,48801,1,0,0:0:0:0:
448,192,48801,1,0,0:0:0:0:
320,192,48988,1,2,0:0:0:0:
448,192,48988,1,0,0:0:0:0:
192,192,49176,1,0,0:0:0:0:
64,192,49363,1,2,0:0:0:0:
320,192,49363,1,0,0:0:0:0:
64,192,49551,1,0,0:0:0:100:02_clap_snare - Part_4.wav
192,192,49551,1,0,0:0:0:0:
448,192,49551,1,0,0:0:0:0:
192,192,49738,1,0,0:0:0:0:
320,192,49926,1,2,0:0:0:0:
448,192,49926,1,0,0:0:0:0:
192,192,50113,1,0,0:0:0:0:
64,192,50301,1,0,0:0:0:100:02_clap_snare - Part_4.wav
320,192,50301,1,0,0:0:0:0:
448,192,50301,1,0,0:0:0:0:
192,192,50488,1,2,0:0:0:0:
448,192,50488,1,0,0:0:0:0:
320,192,50676,1,0,0:0:0:0:
64,192,50863,1,2,0:0:0:0:
192,192,50863,1,0,0:0:0:100:02_clap_snare - Part_4.wav
448,192,50863,1,0,0:0:0:0:
64,192,51051,1,0,0:0:0:100:02_clap_snare - Part_4.wav
320,192,51051,1,0,0:0:0:0:
448,192,51051,1,0,0:0:0:0:
192,192,51238,1,2,0:0:0:0:
320,192,51238,1,0,0:0:0:0:
64,192,51426,1,2,0:0:0:0:
192,192,51426,1,4,0:0:0:0:
448,192,51426,1,0,0:0:0:0:
320,192,51613,1,0,0:0:0:0:
64,192,51801,1,0,0:0:0:100:02_clap_snare - Part_4.wav
320,192,51801,1,0,0:0:0:0:
448,192,51801,1,0,0:0:0:0:
64,192,51988,1,2,0:0:0:0:
192,192,51988,1,0,0:0:0:0:
320,192,52176,1,0,0:0:0:0:
192,192,52363,1,2,0:0:0:0:
448,192,52363,1,0,0:0:0:0:
64,192,52551,1,0,0:0:0:100:02_clap_snare - Part_4.wav
320,192,52551,1,0,0:0:0:0:
448,192,52551,1,0,0:0:0:0:
320,192,52738,1,0,0:0:0:0:
64,192,52926,1,2,0:0:0:0:
192,192,52926,1,0,0:0:0:0:
320,192,53113,1,0,0:0:0:0:
64,192,53301,1,0,0:0:0:100:02_clap_snare - Part_4.wav
192,192,53301,1,0,0:0:0:0:
448,192,53301,1,0,0:0:0:0:
64,192,53488,1,2,0:0:0:0:
320,192,53488,1,0,0:0:0:0:
192,192,53676,1,0,0:0:0:0:
64,192,53863,1,2,0:0:0:0:
320,192,53863,1,0,0:0:0:100:02_clap_snare - Part_4.wav
448,192,53863,1,0,0:0:0:0:
192,192,53957,1,0,0:0:0:100:11_fillin_001.wav
64,192,54051,1,0,0:0:0:100:02_clap_snare - Part_4.wav
320,192,54051,1,0,0:0:0:0:
448,192,54051,1,0,0:0:0:0:
192,192,54238,1,2,0:0:0:0:
320,192,54238,1,0,0:0:0:0:
64,192,54426,1,4,0:0:0:0:
192,192,54426,1,2,0:0:0:0:
448,192,54426,1,0,0:0:0:0:
320,192,54488,1,0,0:0:0:0:
192,192,54551,1,0,0:0:0:0:
64,192,54613,1,0,0:0:0:0:
64,192,54801,1,0,0:0:0:100:02_clap_snare - Part_4.wav
192,192,54801,1,0,0:0:0:0:
448,192,54801,1,0,0:0:0:0:
320,192,54988,1,2,0:0:0:0:
448,192,54988,1,0,0:0:0:0:
192,192,55051,1,0,0:0:0:0:
64,192,55113,1,0,0:0:0:0:
448,192,55176,1,0,0:0:0:0:
64,192,55363,1,2,0:0:0:0:
320,192,55363,1,0,0:0:0:0:
64,192,55551,1,0,0:0:0:100:02_clap_snare - Part_4.wav
192,192,55551,1,0,0:0:0:0:
448,192,55551,1,0,0:0:0:0:
192,192,55738,1,0,0:0:0:0:
320,192,55926,1,2,0:0:0:0:
448,192,55926,128,0,56113:0:0:0:0:
192,192,56113,1,0,0:0:0:0:
64,192,56301,1,0,0:0:0:100:02_clap_snare - Part_4.wav
320,192,56301,1,0,0:0:0:0:
448,192,56301,1,0,0:0:0:0:
192,192,56488,128,2,56676:0:0:0:0:
448,192,56488,1,0,0:0:0:0:
320,192,56676,1,0,0:0:0:0:
64,192,56863,1,2,0:0:0:0:
192,192,56863,1,0,0:0:0:100:02_clap_snare - Part_4.wav
448,192,56863,1,0,0:0:0:0:
64,192,57051,1,0,0:0:0:100:02_clap_snare - Part_4.wav
320,192,57051,1,0,0:0:0:0:
448,192,57051,1,0,0:0:0:0:
192,192,57238,1,2,0:0:0:0:
320,192,57238,1,0,0:0:0:0:
64,192,57426,128,4,57613:0:0:0:0:
192,192,57426,1,2,0:0:0:0:
448,192,57426,1,0,0:0:0:0:
320,192,57613,1,0,0:0:0:0:
64,192,57801,1,0,0:0:0:100:02_clap_snare - Part_4.wav
320,192,57801,1,0,0:0:0:0:
448,192,57801,1,0,0:0:0:0:
64,192,57988,1,2,0:0:0:0:
192,192,57988,128,0,58176:0:0:0:0:
320,192,58176,1,0,0:0:0:0:
192,192,58363,1,2,0:0:0:0:
448,192,58363,1,0,0:0:0:0:
64,192,58551,1,0,0:0:0:100:02_clap_snare - Part_4.wav
320,192,58551,1,0,0:0:0:0:
448,192,58551,1,0,0:0:0:0:
64,192,58738,1,0,0:0:0:0:
192,192,58801,1,0,0:0:0:0:
320,192,58863,1,0,0:0:0:0:
64,192,58926,1,2,0:0:0:0:
448,192,58926,128,0,59113:0:0:0:0:
192,192,59113,1,0,0:0:0:0:
64,192,59301,1,0,0:0:0:100:02_clap_snare - Part_4.wav
320,192,59301,1,0,0:0:0:0:
448,192,59301,1,0,0:0:0:0:
192,192,59488,128,2,59676:0:0:0:0:
448,192,59488,1,0,0:0:0:0:
320,192,59676,1,0,0:0:0:0:
64,192,59863,1,2,0:0:0:0:
192,192,59863,1,0,0:0:0:100:02_clap_snare - Part_4.wav
448,192,59863,1,0,0:0:0:0:
320,192,59957,1,0,0:0:0:100:11_fillin_001.wav
64,192,60051,1,0,0:0:0:100:02_clap_snare - Part_4.wav
192,192,60051,1,0,0:0:0:0:
448,192,60051,1,0,0:0:0:0:
192,192,60238,1,2,0:0:0:0:
320,192,60238,1,0,0:0:0:0:
64,192,60426,1,4,0:0:0:0:
320,192,60426,1,2,0:0:0:0:
448,192,60426,1,0,0:0:0:100:07_snare808_000.wav
192,192,60519,1,0,0:0:0:0:
448,192,60613,1,0,0:0:0:0:
192,192,60707,1,0,0:0:0:100:06_tom - Part_1.wav
320,192,60801,1,2,0:0:0:0:
448,192,60801,1,0,0:0:0:100:07_snare808_000.wav
64,192,60894,1,0,0:0:0:0:
320,192,60988,1,0,0:0:0:100:06_tom - Part_2.wav
192,192,61082,1,0,0:0:0:0:
64,192,61176,1,2,0:0:0:0:
448,192,61176,1,0,0:0:0:100:07_snare808_000.wav
320,192,61269,1,0,0:0:0:0:
64,192,61363,1,0,0:0:0:100:06_tom - Part_1.wav
192,192,61457,1,0,0:0:0:100:07_snare808_000.wav
320,192,61551,1,2,0:0:0:0:
448,192,61551,1,0,0:0:0:0:
192,192,61644,1,0,0:0:0:100:06_tom - Part_2.wav
320,192,61738,1,0,0:0:0:100:07_snare808_000.wav
448,192,61738,1,0,0:0:0:0:
192,192,61832,1,0,0:0:0:100:06_tom - Part_1.wav
64,192,61926,1,2,0:0:0:0:
448,192,61926,1,0,0:0:0:100:07_snare808_000.wav
320,192,62019,1,0,0:0:0:0:
64,192,62113,1,0,0:0:0:0:
320,192,62207,1,0,0:0:0:100:06_tom - Part_2.wav
64,192,62301,1,2,0:0:0:0:
192,192,62301,1,0,0:0:0:100:07_snare808_000.wav
448,192,62394,1,0,0:0:0:0:
192,192,62488,1,0,0:0:0:100:06_tom - Part_1.wav
320,192,62582,1,0,0:0:0:0:
64,192,62676,1,2,0:0:0:0:
448,192,62676,1,0,0:0:0:100:07_snare808_000.wav
192,192,62769,1,0,0:0:0:0:
320,192,62863,1,0,0:0:0:100:06_tom - Part_2.wav
64,192,62957,1,0,0:0:0:100:07_snare808_000.wav
192,192,62957,1,0,0:0:0:0:
320,192,63051,1,2,0:0:0:0:
448,192,63051,1,0,0:0:0:0:
192,192,63144,1,0,0:0:0:100:06_tom - Part_1.wav
64,192,63238,1,0,0:0:0:100:07_snare808_000.wav
448,192,63238,1,0,0:0:0:0:
320,192,63332,1,0,0:0:0:100:06_tom - Part_2.wav
64,192,63426,1,2,0:0:0:0:
192,192,63426,1,0,0:0:0:100:07_snare808_000.wav
320,192,63519,1,0,0:0:0:0:
448,192,63613,1,0,0:0:0:0:
192,192,63707,1,0,0:0:0:100:06_tom - Part_1.wav
320,192,63801,1,2,0:0:0:0:
448,192,63801,1,0,0:0:0:100:07_snare808_000.wav
64,192,63894,1,0,0:0:0:0:
320,192,63988,1,0,0:0:0:100:06_tom - Part_2.wav
192,192,64082,1,0,0:0:0:0:
64,192,64176,1,2,0:0:0:0:
448,192,64176,1,0,0:0:0:100:07_snare808_000.wav
320,192,64269,1,0,0:0:0:0:
64,192,64363,1,0,0:0:0:100:06_tom - Part_1.wav
192,192,64457,1,0,0:0:0:100:07_snare808_000.wav
320,192,64551,1,2,0:0:0:0:
448,192,64551,1,0,0:0:0:0:
192,192,64644,1,0,0:0:0:100:06_tom - Part_2.wav
320,192,64738,1,0,0:0:0:100:07_snare808_000.wav
448,192,64738,1,0,0:0:0:0:
192,192,64832,1,0,0:0:0:100:06_tom - Part_1.wav
64,192,64926,1,2,0:0:0:0:
448,192,64926,1,0,0:0:0:100:07_snare808_000.wav
320,192,65019,1,0,0:0:0:0:
64,192,65113,1,0,0:0:0:100:07_snare808_000.wav
320,192,65207,1,0,0:0:0:100:07_snare808_000.wav
64,192,65301,1,2,0:0:0:0:
192,192,65301,1,0,0:0:0:0:
448,192,65394,1,0,0:0:0:100:07_snare808_000.wav
320,192,65488,1,0,0:0:0:100:07_snare808_000.wav
192,192,65582,1,0,0:0:0:100:07_snare808_000.wav
64,192,65676,1,2,0:0:0:0:
448,192,65676,1,0,0:0:0:100:07_snare808_000.wav
320,192,65769,1,0,0:0:0:0:
64,192,65863,1,0,0:0:0:100:07_snare808_000.wav
192,192,65863,1,0,0:0:0:0:
320,192,65957,1,0,0:0:0:100:11_fillin_001.wav
448,192,65957,1,0,0:0:0:100:07_snare808_000.wav
64,192,66051,1,2,0:0:0:0:
192,192,66051,1,0,0:0:0:100:11_fillin_002.wav
320,192,66144,1,0,0:0:0:100:07_snare808_000.wav
64,192,66238,1,0,0:0:0:100:11_fillin_002.wav
448,192,66238,1,0,0:0:0:100:07_snare808_000.wav
192,192,66332,1,0,0:0:0:100:07_snare808_000.wav
64,192,66426,1,2,0:0:0:0:
320,192,66426,1,4,0:0:0:0:
448,192,66426,1,0,0:0:0:100:07_snare808_001.wav
192,192,66519,1,0,0:0:0:0:
320,192,66613,1,0,0:0:0:100:07_snare808_002.wav
448,192,66707,1,0,0:0:0:0:
64,192,66801,1,2,0:0:0:0:
192,192,66801,1,0,0:0:0:100:07_snare808_003.wav
320,192,66894,1,0,0:0:0:0:
64,192,66988,1,0,0:0:0:100:07_snare808_004.wav
192,192,67082,1,0,0:0:0:0:
320,192,67176,1,2,0:0:0:0:
448,192,67176,1,0,0:0:0:100:07_snare808_005.wav
64,192,67269,1,0,0:0:0:0:
192,192,67363,1,0,0:0:0:100:07_snare808_006.wav
320,192,67457,1,0,0:0:0:0:
64,192,67551,1,2,0:0:0:0:
448,192,67551,1,0,0:0:0:100:07_snare808_007.wav
192,192,67644,1,0,0:0:0:0:
448,192,67738,1,0,0:0:0:100:07_snare808_008.wav
320,192,67832,1,0,0:0:0:0:
64,192,67926,1,2,0:0:0:0:
192,192,67926,1,4,0:0:0:0:
448,192,67926,1,0,0:0:0:100:07_snare808_009.wav
320,192,68019,1,0,0:0:0:0:
192,192,68113,1,0,0:0:0:100:07_snare808_010.wav
64,192,68207,1,0,0:0:0:0:
320,192,68301,1,2,0:0:0:0:
448,192,68301,1,0,0:0:0:100:07_snare808_011.wav
192,192,68394,1,0,0:0:0:0:
448,192,68488,1,0,0:0:0:100:07_snare808_012.wav
320,192,68582,1,0,0:0:0:0:
64,192,68676,1,2,0:0:0:0:
192,192,68676,1,0,0:0:0:100:07_snare808_013.wav
448,192,68769,1,0,0:0:0:0:
320,192,68863,1,0,0:0:0:100:07_snare808_014.wav
192,192,68957,1,0,0:0:0:0:
64,192,69051,1,2,0:0:0:0:
448,192,69051,1,0,0:0:0:100:07_snare808_015.wav
320,192,69144,1,0,0:0:0:0:
64,192,69238,1,0,0:0:0:100:07_snare808_016.wav
192,192,69332,1,0,0:0:0:0:
64,192,69426,1,4,0:0:0:0:
320,192,69426,1,2,0:0:0:0:
448,192,69426,1,0,0:0:0:100:07_snare808_009.wav
192,192,69519,1,0,0:0:0:0:
320,192,69613,1,0,0:0:0:100:07_snare808_010.wav
448,192,69707,1,0,0:0:0:0:
64,192,69801,1,2,0:0:0:0:
192,192,69801,1,0,0:0:0:100:07_snare808_011.wav
320,192,69894,1,0,0:0:0:0:
192,192,69988,1,0,0:0:0:100:07_snare808_012.wav
320,192,70082,1,0,0:0:0:0:
64,192,70176,1,4,0:0:0:0:
192,192,70176,1,2,0:0:0:0:
448,192,70176,1,0,0:0:0:100:07_snare808_013.wav
320,192,70269,1,0,0:0:0:0:
64,192,70363,1,0,0:0:0:100:07_snare808_014.wav
192,192,70457,1,0,0:0:0:0:
320,192,70551,1,2,0:0:0:0:
448,192,70551,1,0,0:0:0:100:07_snare808_015.wav
192,192,70644,1,0,0:0:0:0:
448,192,70738,1,0,0:0:0:100:07_snare808_016.wav
320,192,70832,1,0,0:0:0:0:
64,192,70926,1,2,0:0:0:0:
192,192,70926,1,0,0:0:0:100:04_crash - Part_2.wav
448,192,71019,1,0,0:0:0:100:07_snare808_023.wav
320,192,71066,1,0,0:0:0:100:07_snare808_023.wav
192,192,71113,1,2,0:0:0:0:
64,192,71207,1,0,0:0:0:100:07_snare808_025.wav
192,192,71254,1,0,0:0:0:100:07_snare808_025.wav
320,192,71301,1,2,0:0:0:0:
448,192,71301,1,0,0:0:0:100:04_crash - Part_2.wav
64,192,71394,1,0,0:0:0:100:07_snare808_027.wav
192,192,71441,1,0,0:0:0:100:07_snare808_027.wav
320,192,71488,1,2,0:0:0:0:
448,192,71582,1,0,0:0:0:100:07_snare808_029.wav
320,192,71629,1,0,0:0:0:100:07_snare808_029.wav
64,192,71676,1,2,0:0:0:0:
192,192,71676,1,0,0:0:0:100:04_crash - Part_2.wav
448,192,71769,1,0,0:0:0:100:07_snare808_031.wav
320,192,71816,1,0,0:0:0:100:07_snare808_031.wav
192,192,71863,1,2,0:0:0:0:
64,192,71957,1,0,0:0:0:100:07_snare808_033.wav
192,192,72004,1,0,0:0:0:100:07_snare808_033.wav
448,192,72051,1,2,0:0:0:0:
320,192,72051,1,0,0:0:0:100:04_crash - Part_2.wav
64,192,72144,1,0,0:0:0:100:07_snare808_018.wav
192,192,72191,1,0,0:0:0:100:07_snare808_018.wav
320,192,72238,1,2,0:0:0:0:
448,192,72332,1,0,0:0:0:100:07_snare808_020.wav
320,192,72379,1,0,0:0:0:100:07_snare808_020.wav
64,192,72426,128,0,73926:0:0:0:100:21_misc_023.wav
192,192,72426,128,0,73738:0:0:0:100:25_explode_008.wav
320,192,73926,1,2,0:0:0:0:
448,192,73926,1,0,0:0:0:100:02_clap_snare - Part_1.wav
192,192,74019,1,0,0:0:0:100:10_tomroll_000.wav
448,192,74113,1,0,0:0:0:100:10_tomroll_000.wav
320,192,74207,1,0,0:0:0:100:10_tomroll_000.wav
64,192,74301,1,2,0:0:0:0:
192,192,74301,1,0,0:0:0:100:02_clap_snare - Part_1.wav
448,192,74394,1,0,0:0:0:100:10_tomroll_004.wav
192,192,74488,1,0,0:0:0:100:10_tomroll_004.wav
320,192,74582,1,0,0:0:0:100:10_tomroll_004.wav
64,192,74676,1,2,0:0:0:0:
448,192,74676,1,0,0:0:0:100:02_clap_snare - Part_1.wav
192,192,74863,1,0,0:0:0:100:10_tomroll_008.wav
320,192,74957,1,0,0:0:0:100:10_tomroll_008.wav
64,192,75051,128,0,75332:0:0:0:100:13_perc_002.wav
192,192,75051,1,0,0:0:0:0:
448,192,75051,1,0,0:0:0:0:
320,192,75144,128,0,75238:0:0:0:0:
448,192,75238,128,0,75332:0:0:0:0:
192,192,75332,1,0,0:0:0:0:
64,192,75426,1,2,0:0:0:0:
320,192,75426,1,4,0:0:0:0:
448,192,75426,1,0,0:0:0:0:
192,192,75613,1,0,0:0:0:0:
320,192,75707,1,0,0:0:0:0:
320,192,75801,128,0,75988:0:0:0:0:
64,192,75988,1,2,0:0:0:0:
192,192,75988,1,0,0:0:0:0:
64,192,76176,1,0,0:0:0:100:02_clap_snare - Part_2.wav
448,192,76176,1,0,0:0:0:0:
320,192,76238,1,0,0:0:0:0:
192,192,76301,1,0,0:0:0:0:
448,192,76363,1,0,0:0:0:0:
64,192,76410,1,0,0:0:0:0:
320,192,76457,1,0,0:0:0:0:
192,192,76504,1,0,0:0:0:0:
64,192,76551,1,2,0:0:0:0:
448,192,76551,1,0,0:0:0:0:
320,192,76738,128,0,76926:0:0:0:0:
64,192,76926,128,0,77113:0:0:0:0:
320,192,77113,1,2,0:0:0:0:
448,192,77113,1,0,0:0:0:0:
192,192,77207,1,0,0:0:0:0:
320,192,77301,1,2,0:0:0:0:
448,192,77301,128,0,77488:0:0:0:0:
192,192,77488,1,0,0:0:0:0:
64,192,77676,1,0,0:0:0:100:02_clap_snare - Part_2.wav
448,192,77676,1,0,0:0:0:0:
320,192,77738,1,0,0:0:0:0:
192,192,77801,1,0,0:0:0:0:
448,192,77863,1,0,0:0:0:0:
64,192,77910,1,0,0:0:0:0:
320,192,77957,1,0,0:0:0:0:
192,192,78004,1,0,0:0:0:0:
448,192,78051,1,0,0:0:0:0:
64,192,78238,1,2,0:0:0:0:
192,192,78238,1,0,0:0:0:0:
64,192,78426,1,2,0:0:0:0:
192,192,78426,1,0,0:0:0:0:
320,192,78613,1,0,0:0:0:0:
192,192,78707,1,0,0:0:0:0:
192,192,78801,128,0,78988:0:0:0:0:
320,192,78988,1,2,0:0:0:0:
448,192,78988,1,0,0:0:0:0:
64,192,79176,1,0,0:0:0:100:02_clap_snare - Part_2.wav
448,192,79176,1,0,0:0:0:0:
192,192,79238,1,0,0:0:0:0:
320,192,79301,1,0,0:0:0:0:
64,192,79363,1,0,0:0:0:0:
448,192,79410,1,0,0:0:0:0:
192,192,79457,1,0,0:0:0:0:
320,192,79504,1,0,0:0:0:0:
64,192,79551,1,2,0:0:0:0:
448,192,79551,1,0,0:0:0:0:
192,192,79738,128,0,79926:0:0:0:0:
448,192,79926,128,0,80113:0:0:0:0:
64,192,80113,1,2,0:0:0:0:
192,192,80113,1,0,0:0:0:0:
320,192,80207,1,0,0:0:0:0:
64,192,80301,128,2,80488:0:0:0:0:
192,192,80301,1,0,0:0:0:0:
320,192,80488,1,0,0:0:0:0:
320,192,80582,1,0,0:0:0:0:
64,192,80676,1,0,0:0:0:100:02_clap_snare - Part_2.wav
448,192,80676,1,0,0:0:0:0:
192,192,80738,1,0,0:0:0:0:
320,192,80801,1,0,0:0:0:0:
64,192,80863,1,0,0:0:0:0:
448,192,80910,1,0,0:0:0:0:
192,192,80957,1,0,0:0:0:0:
320,192,81004,1,0,0:0:0:0:
64,192,81051,1,2,0:0:0:0:
448,192,81051,1,0,0:0:0:0:
192,192,81238,1,2,0:0:0:0:
320,192,81332,1,0,0:0:0:0:
64,192,81426,1,2,0:0:0:0:
448,192,81426,1,0,0:0:0:0:
192,192,81613,1,0,0:0:0:0:
448,192,81707,1,0,0:0:0:0:
448,192,81801,128,0,81988:0:0:0:0:
64,192,81988,1,2,0:0:0:0:
192,192,81988,1,0,0:0:0:0:
64,192,82176,1,0,0:0:0:100:02_clap_snare - Part_2.wav
448,192,82176,1,0,0:0:0:0:
320,192,82238,1,0,0:0:0:0:
192,192,82301,1,0,0:0:0:0:
448,192,82363,1,0,0:0:0:0:
64,192,82410,1,0,0:0:0:0:
320,192,82457,1,0,0:0:0:0:
192,192,82504,1,0,0:0:0:0:
64,192,82551,1,2,0:0:0:0:
448,192,82551,1,0,0:0:0:0:
320,192,82738,128,0,82926:0:0:0:0:
64,192,82926,128,0,83113:0:0:0:0:
320,192,83113,1,2,0:0:0:0:
448,192,83113,1,0,0:0:0:0:
192,192,83207,1,0,0:0:0:0:
320,192,83301,1,2,0:0:0:0:
448,192,83301,128,0,83488:0:0:0:0:
192,192,83488,1,0,0:0:0:0:
64,192,83676,1,0,0:0:0:100:02_clap_snare - Part_2.wav
448,192,83676,1,0,0:0:0:0:
320,192,83738,1,0,0:0:0:0:
192,192,83801,1,0,0:0:0:0:
448,192,83863,1,0,0:0:0:0:
64,192,83910,1,0,0:0:0:0:
320,192,83957,1,0,0:0:0:0:
192,192,84004,1,0,0:0:0:0:
448,192,84051,1,0,0:0:0:0:
64,192,84238,1,2,0:0:0:0:
192,192,84238,1,0,0:0:0:0:
64,192,84426,1,2,0:0:0:0:
192,192,84426,1,0,0:0:0:0:
320,192,84613,1,0,0:0:0:0:
64,192,84707,1,0,0:0:0:0:
64,192,84801,128,0,84988:0:0:0:0:
320,192,84988,1,2,0:0:0:0:
448,192,84988,1,0,0:0:0:0:
64,192,85176,1,0,0:0:0:100:02_clap_snare - Part_2.wav
448,192,85176,1,0,0:0:0:0:
192,192,85238,1,0,0:0:0:0:
320,192,85301,1,0,0:0:0:0:
64,192,85363,1,0,0:0:0:0:
448,192,85410,1,0,0:0:0:0:
192,192,85457,1,0,0:0:0:0:
320,192,85504,1,0,0:0:0:0:
64,192,85551,1,2,0:0:0:0:
448,192,85551,1,0,0:0:0:0:
192,192,85738,128,0,85926:0:0:0:0:
448,192,85926,128,0,86113:0:0:0:0:
64,192,86113,1,2,0:0:0:0:
192,192,86113,1,0,0:0:0:0:
320,192,86207,1,0,0:0:0:0:
64,192,86301,128,2,86488:0:0:0:0:
192,192,86301,1,0,0:0:0:0:
320,192,86488,1,0,0:0:0:0:
320,192,86582,1,0,0:0:0:0:
64,192,86676,1,0,0:0:0:100:02_clap_snare - Part_2.wav
448,192,86676,1,0,0:0:0:0:
192,192,86738,1,0,0:0:0:0:
320,192,86801,1,0,0:0:0:0:
64,192,86863,1,0,0:0:0:100:11_fillin_001.wav
448,192,86910,1,0,0:0:0:0:
192,192,86957,1,0,0:0:0:100:11_fillin_002.wav
320,192,87004,1,0,0:0:0:0:
64,192,87051,1,2,0:0:0:0:
448,192,87051,1,0,0:0:0:0:
320,192,87238,1,0,0:0:0:100:11_fillin_002.wav
192,192,87332,1,0,0:0:0:0:
64,192,87426,1,4,0:0:0:0:
320,192,87426,1,2,0:0:0:0:
448,192,87426,1,0,0:0:0:0:
192,192,87613,1,0,0:0:0:0:
320,192,87707,1,0,0:0:0:0:
320,192,87801,128,0,87988:0:0:0:100:21_misc_027.wav
448,192,87801,128,0,87894:0:0:0:0:
64,192,87988,1,0,0:0:0:100:02_clap_snare - Part_5.wav
192,192,87988,1,0,0:0:0:0:
64,192,88176,1,2,0:0:0:0:
448,192,88176,1,0,0:0:0:0:
320,192,88238,1,0,0:0:0:0:
192,192,88301,1,0,0:0:0:0:
448,192,88363,1,0,0:0:0:0:
64,192,88410,1,0,0:0:0:0:
320,192,88457,1,0,0:0:0:0:
192,192,88504,1,0,0:0:0:0:
64,192,88551,1,0,0:0:0:100:02_clap_snare - Part_5.wav
448,192,88551,128,0,88644:0:0:0:100:21_misc_027.wav
320,192,88738,128,0,88926:0:0:0:0:
64,192,88926,128,2,89113:0:0:0:0:
192,192,88926,1,0,0:0:0:0:
320,192,89113,1,0,0:0:0:0:
192,192,89207,1,0,0:0:0:0:
320,192,89301,128,0,89394:0:0:0:100:21_misc_027.wav
448,192,89301,128,0,89488:0:0:0:0:
64,192,89488,1,0,0:0:0:100:02_clap_snare - Part_5.wav
192,192,89488,1,0,0:0:0:0:
64,192,89676,1,2,0:0:0:0:
448,192,89676,1,0,0:0:0:0:
320,192,89738,1,0,0:0:0:0:
192,192,89801,1,0,0:0:0:0:
448,192,89863,1,0,0:0:0:0:
64,192,89910,1,0,0:0:0:0:
320,192,89957,1,0,0:0:0:0:
192,192,90004,1,0,0:0:0:0:
64,192,90051,1,0,0:0:0:100:02_clap_snare - Part_5.wav
448,192,90051,128,0,90144:0:0:0:100:21_misc_027.wav
192,192,90238,1,0,0:0:0:0:
320,192,90332,1,0,0:0:0:0:
64,192,90426,1,2,0:0:0:0:
192,192,90426,1,0,0:0:0:0:
320,192,90613,1,0,0:0:0:0:
192,192,90707,1,0,0:0:0:0:
64,192,90801,128,0,90894:0:0:0:100:21_misc_027.wav
192,192,90801,128,0,90988:0:0:0:0:
320,192,90988,1,0,0:0:0:100:02_clap_snare - Part_5.wav
448,192,90988,1,0,0:0:0:0:
64,192,91176,1,2,0:0:0:0:
448,192,91176,1,0,0:0:0:0:
192,192,91238,1,0,0:0:0:0:
320,192,91301,1,0,0:0:0:0:
64,192,91363,1,0,0:0:0:0:
448,192,91410,1,0,0:0:0:0:
192,192,91457,1,0,0:0:0:0:
320,192,91504,1,0,0:0:0:0:
64,192,91551,128,0,91644:0:0:0:100:02_clap_snare - Part_5.wav
448,192,91551,1,0,0:0:0:100:21_misc_027.wav
192,192,91738,128,0,91926:0:0:0:0:
320,192,91926,1,2,0:0:0:0:
448,192,91926,128,0,92113:0:0:0:0:
192,192,92113,1,0,0:0:0:0:
320,192,92207,1,0,0:0:0:0:
64,192,92301,128,0,92488:0:0:0:100:21_misc_027.wav
192,192,92301,128,0,92394:0:0:0:0:
320,192,92488,1,0,0:0:0:100:02_clap_snare - Part_5.wav
448,192,92488,1,0,0:0:0:0:
320,192,92582,1,0,0:0:0:0:
64,192,92676,1,2,0:0:0:0:
448,192,92676,1,0,0:0:0:0:
192,192,92738,1,0,0:0:0:0:
320,192,92801,1,0,0:0:0:0:
64,192,92863,1,0,0:0:0:0:
448,192,92910,1,0,0:0:0:0:
192,192,92957,1,0,0:0:0:0:
320,192,93004,1,0,0:0:0:0:
64,192,93051,128,0,93144:0:0:0:100:02_clap_snare - Part_5.wav
448,192,93051,1,0,0:0:0:100:21_misc_027.wav
192,192,93238,1,0,0:0:0:0:
320,192,93332,1,0,0:0:0:0:
64,192,93426,1,2,0:0:0:0:
448,192,93426,1,0,0:0:0:0:
192,192,93613,1,0,0:0:0:0:
448,192,93707,1,0,0:0:0:0:
320,192,93801,128,0,93894:0:0:0:100:21_misc_027.wav
448,192,93801,128,0,93988:0:0:0:0:
64,192,93988,1,0,0:0:0:100:02_clap_snare - Part_5.wav
192,192,93988,1,0,0:0:0:0:
64,192,94176,1,2,0:0:0:0:
448,192,94176,1,0,0:0:0:0:
320,192,94238,1,0,0:0:0:0:
192,192,94301,1,0,0:0:0:0:
448,192,94363,1,0,0:0:0:0:
64,192,94410,1,0,0:0:0:0:
320,192,94457,1,0,0:0:0:0:
192,192,94504,1,0,0:0:0:0:
64,192,94551,1,0,0:0:0:100:02_clap_snare - Part_5.wav
448,192,94551,128,0,94644:0:0:0:100:21_misc_027.wav
320,192,94738,128,0,94926:0:0:0:0:
64,192,94926,128,2,95113:0:0:0:0:
192,192,94926,1,0,0:0:0:0:
320,192,95113,1,0,0:0:0:0:
192,192,95207,1,0,0:0:0:0:
320,192,95301,128,0,95394:0:0:0:100:21_misc_027.wav
448,192,95301,128,0,95488:0:0:0:0:
64,192,95488,1,0,0:0:0:100:02_clap_snare - Part_5.wav
192,192,95488,1,0,0:0:0:0:
64,192,95676,1,2,0:0:0:0:
448,192,95676,1,0,0:0:0:0:
320,192,95738,1,0,0:0:0:0:
192,192,95801,1,0,0:0:0:0:
448,192,95863,1,0,0:0:0:0:
64,192,95910,1,0,0:0:0:0:
320,192,95957,1,0,0:0:0:0:
192,192,96004,1,0,0:0:0:0:
64,192,96051,1,0,0:0:0:100:02_clap_snare - Part_5.wav
448,192,96051,128,0,96144:0:0:0:100:21_misc_027.wav
192,192,96238,1,0,0:0:0:0:
320,192,96332,1,0,0:0:0:0:
64,192,96426,1,2,0:0:0:0:
192,192,96426,1,0,0:0:0:0:
320,192,96613,1,0,0:0:0:0:
64,192,96707,1,0,0:0:0:0:
64,192,96801,128,0,96988:0:0:0:100:21_misc_027.wav
192,192,96801,128,0,96894:0:0:0:0:
320,192,96988,1,0,0:0:0:100:02_clap_snare - Part_5.wav
448,192,96988,1,0,0:0:0:0:
64,192,97176,1,2,0:0:0:0:
448,192,97176,1,0,0:0:0:0:
192,192,97238,1,0,0:0:0:0:
320,192,97301,1,0,0:0:0:0:
64,192,97363,1,0,0:0:0:0:
448,192,97410,1,0,0:0:0:0:
192,192,97457,1,0,0:0:0:0:
320,192,97504,1,0,0:0:0:0:
64,192,97551,128,0,97644:0:0:0:100:02_clap_snare - Part_5.wav
448,192,97551,1,0,0:0:0:100:21_misc_027.wav
192,192,97738,128,0,97926:0:0:0:0:
320,192,97926,1,2,0:0:0:0:
448,192,97926,128,0,98113:0:0:0:0:
64,192,98113,128,0,98301:0:0:0:0:
320,192,98301,128,2,98488:0:0:0:0:
448,192,98301,1,0,0:0:0:100:21_misc_027.wav
192,192,98488,1,0,0:0:0:0:
192,192,98582,1,0,0:0:0:0:
64,192,98676,1,2,0:0:0:0:
448,192,98676,128,0,98863:0:0:0:0:
64,192,98863,1,0,0:0:0:100:11_fillin_001.wav
192,192,98863,1,0,0:0:0:0:
64,192,98957,1,0,0:0:0:100:11_fillin_002.wav
192,192,98957,1,0,0:0:0:0:
320,192,99051,128,0,99238:0:0:0:100:12_bigsnare_000.wav
448,192,99051,1,0,0:0:0:0:
192,192,99238,1,0,0:0:0:0:
64,192,99426,1,2,0:0:0:0:
192,192,99426,1,4,0:0:0:0:
320,192,99426,1,0,0:0:0:100:25_explode_005.wav
448,192,99426,1,0,0:0:0:0:
320,192,99613,1,0,0:0:0:0:
64,192,99801,1,0,0:0:0:100:02_clap_snare - Part_4.wav
192,192,99801,1,0,0:0:0:0:
448,192,99801,1,0,0:0:0:0:
320,192,99988,1,2,0:0:0:0:
448,192,99988,1,0,0:0:0:0:
192,192,100176,1,0,0:0:0:0:
64,192,100363,1,2,0:0:0:0:
320,192,100363,1,0,0:0:0:0:
64,192,100551,1,0,0:0:0:100:02_clap_snare - Part_4.wav
192,192,100551,1,0,0:0:0:0:
448,192,100551,1,0,0:0:0:0:
192,192,100738,1,0,0:0:0:0:
320,192,100926,1,2,0:0:0:0:
448,192,100926,1,0,0:0:0:0:
192,192,101113,1,0,0:0:0:0:
64,192,101301,1,0,0:0:0:100:02_clap_snare - Part_4.wav
320,192,101301,1,0,0:0:0:0:
448,192,101301,1,0,0:0:0:0:
192,192,101488,1,2,0:0:0:0:
448,192,101488,1,0,0:0:0:0:
320,192,101676,1,0,0:0:0:0:
64,192,101863,1,2,0:0:0:0:
192,192,101863,1,0,0:0:0:100:02_clap_snare - Part_4.wav
448,192,101863,1,0,0:0:0:0:
64,192,102051,1,0,0:0:0:100:02_clap_snare - Part_4.wav
320,192,102051,1,0,0:0:0:0:
448,192,102051,1,0,0:0:0:0:
192,192,102238,1,2,0:0:0:0:
320,192,102238,1,0,0:0:0:0:
64,192,102426,1,2,0:0:0:0:
448,192,102426,1,0,0:0:0:0:
192,192,102613,1,0,0:0:0:0:
64,192,102801,1,0,0:0:0:100:02_clap_snare - Part_4.wav
320,192,102801,1,0,0:0:0:0:
448,192,102801,1,0,0:0:0:0:
64,192,102988,1,2,0:0:0:0:
192,192,102988,1,0,0:0:0:0:
320,192,103176,1,0,0:0:0:0:
192,192,103363,1,2,0:0:0:0:
448,192,103363,1,0,0:0:0:0:
64,192,103551,1,0,0:0:0:100:02_clap_snare - Part_4.wav
320,192,103551,1,0,0:0:0:0:
448,192,103551,1,0,0:0:0:0:
320,192,103738,1,0,0:0:0:0:
64,192,103926,1,2,0:0:0:0:
192,192,103926,1,0,0:0:0:0:
320,192,104113,1,0,0:0:0:0:
64,192,104301,1,0,0:0:0:100:02_clap_snare - Part_4.wav
192,192,104301,1,0,0:0:0:0:
448,192,104301,1,0,0:0:0:0:
64,192,104488,1,2,0:0:0:0:
320,192,104488,1,0,0:0:0:0:
192,192,104676,1,0,0:0:0:0:
64,192,104863,1,2,0:0:0:0:
320,192,104863,1,0,0:0:0:100:02_clap_snare - Part_4.wav
448,192,104863,1,0,0:0:0:0:
64,192,105051,1,0,0:0:0:100:02_clap_snare - Part_4.wav
192,192,105051,1,0,0:0:0:0:
448,192,105051,1,0,0:0:0:0:
192,192,105238,1,2,0:0:0:0:
320,192,105238,1,0,0:0:0:0:
64,192,105426,1,2,0:0:0:0:
448,192,105426,1,0,0:0:0:0:
320,192,105613,1,0,0:0:0:0:
64,192,105801,1,0,0:0:0:100:02_clap_snare - Part_4.wav
192,192,105801,1,0,0:0:0:0:
448,192,105801,1,0,0:0:0:0:
320,192,105988,1,2,0:0:0:0:
448,192,105988,1,0,0:0:0:0:
192,192,106176,1,0,0:0:0:0:
64,192,106363,1,2,0:0:0:0:
320,192,106363,1,0,0:0:0:0:
64,192,106551,1,0,0:0:0:100:02_clap_snare - Part_4.wav
192,192,106551,1,0,0:0:0:0:
448,192,106551,1,0,0:0:0:0:
192,192,106738,1,0,0:0:0:0:
320,192,106926,1,2,0:0:0:0:
448,192,106926,1,0,0:0:0:0:
192,192,107113,1,0,0:0:0:0:
64,192,107301,1,0,0:0:0:100:02_clap_snare - Part_4.wav
320,192,107301,1,0,0:0:0:0:
448,192,107301,1,0,0:0:0:0:
192,192,107488,1,2,0:0:0:0:
448,192,107488,1,0,0:0:0:0:
320,192,107676,1,0,0:0:0:0:
64,192,107863,1,2,0:0:0:0:
192,192,107863,1,0,0:0:0:100:02_clap_snare - Part_4.wav
448,192,107863,1,0,0:0:0:0:
64,192,108051,1,0,0:0:0:100:02_clap_snare - Part_4.wav
320,192,108051,1,0,0:0:0:0:
448,192,108051,1,0,0:0:0:0:
192,192,108238,1,2,0:0:0:0:
320,192,108238,1,0,0:0:0:0:
64,192,108426,1,2,0:0:0:0:
448,192,108426,1,0,0:0:0:0:
192,192,108613,1,0,0:0:0:0:
64,192,108801,1,0,0:0:0:100:02_clap_snare - Part_4.wav
320,192,108801,1,0,0:0:0:0:
448,192,108801,1,0,0:0:0:0:
64,192,108988,1,2,0:0:0:0:
192,192,108988,1,0,0:0:0:0:
320,192,109176,1,0,0:0:0:0:
192,192,109363,1,2,0:0:0:0:
448,192,109363,1,0,0:0:0:0:
64,192,109551,1,0,0:0:0:100:02_clap_snare - Part_4.wav
320,192,109551,1,0,0:0:0:0:
448,192,109551,1,0,0:0:0:0:
320,192,109738,1,0,0:0:0:0:
64,192,109926,1,2,0:0:0:0:
192,192,109926,1,0,0:0:0:100:02_clap_snare - Part_1.wav
320,192,110019,1,0,0:0:0:100:10_tomroll_000.wav
192,192,110113,1,0,0:0:0:100:10_tomroll_000.wav
192,192,110207,1,0,0:0:0:100:10_tomroll_000.wav
64,192,110301,1,2,0:0:0:0:
320,192,110301,1,0,0:0:0:100:02_clap_snare - Part_1.wav
448,192,110301,1,0,0:0:0:0:
192,192,110394,1,0,0:0:0:100:10_tomroll_004.wav
320,192,110488,1,0,0:0:0:100:10_tomroll_004.wav
448,192,110488,1,0,0:0:0:0:
320,192,110582,1,0,0:0:0:100:10_tomroll_004.wav
64,192,110676,1,2,0:0:0:0:
192,192,110676,1,0,0:0:0:100:02_clap_snare - Part_1.wav
192,192,110769,1,0,0:0:0:100:10_tomroll_008.wav
320,192,110863,1,0,0:0:0:100:10_tomroll_008.wav
448,192,110863,1,0,0:0:0:0:
320,192,110957,1,0,0:0:0:100:10_tomroll_008.wav
64,192,111051,128,0,111426:0:0:0:100:13_perc_002.wav
192,192,111051,128,0,111426:0:0:0:0:
448,192,111051,128,0,111426:0:0:0:0:
320,192,111238,128,0,111426:0:0:0:0:
