osu file format v14

[General]
AudioFilename: audio.mp3
AudioLeadIn: 0
PreviewTime: 87048
Countdown: 0
SampleSet: Soft
StackLeniency: 0.4
Mode: 0
LetterboxInBreaks: 0
WidescreenStoryboard: 1

[Editor]
Bookmarks: 9548,12048,19860,24548,32048,34548,44548,53923,54548,64548,65016,74548,87048,95485,97048,105798,107048,117048,127048
DistanceSpacing: 1
BeatDivisor: 8
GridSize: 32
TimelineZoom: 3.800004

[Metadata]
Title:Dizzolve
TitleUnicode:Dizzolve
Artist:litmus*
ArtistUnicode:litmus*
Creator:Enon
Version:shiraya sayuki's extra
Source:OverRapid
Tags:omc omcx omc10 featured artist fa bms BOFU2017 ddm teaminhtg Weeklycare Shiraya Sayuki JeokHwa Athanasia- bIG data bIG_data dailycare morinaga milr_ [ White Music ] [_White_Music_] instrumental electronic
BeatmapID:3985085
BeatmapSetID:1850676

[Difficulty]
HPDrainRate:5
CircleSize:4.2
OverallDifficulty:8.8
ApproachRate:9.4
SliderMultiplier:1.8
SliderTickRate:1

[Events]
//Background and Video events
0,0,"omc10.png",0,0
//Break Periods
//Storyboard Layer 0 (Background)
//Storyboard Layer 1 (Fail)
//Storyboard Layer 2 (Pass)
//Storyboard Layer 3 (Foreground)
//Storyboard Layer 4 (Overlay)
//Storyboard Sound Samples

[TimingPoints]
2048,312.5,4,2,1,65,1,0
2048,-66.6666666666667,4,2,1,65,0,0
2360,-76.9230769230769,4,2,1,65,0,0
2829,-66.6666666666667,4,2,1,65,0,0
3610,-133.333333333333,4,2,1,65,0,0
4235,-66.6666666666667,4,2,1,65,0,0
5798,-100,4,2,1,65,0,0
7048,-50,4,2,1,65,0,0
8454,-66.6666666666667,4,2,1,65,0,0
9548,-40,4,2,1,65,0,0
9782,-40,4,2,1,5,0,0
9860,-62.5,4,2,1,65,0,0
10016,-62.5,4,2,1,5,0,0
10094,-62.5,4,2,1,65,0,0
10250,-62.5,4,2,1,5,0,0
10329,-62.5,4,2,1,65,0,0
10485,-62.5,4,2,1,5,0,0
10563,-62.5,4,2,1,65,0,0
10719,-62.5,4,2,1,5,0,0
10798,-62.5,4,2,1,65,0,0
10954,-62.5,4,2,1,5,0,0
11032,-62.5,4,2,1,65,0,0
11188,-62.5,4,2,1,5,0,0
11266,-62.5,4,2,1,65,0,0
11423,-62.5,4,2,1,5,0,0
11501,-62.5,4,2,1,65,0,0
11657,-62.5,4,2,1,5,0,0
11735,-62.5,4,2,1,65,0,0
11813,-62.5,4,2,1,5,0,0
11891,-62.5,4,2,1,65,0,0
12048,-50,4,2,1,65,0,0
12516,-66.6666666666667,4,2,1,65,0,0
12985,-100,4,2,1,65,0,0
13454,-50,4,2,1,65,0,0
13766,-66.6666666666667,4,2,1,65,0,0
14235,-50,4,2,1,65,0,0
14391,-133.333333333333,4,2,1,65,0,0
14548,-41.6666666666667,4,2,1,65,0,0
15094,-50,4,2,1,65,0,0
15798,-66.6666666666667,4,2,1,65,0,0
16266,-76.9230769230769,4,2,1,65,0,0
16735,-66.6666666666667,4,2,1,65,0,0
17048,-50,4,2,1,65,0,0
17516,-55.5555555555556,4,2,1,65,0,0
19548,-38.4615384615385,4,2,1,65,0,0
19782,-38.4615384615385,4,2,1,5,0,0
19860,-50,4,2,1,65,0,0
20016,-50,4,2,1,5,0,0
20094,-50,4,2,1,65,0,0
20250,-50,4,2,1,5,0,0
20329,-50,4,2,1,65,0,0
20485,-50,4,2,1,5,0,0
20563,-50,4,2,1,65,0,0
21188,-50,4,2,1,5,0,0
21266,-50,4,2,1,65,0,0
21735,-66.6666666666667,4,2,1,65,0,0
21891,-66.6666666666667,4,2,1,5,0,0
21969,-66.6666666666667,4,2,1,65,0,0
22281,-66.6666666666667,4,2,1,5,0,0
22360,-50,4,2,1,65,0,0
23219,-50,4,2,1,5,0,0
23298,-50,4,2,1,65,0,0
23402,-50,4,2,1,5,0,0
23428,-50,4,2,1,65,0,0
23454,-66.6666666666667,4,2,1,65,0,0
23558,-66.6666666666667,4,2,1,5,0,0
23584,-66.6666666666667,4,2,1,65,0,0
24313,-66.6666666666667,4,2,1,5,0,0
24365,-66.6666666666667,4,2,1,65,0,0
24495,-66.6666666666667,4,2,1,5,0,0
24548,-50,4,2,1,65,0,0
25094,-50,4,2,1,5,0,0
25173,-50,4,2,1,65,0,0
25251,-50,4,2,1,5,0,0
25329,-50,4,2,1,65,0,0
25798,-50,4,2,1,65,0,0
25954,-66.6666666666667,4,2,1,65,0,0
26110,-133.333333333333,4,2,1,65,0,0
26423,-31.25,4,2,1,65,0,0
26852,-31.25,4,2,1,5,0,0
26891,-31.25,4,2,1,65,0,0
27048,-45.4545454545455,4,2,1,65,0,0
28298,-50,4,2,1,65,0,0
28454,-66.6666666666667,4,2,1,65,0,0
28610,-133.333333333333,4,2,1,65,0,0
28923,-45.4545454545455,4,2,1,65,0,0
29040,-45.4545454545455,4,2,1,5,0,0
29079,-45.4545454545455,4,2,1,65,0,0
29196,-45.4545454545455,4,2,1,5,0,0
29235,-45.4545454545455,4,2,1,65,0,0
29352,-45.4545454545455,4,2,1,5,0,0
29391,-45.4545454545455,4,2,1,65,0,0
29548,-41.6666666666667,4,2,1,65,0,0
30798,-50,4,2,1,65,0,0
30954,-66.6666666666667,4,2,1,65,0,0
31110,-133.333333333333,4,2,1,65,0,0
31423,-40,4,2,1,65,0,0
32048,-500,4,2,1,65,0,0
32282,-500,4,2,1,5,0,0
32360,-66.6666666666667,4,2,1,65,0,0
32751,-66.6666666666667,4,2,1,5,0,0
32829,-66.6666666666667,4,2,1,65,0,0
33454,-66.6666666666667,4,2,1,5,0,0
33532,-66.6666666666667,4,2,1,65,0,0
33688,-66.6666666666667,4,2,1,5,0,0
33766,-66.6666666666667,4,2,1,65,0,0
34548,-45.4545454545455,4,2,1,65,0,0
35329,-100,4,2,1,65,0,0
35798,-50,4,2,1,65,0,0
35954,-66.6666666666667,4,2,1,65,0,0
36110,-133.333333333333,4,2,1,65,0,0
36423,-41.6666666666667,4,2,1,65,0,0
36735,-45.4545454545455,4,2,1,65,0,0
37048,-50,4,2,1,65,0,0
38298,-45.4545454545455,4,2,1,65,0,0
38610,-133.333333333333,4,2,1,65,0,0
38766,-66.6666666666667,4,2,1,65,0,0
39079,-45.4545454545455,4,2,1,65,0,0
39548,-47.6190476190476,4,2,1,65,0,0
40485,-66.6666666666667,4,2,1,65,0,0
40798,-50,4,2,1,65,0,0
41423,-66.6666666666667,4,2,1,65,0,0
41891,-40,4,2,1,65,0,0
42360,-55.5555555555556,4,2,1,65,0,0
42516,-133.333333333333,4,2,1,65,0,0
43298,-100,4,2,1,65,0,0
43610,-133.333333333333,4,2,1,65,0,0
43844,-133.333333333333,4,2,1,60,0,0
43923,-133.333333333333,4,2,1,15,0,0
44001,-133.333333333333,4,2,1,20,0,0
44079,-133.333333333333,4,2,1,25,0,0
44157,-133.333333333333,4,2,1,30,0,0
44235,-133.333333333333,4,2,1,35,0,0
44313,-133.333333333333,4,2,1,40,0,0
44391,-133.333333333333,4,2,1,45,0,0
44469,-133.333333333333,4,2,1,50,0,0
63402,-133.333333333333,4,2,1,5,0,0
63454,-133.333333333333,4,2,1,50,0,0
63558,-133.333333333333,4,2,1,5,0,0
63584,-133.333333333333,4,2,1,50,0,0
64235,-66.6666666666667,4,2,1,50,0,0
64391,-66.6666666666667,4,2,1,75,0,0
64548,-100,4,2,1,75,0,0
72048,-66.6666666666667,4,2,1,75,0,0
74001,-50,4,2,1,75,0,0
76423,-100,4,2,1,75,0,0
78454,-50,4,2,1,75,0,0
81423,-66.6666666666667,4,2,1,75,0,0
82048,-133.333333333333,4,2,1,75,0,0
82282,-100,4,2,1,75,0,0
82516,-66.6666666666667,4,2,1,75,0,0
82751,-50,4,2,1,75,0,0
82985,-40,4,2,1,75,0,0
83298,-133.333333333333,4,2,1,75,0,0
84001,-50,4,2,1,75,0,0
84235,-100,4,2,1,75,0,0
84548,-66.6666666666667,4,2,1,75,0,0
85173,-100,4,2,1,75,0,0
85954,-66.6666666666667,4,2,1,75,0,0
86735,-66.6666666666667,4,2,1,75,0,0
87048,-33.3333333333333,4,2,1,90,0,0
87204,-100,4,2,1,90,0,0
87360,-66.6666666666667,4,2,1,90,0,0
88376,-66.6666666666667,4,2,1,5,0,0
88454,-66.6666666666667,4,2,1,90,0,0
89391,-50,4,2,1,90,0,0
90902,-50,4,2,1,5,0,0
90954,-50,4,2,1,90,0,0
91058,-50,4,2,1,5,0,0
91110,-50,4,2,1,90,0,0
91214,-50,4,2,1,5,0,0
91266,-50,4,2,1,90,0,0
91370,-50,4,2,1,5,0,0
91423,-66.6666666666667,4,2,1,90,0,0
92048,-100,4,2,1,90,0,0
92673,-250,4,2,1,90,0,0
93298,-100,4,2,1,90,0,0
93376,-100,4,2,1,5,0,0
93454,-100,4,2,1,90,0,0
94235,-50,4,2,1,90,0,0
95173,-100,4,2,1,90,0,0
97048,-40,4,2,1,90,0,0
97282,-40,4,2,1,5,0,0
97360,-133.333333333333,4,2,1,90,0,0
97438,-133.333333333333,4,2,1,5,0,0
97516,-133.333333333333,4,2,1,90,0,0
97751,-133.333333333333,4,2,1,5,0,0
97829,-133.333333333333,4,2,1,90,0,0
98141,-250,4,2,1,90,0,0
98532,-250,4,2,1,5,0,0
98610,-250,4,2,1,90,0,0
98766,-100,4,2,1,90,0,0
99157,-100,4,2,1,5,0,0
99235,-100,4,2,1,90,0,0
99548,-50,4,2,1,90,0,0
101579,-66.6666666666667,4,2,1,90,0,0
102048,-100,4,2,1,90,0,0
102673,-250,4,2,1,90,0,0
103298,-100,4,2,1,90,0,0
104391,-66.6666666666667,4,2,1,90,0,0
105719,-66.6666666666667,4,2,1,5,0,0
105798,-50,4,2,1,90,0,0
105902,-50,4,2,1,5,0,0
105928,-50,4,2,1,90,0,0
106058,-50,4,2,1,5,0,0
106084,-50,4,2,1,90,0,0
106423,-100,4,2,1,90,0,0
107048,-41.6666666666667,4,2,1,100,0,0
107204,-66.6666666666667,4,2,1,100,0,0
107673,-40,4,2,1,100,0,0
107829,-66.6666666666667,4,2,1,100,0,0
108766,-66.6666666666667,4,2,1,100,0,0
110485,-50,4,2,1,100,0,0
111423,-66.6666666666667,4,2,1,100,0,0
112048,-100,4,2,1,100,0,0
112673,-250,4,2,1,100,0,0
113298,-100,4,2,1,100,0,0
114235,-43.4782608695652,4,2,1,100,0,0
115173,-100,4,2,1,100,0,0
117048,-50,4,2,1,100,0,0
117360,-133.333333333333,4,2,1,100,0,0
119548,-66.6666666666667,4,2,1,100,0,0
119860,-43.4782608695652,4,2,1,100,0,0
120329,-50,4,2,1,100,0,0
120954,-41.6666666666667,4,2,1,100,0,0
121579,-50,4,2,1,100,0,0
122048,-100,4,2,1,100,0,0
122673,-250,4,2,1,100,0,0
123298,-100,4,2,1,100,0,0
123376,-100,4,2,1,5,0,0
123454,-100,4,2,1,100,0,0
123923,-66.6666666666667,4,2,1,100,0,0
124391,-83.3333333333333,4,2,1,100,0,0
124548,-66.6666666666667,4,2,1,90,0,0
124860,-66.6666666666667,4,2,1,80,0,0
125173,-66.6666666666667,4,2,1,70,0,0
125485,-66.6666666666667,4,2,1,60,0,0
125798,-66.6666666666667,4,2,1,50,0,0
126110,-66.6666666666667,4,2,1,40,0,0
126423,-66.6666666666667,4,2,1,30,0,0
126501,-100,4,2,1,30,0,0
126735,-66.6666666666667,4,2,1,20,0,0
127048,-66.6666666666667,4,2,1,70,0,0

[Colours]
Combo1 : 0,231,255
Combo2 : 207,207,207
Combo3 : 141,141,141
Combo4 : 254,228,163
Combo5 : 224,245,158
Combo6 : 255,171,19
Combo7 : 204,255,0
Combo8 : 255,0,156

[HitObjects]
26,70,2048,38,0,P|73:70|129:43,1,101.250003862381,4|0,3:2|0:0,0:0:0:0:
135,53,2204,2,0,P|125:88|120:120,1,67.5000025749208,0|0,1:0|0:0,0:0:0:0:
0,222,2360,2,0,B|57:209|45:181|79:174,1,87.749995983124,8|0,0:0|0:0,0:0:0:0:
77,183,2516,2,0,P|62:240|54:298,1,116.999994644165,0|0,3:0|0:0,0:0:0:0:
100,362,2751,1,8,0:0:0:0:
114,359,2829,2,0,B|164:339|161:301|214:282,1,101.250003862381
201,290,2985,2,0,L|268:302,1,67.5000025749208,8|0,0:0|0:0,0:0:0:0:
285,224,3141,2,0,L|218:212,1,67.5000025749208,8|0,0:0|0:0,0:0:0:0:
120,118,3298,5,0,3:0:0:0:
307,29,3454,102,0,P|261:17|236:57,1,101.250003862381,0|0,3:0|0:0,0:0:0:0:
246,72,3610,2,0,L|266:110,1,33.7500012874604,8|0,0:0|0:0,0:0:0:0:
292,226,3766,2,0,L|307:188,1,33.7500012874604,0|0,3:0|0:0,0:0:0:0:
385,1,3923,1,0,0:0:0:0:
385,1,4079,1,0,3:0:0:0:
504,52,4235,6,0,P|454:62|405:73,1,101.250003862381,8|0,0:0|0:0,0:0:0:0:
394,87,4391,2,0,B|393:115|415:119|415:119|407:107|402:89,1,67.5000025749208
477,277,4548,102,0,P|484:232|436:219,1,101.250003862381,0|0,3:0|0:0,0:0:0:0:
426,222,4704,2,0,P|414:236|406:261,2,33.7500012874604,0|0|0,1:0|0:0|0:0,0:0:0:0:
415,326,4860,1,8,0:0:0:0:
307,378,5016,5,0,3:0:0:0:
284,384,5094,2,0,B|226:363|248:325|174:308,1,135.000005149842,0|8,0:0|0:0,0:0:0:0:
102,319,5329,2,0,P|80:333|108:329,1,67.5000025749208,0|0,1:0|0:0,0:0:0:0:
284,291,5485,1,8,0:0:0:0:
284,291,5641,1,8,0:0:0:0:
99,37,5798,102,0,P|107:75|136:88,1,67.5,0|0,3:0|0:0,0:0:0:0:
145,85,5954,2,0,L|196:73,1,45,0|0,3:0|0:0,0:0:0:0:
216,6,6110,1,8,0:0:0:0:
196,82,6266,2,0,L|182:173,1,90,0|0,3:0|0:0,0:0:0:0:
102,319,6579,1,4,3:0:0:0:
191,171,6735,2,0,L|268:152,1,67.5,8|0,0:0|0:0,0:0:0:0:
269,156,6891,2,0,P|286:172|290:193,1,45,0|0,1:0|0:0,0:0:0:0:
272,384,7048,6,0,B|247:299|336:231|403:261|403:261|417:309,1,270,0|0,3:0|0:0,0:0:0:0:
372,370,7360,1,8,0:0:0:0:
415,301,7516,1,0,3:0:0:0:
429,294,7594,2,0,L|406:205,1,90
490,96,7751,1,8,0:0:0:0:
506,103,7829,2,0,P|505:143|456:161,1,90,0|0,1:0|0:0,0:0:0:0:
243,69,7985,2,0,P|304:50|342:104,1,135,8|0,0:0|0:0,0:0:0:0:
341,119,8141,2,0,P|311:151|268:155,1,90,8|0,0:0|0:0,0:0:0:0:
198,131,8298,1,0,3:0:0:0:
7,231,8454,102,0,L|109:218,1,101.250003862381,0|0,3:0|0:0,0:0:0:0:
127,216,8610,2,0,P|157:246|158:275,1,67.5000025749208,8|0,0:0|0:0,0:0:0:0:
82,383,8766,2,0,P|92:348|123:325,1,67.5000025749208,0|0,3:0|0:0,0:0:0:0:
190,341,8923,1,0,0:0:0:0:
234,277,9079,1,0,3:0:0:0:
196,347,9235,5,8,0:0:0:0:
168,64,9391,1,0,1:0:0:0:
70,91,9548,70,0,B|47:49|47:49|284:114|284:114|257:78,1,337.5,0|0,3:0|0:0,0:0:0:0:
412,0,9860,54,0,P|387:67|370:137,1,144,8|0,1:0|0:0,0:0:0:0:
455,161,10094,2,0,P|479:93|496:23,1,144,8|0,1:0|0:0,0:0:0:0:
370,147,10329,2,0,P|369:164|371:182,4,36,8|0|0|0|0,1:0|0:0|0:0|0:0|0:0,0:0:0:0:
490,252,10563,6,0,P|417:259|353:289,1,144,8|0,1:0|0:0,0:0:0:0:
376,362,10798,2,0,P|449:355|512:324,1,144,8|0,1:0|0:0,0:0:0:0:
344,291,11032,102,0,P|328:301|313:318,4,36,8|0|0|0|0,1:0|0:0|0:0|0:0|0:0,0:0:0:0:
247,280,11266,2,0,P|228:283|208:293,4,36,8|0|0|0|0,1:0|0:0|0:0|0:0|0:0,0:0:0:0:
168,230,11501,2,0,P|150:222|128:220,4,36,8|0|0|0|0,1:0|0:0|0:0|0:0|0:0,0:0:0:0:
239,200,11735,6,0,P|240:127|265:56,1,144,8|8,1:0|1:0,0:0:0:0:
501,0,12048,70,0,B|414:20|444:58|390:71,1,135,4|0,3:2|0:0,0:0:0:0:
377,69,12204,2,0,B|323:41|325:31|377:70,1,90,0|0,1:0|0:0,0:0:0:0:
491,217,12360,2,0,P|510:161|449:131,1,135,8|0,0:0|0:0,0:0:0:0:
441,136,12516,2,0,P|422:189|488:192,1,135.000005149842,0|0,3:0|0:0,0:0:0:0:
511,324,12751,1,8,0:0:0:0:
501,317,12829,2,0,P|455:296|395:286,1,101.250003862381,0|0,1:0|0:0,0:0:0:0:
393,285,12985,2,0,P|366:284|340:288,1,45,8|0,0:0|0:0,0:0:0:0:
230,321,13141,2,0,P|240:301|246:279,1,45,8|0,0:0|0:0,0:0:0:0:
262,60,13298,1,0,3:0:0:0:
90,0,13454,6,0,B|66:25|61:49|79:79|79:79|127:63,1,135,0|0,3:0|0:0,0:0:0:0:
139,61,13610,2,0,B|187:43|187:43|170:59|169:77,1,90,8|0,0:0|0:0,0:0:0:0:
84,203,13766,2,0,P|55:174|53:142,1,67.5000025749208,0|0,3:0|0:0,0:0:0:0:
153,156,13923,101,0,1:0:0:0:
153,156,14079,1,0,3:0:0:0:
0,299,14235,6,0,B|4:321|30:324|43:311|46:298|46:298|50:280|70:268|89:280|94:301,1,135,8|0,0:0|0:0,0:0:0:0:
96,316,14391,2,0,L|80:357,1,33.7500012874604,0|0,1:0|0:0,0:0:0:0:
300,373,14548,102,0,B|306:358|309:331|273:318|254:337|254:337|237:351|207:343|197:321|222:303|229:320,1,161.999995056153,0|0,3:0|0:0,0:0:0:0:
230,321,14704,2,0,P|245:307|225:312,2,53.9999983520508,0|0|0,1:0|0:0|0:0,0:0:0:0:
348,287,14860,1,8,0:0:0:0:
413,65,15016,5,0,3:0:0:0:
429,69,15094,2,0,B|474:149|370:162|415:242,1,180,0|8,0:0|0:0,0:0:0:0:
478,202,15329,2,0,B|513:204|513:204|518:216|508:224|508:224|481:204,1,90,0|0,1:0|0:0,0:0:0:0:
227,133,15485,1,8,0:0:0:0:
227,133,15641,1,8,0:0:0:0:
230,321,15798,102,0,P|243:275|200:239,1,101.250003862381,0|0,3:0|0:0,0:0:0:0:
197,239,15954,2,0,P|166:251|149:283,1,67.5000025749208,0|0,3:0|0:0,0:0:0:0:
158,357,16110,1,8,0:0:0:0:
141,281,16266,2,0,P|132:223|110:169,1,116.999994644165,0|0,3:0|0:0,0:0:0:0:
256,0,16579,1,0,3:0:0:0:
237,146,16735,6,0,P|261:116|214:78,1,101.250003862381,8|0,0:0|0:0,0:0:0:0:
213,79,16891,2,0,P|192:104|226:120,1,67.5000025749208,0|0,1:0|0:0,0:0:0:0:
421,72,17048,102,0,B|463:61|480:10|445:-36|380:-48|332:3|320:71|404:89|413:61,1,270,0|0,3:0|0:0,0:0:0:0:
434,150,17360,1,8,0:0:0:0:
481,283,17516,5,0,3:0:0:0:
479,267,17594,2,0,P|449:239|411:228,1,80.9999975280763
360,290,17751,1,8,0:0:0:0:
345,284,17829,2,0,P|310:302|289:336,1,80.9999975280763,0|0,1:0|0:0,0:0:0:0:
131,364,17985,102,0,P|181:348|182:286,1,121.499996292114,8|0,0:0|0:0,0:0:0:0:
173,276,18141,2,0,P|131:272|95:298,1,80.9999975280763,8|0,0:0|0:0,0:0:0:0:
53,351,18298,1,0,3:0:0:0:
93,288,18454,6,0,B|102:233|46:239|58:177,1,121.499996292114,0|0,3:0|0:0,0:0:0:0:
61,163,18610,2,0,P|86:130|125:126,1,80.9999975280763,8|0,0:0|0:0,0:0:0:0:
289,7,18766,2,0,P|264:40|224:43,1,80.9999975280763,0|0,3:0|0:0,0:0:0:0:
152,55,18923,101,0,1:0:0:0:
224,37,19079,1,0,3:0:0:0:
146,54,19235,1,8,0:0:0:0:
394,43,19391,1,0,1:0:0:0:
508,34,19548,86,0,B|397:15|397:15|439:102|439:102|444:97|444:97|486:175|486:175|442:162,1,350.999983932496,0|0,3:0|0:0,0:0:0:0:
392,221,19860,54,0,L|213:248,1,180,8|0,1:0|0:0,0:0:0:0:
229,327,20094,2,0,L|408:300,1,180,8|0,1:0|0:0,0:0:0:0:
208,249,20329,2,0,L|154:258,4,45,8|0|0|0|0,1:0|0:0|0:0|0:0|0:0,0:0:0:0:
236,329,20563,6,0,L|263:145,1,180,8|8,1:0|0:0,0:0:0:0:
183,174,20798,2,0,L|156:358,1,180,8|0,1:0|3:0,0:0:0:0:
156,366,21032,2,0,L|102:375,4,45,8|0|0|0|0,1:0|0:0|0:0|0:0|0:0,0:0:0:0:
57,317,21266,2,0,L|10:296,4,45,8|0|0|0|0,1:0|0:0|0:0|0:0|3:0,0:0:0:0:
29,227,21501,2,0,L|3:182,4,45,8|0|0|0|8,1:0|0:0|0:0|0:0|0:0,0:0:0:0:
63,143,21735,2,0,L|47:4,1,135.000005149842,8|0,1:0|0:0,0:0:0:0:
479,257,22360,22,0,B|463:293|497:336|497:336|414:292|372:361|372:361|334:321|460:276|440:241|374:246|288:205|363:211|234:110|447:-109|611:214|446:271|385:268|260:256|198:176|198:176|318:163|314:62|269:3|194:0|166:67|207:92,1,1170,4|0,3:2|0:0,0:0:0:0:
208,92,23454,2,0,P|288:71|311:59,1,101.250003862381
316,54,23610,2,0,P|334:39|351:23,6,33.7500012874604,8|0|8|0|8|0|8,0:0|0:0|0:0|0:0|0:0|0:0|0:0,0:0:0:0:
208,93,23923,2,0,P|168:92|141:86,3,67.5000025749208,2|2|2|2,0:0|0:0|0:0|0:0,0:0:0:0:
47,8,24235,2,0,L|63:143,1,135.000005149842
92,368,24548,38,0,P|35:347|59:292,1,135,4|0,3:2|0:0,0:0:0:0:
60,293,24704,2,0,P|103:287|132:254,1,90
68,219,24860,1,8,0:0:0:0:
207,262,25016,2,0,P|250:249|294:241,1,90,0|0,3:0|0:0,0:0:0:0:
512,351,25173,6,0,P|443:370|426:318,1,135,0|0,3:0|0:0,0:0:0:0:
431,309,25329,2,0,B|440:276|490:299|501:248,1,90,0|0,3:0|0:0,0:0:0:0:
435,210,25485,101,8,0:0:0:0:
431,212,25563,1,0,0:0:0:0:
433,216,25641,1,0,3:0:0:0:
438,214,25719,1,0,0:0:0:0:
382,184,25798,22,0,L|471:171,1,90,0|0,3:0|0:0,0:0:0:0:
449,98,25954,6,0,L|381:107,1,67.5000025749208,0|0,3:0|0:0,0:0:0:0:
391,32,26110,102,0,L|424:27,1,33.7500012874604,8|0,0:0|0:0,0:0:0:0:
382,107,26266,2,0,L|348:111,1,33.7500012874604,0|0,3:0|0:0,0:0:0:0:
79,308,26423,6,0,P|61:352|82:309,1,144,2|2,3:1|0:0,0:0:0:0:
113,183,26579,70,0,P|90:141|109:184,1,144,2|0,3:1|0:0,0:0:0:0:
199,281,26735,6,0,P|238:307|201:277,1,144,10|0,3:1|0:0,0:0:0:0:
132,254,26891,1,2,3:1:0:0:
498,256,27048,102,0,P|466:195|401:215,1,148.50000453186,4|0,3:2|0:0,0:0:0:0:
396,226,27204,2,0,B|405:279|431:262|436:314,1,99.0000030212403
417,384,27360,1,8,0:0:0:0:
199,281,27516,22,0,P|247:270|296:266,1,99.0000030212403
396,226,27673,5,0,3:0:0:0:
344,211,27751,1,0,0:0:0:0:
312,169,27829,1,0,3:0:0:0:
314,122,27907,1,0,0:0:0:0:
341,91,27985,1,8,0:0:0:0:
383,81,28063,1,0,0:0:0:0:
397,63,28141,1,0,0:0:0:0:
394,53,28219,1,0,0:0:0:0:
389,42,28298,102,0,L|409:129,1,90,0|0,3:0|0:0,0:0:0:0:
483,109,28454,6,0,L|467:44,1,67.5000025749208,0|0,3:0|0:0,0:0:0:0:
322,92,28610,70,0,L|330:125,1,33.7500012874604,8|0,0:0|0:0,0:0:0:0:
389,42,28766,6,0,L|381:9,1,33.7500012874604,0|0,3:0|0:0,0:0:0:0:
170,106,28923,102,0,L|193:5,1,99.0000030212403,2|0,3:1|0:0,0:0:0:0:
199,189,29079,2,0,B|211:163|173:95|105:138|103:165,1,148.50000453186,2|0,3:1|0:0,0:0:0:0:
137,229,29235,2,0,B|124:279|124:279|135:231,1,99.0000030212403,10|0,3:1|0:0,0:0:0:0:
278,288,29391,1,2,3:1:0:0:
249,327,29469,1,0,0:0:0:0:
284,356,29548,22,0,L|178:330,1,107.999996704102,4|0,3:2|0:0,0:0:0:0:
30,259,29704,6,0,L|136:233,1,107.999996704102
409,129,29860,102,0,P|338:134|356:203,1,161.999995056153,8|0,0:0|0:0,0:0:0:0:
370,205,30016,2,0,P|405:175|379:125,1,107.999996704102,0|0,3:0|0:0,0:0:0:0:
187,12,30173,5,0,0:0:0:0:
194,23,30251,1,0,0:0:0:0:
214,33,30329,1,0,3:0:0:0:
244,33,30407,1,0,0:0:0:0:
266,3,30485,69,8,0:0:0:0:
317,11,30563,1,0,0:0:0:0:
328,36,30641,1,0,3:0:0:0:
318,57,30719,1,0,0:0:0:0:
303,63,30798,6,0,L|212:42,1,90
211,119,30954,102,0,L|276:134,1,67.5000025749208
244,202,31110,6,0,L|211:194,1,33.7500012874604,8|0,0:0|0:0,0:0:0:0:
276,134,31266,6,0,L|308:141,1,33.7500012874604
331,368,31423,6,0,B|323:315|323:315|290:300|286:266,1,112.5,2|0,3:1|0:0,0:0:0:0:
370,205,31579,2,0,B|399:213|399:213|399:258|399:258|351:241,1,112.5,2|0,3:1|0:0,0:0:0:0:
244,202,31735,2,0,L|71:238,1,168.75,10|0,3:1|0:0,0:0:0:0:
69,237,31891,102,0,B|44:185|108:177|85:124,1,112.5,2|0,3:1|0:0,0:0:0:0:
18,93,32048,2,0,P|8:96|19:98,1,27,8|0,0:0|0:0,0:0:0:0:
87,132,32360,6,0,L|222:103,1,135.000005149842,8|0,1:0|3:0,0:0:0:0:
215,26,32594,2,0,L|79:54,1,135.000005149842,8|0,1:0|0:0,0:0:0:0:
229,102,32829,2,0,L|270:92,4,33.7500012874604,8|0|0|0|0,1:0|0:0|0:0|0:0|3:0,0:0:0:0:
369,0,33063,102,0,L|329:129,1,135.000005149842,8|8,1:0|0:0,0:0:0:0:
407,152,33298,2,0,L|446:22,1,135.000005149842,8|0,1:0|0:0,0:0:0:0:
325,143,33532,2,0,L|312:180,4,33.7500012874604,8|0|0|0|0,1:0|0:0|0:0|0:0|0:0,0:0:0:0:
375,226,33766,2,0,L|349:247,4,33.7500012874604,8|0|0|0|0,1:0|0:0|0:0|0:0|3:0,0:0:0:0:
349,325,34001,2,0,L|314:329,4,33.7500012874604,8|0|0|0|8,1:0|0:0|0:0|0:0|0:0,0:0:0:0:
253,377,34235,6,0,P|193:345|128:326,1,135.000005149842,8|8,1:0|1:0,0:0:0:0:
0,71,34548,70,0,P|28:10|89:37,1,148.50000453186,4|0,3:2|0:0,0:0:0:0:
87,52,34704,2,0,B|95:96|51:96|65:149,1,99.0000030212403
76,220,34860,1,8,0:0:0:0:
139,134,35016,2,0,P|185:118|234:108,1,99.0000030212403
493,59,35173,6,0,P|488:-7|422:0,1,148.50000453186,0|0,3:0|0:0,0:0:0:0:
416,8,35329,2,0,P|408:29|410:51,1,45,0|0,3:0|0:0,0:0:0:0:
445,121,35485,1,8,0:0:0:0:
448,126,35563,1,0,0:0:0:0:
443,130,35641,1,0,0:0:0:0:
439,126,35719,1,0,0:0:0:0:
480,174,35798,102,0,L|391:157,1,90,0|0,3:0|0:0,0:0:0:0:
391,232,35954,22,0,L|456:244,1,67.5000025749208,0|0,3:0|0:0,0:0:0:0:
430,314,36110,6,0,L|397:307,1,33.7500012874604,8|0,0:0|0:0,0:0:0:0:
457,244,36266,102,0,L|489:250,1,33.7500012874604
340,355,36423,6,0,B|253:336|313:272|218:252,1,161.999995056153,2|0,3:1|0:0,0:0:0:0:
217,262,36579,2,0,B|202:283|217:319|217:319|219:292|241:268,1,107.999996704102,2|0,3:1|0:0,0:0:0:0:
296,64,36735,2,0,P|280:107|233:108,1,99.0000030212403,10|0,3:1|0:0,0:0:0:0:
6,11,36891,69,2,3:1:0:0:
41,46,36969,1,0,0:0:0:0:
86,30,37048,6,0,B|147:-2|200:40|200:40|169:55|164:83,1,180,4|0,3:2|0:0,0:0:0:0:
96,118,37282,101,0,0:0:0:0:
87,127,37360,2,0,B|78:170|115:168|109:221,1,90,8|0,0:0|0:0,0:0:0:0:
24,340,37516,2,0,P|-9:312|2:268,1,90
77,286,37673,21,0,3:0:0:0:
71,283,37751,1,0,0:0:0:0:
73,278,37829,1,0,3:0:0:0:
80,280,37907,1,0,0:0:0:0:
109,211,37985,5,8,0:0:0:0:
145,230,38063,1,0,0:0:0:0:
160,257,38141,1,0,0:0:0:0:
160,274,38219,1,0,0:0:0:0:
157,286,38298,102,0,L|186:178,1,99.0000030212403,0|0,3:0|0:0,0:0:0:0:
236,61,38454,2,0,B|205:52|205:52|250:161,1,148.50000453186,0|0,3:0|0:0,0:0:0:0:
253,169,38610,2,0,L|267:205,1,33.7500012874604,8|0,0:0|0:0,0:0:0:0:
345,330,38766,6,0,P|346:291|283:284,1,101.250003862381
285,282,38923,2,0,P|293:312|329:310,1,67.5000025749208,2|0,3:1|0:0,0:0:0:0:
512,157,39079,70,0,P|464:155|422:195,1,99.0000030212403,2|0,3:1|0:0,0:0:0:0:
488,226,39235,2,0,B|505:132|493:225|512:119,2,99.0000030212403,10|0|2,3:1|0:0|3:1,0:0:0:0:
474,63,39548,6,0,P|408:66|424:-2,1,141.749995674133,4|0,3:2|0:0,0:0:0:0:
411,6,39704,2,0,P|369:29|324:40,1,94.499997116089
249,159,39860,2,0,P|290:135|335:124,1,94.499997116089,8|0,0:0|0:0,0:0:0:0:
285,282,40016,2,0,P|243:258|198:247,1,94.499997116089
118,323,40173,101,0,3:0:0:0:
62,323,40251,1,0,0:0:0:0:
26,283,40329,1,0,3:0:0:0:
31,230,40407,1,0,0:0:0:0:
39,223,40485,22,0,P|26:188|26:149,1,67.5000025749208,8|0,0:0|0:0,0:0:0:0:
115,138,40641,2,0,P|128:173|128:212,1,67.5000025749208
62,323,40798,2,0,P|30:286|81:318,1,180,0|0,3:0|3:0,0:0:0:0:
197,246,41110,6,0,P|261:268|318:304,1,135,8|0,0:0|0:0,0:0:0:0:
331,312,41266,2,0,P|374:309|400:272,1,90
456,223,41423,102,0,P|428:177|381:176,1,101.250003862381,2|0,3:1|0:0,0:0:0:0:
384,175,41579,6,0,L|464:188,1,67.5000025749208,2|0,3:1|0:0,0:0:0:0:
333,42,41735,2,0,B|323:72|353:70|345:108,1,67.5000025749208,10|0,3:1|0:0,0:0:0:0:
512,26,41891,2,0,L|396:6,1,112.5,2|0,3:1|0:0,0:0:0:0:
171,115,42048,70,0,P|221:82|210:35,1,112.5,4|0,3:2|0:0,0:0:0:0:
48,8,42204,2,0,P|74:43|141:46,1,112.5
0,77,42360,6,0,P|20:134|35:193,1,121.499996292114,8|0,0:0|0:0,0:0:0:0:
36,203,42516,2,0,P|38:224|39:244,1,33.7500012874604
72,308,42673,102,0,P|66:327|56:349,3,33.7500012874604,0|0|0|0,3:0|0:0|3:0|0:0,0:0:0:0:
146,324,42985,21,8,0:0:0:0:
194,325,43063,1,0,0:0:0:0:
222,292,43141,1,0,0:0:0:0:
214,246,43219,1,0,0:0:0:0:
217,239,43298,6,0,L|227:287,1,45,0|0,3:0|0:0,0:0:0:0:
271,147,43454,2,0,L|281:195,1,45,0|0,3:0|0:0,0:0:0:0:
138,47,43610,2,0,L|158:145,1,101.250003862381,8|0,0:0|3:0,0:0:0:0:
256,192,43923,12,4,44469,0:0:0:0:
60,137,44548,38,0,L|71:185,2,45.0000017166138,4|2|2,3:1|0:0|0:0,0:0:0:0:
135,117,44860,2,0,L|178:106,2,45.0000017166138,2|2|2,0:0|0:0|0:0,0:0:0:0:
117,43,45173,2,0,L|106:0,2,45.0000017166138,2|2|2,0:0|0:0|0:0,0:0:0:0:
43,63,45485,2,0,L|0:73,2,45.0000017166138,2|2|2,0:0|0:0|0:0,0:0:0:0:
60,137,45798,5,2,0:0:0:0:
90,179,45902,1,0,0:0:0:0:
77,232,46006,1,0,0:0:0:0:
19,310,46110,101,2,0:0:0:0:
61,280,46214,1,0,0:0:0:0:
114,293,46318,1,0,0:0:0:0:
189,349,46423,5,2,0:0:0:0:
164,302,46527,1,0,0:0:0:0:
178,252,46631,1,0,0:0:0:0:
236,179,46735,101,2,0:0:0:0:
192,205,46839,1,0,0:0:0:0:
141,190,46943,1,0,0:0:0:0:
181,128,47048,5,4,3:0:0:0:
390,12,47464,101,2,0:0:0:0:
386,30,47568,1,2,0:0:0:0:
380,48,47673,6,0,L|369:91,2,45.0000017166138,2|2|2,0:0|0:0|0:0,0:0:0:0:
444,116,47985,2,0,L|455:159,2,45.0000017166138,2|2|2,0:0|0:0|0:0,0:0:0:0:
386,188,48298,101,2,0:0:0:0:
417,228,48402,1,0,0:0:0:0:
466,233,48506,1,0,0:0:0:0:
475,274,48610,5,2,0:0:0:0:
435,305,48714,1,0,0:0:0:0:
430,354,48818,1,0,0:0:0:0:
389,361,48923,101,2,0:0:0:0:
358,321,49027,1,0,0:0:0:0:
309,316,49131,1,0,0:0:0:0:
298,277,49235,5,2,0:0:0:0:
338,246,49339,1,0,0:0:0:0:
343,197,49443,1,0,0:0:0:0:
269,206,49548,101,4,3:0:0:0:
117,43,49964,5,0,0:0:0:0:
131,46,50068,1,0,0:0:0:0:
151,52,50173,102,0,L|194:62,2,45.0000017166138
266,84,50485,2,0,L|256:127,2,45.0000017166138,2|0|0,0:0|0:0|0:0,0:0:0:0:
178,114,50798,5,0,3:0:0:0:
185,160,50902,1,0,0:0:0:0:
154,187,51006,1,0,0:0:0:0:
115,204,51110,101,2,0:0:0:0:
69,212,51214,1,0,0:0:0:0:
42,180,51318,1,0,0:0:0:0:
22,142,51423,5,2,0:0:0:0:
14,95,51527,1,0,0:0:0:0:
46,68,51631,1,0,0:0:0:0:
85,53,51735,101,2,0:0:0:0:
131,46,51839,1,0,0:0:0:0:
158,77,51943,1,0,0:0:0:0:
101,130,52048,5,4,3:0:0:0:
468,68,52464,101,0,0:0:0:0:
461,55,52568,1,0,0:0:0:0:
453,36,52673,6,0,L|410:46,2,45.0000017166138,0|0|0,3:0|0:0|0:0,0:0:0:0:
334,63,52985,2,0,L|344:106,2,45.0000017166138,2|2|2,0:0|0:0|0:0,0:0:0:0:
341,225,53298,101,2,0:0:0:0:
383,216,53402,1,0,0:0:0:0:
424,206,53506,1,0,0:0:0:0:
494,189,53610,5,2,0:0:0:0:
485,146,53714,1,0,0:0:0:0:
475,105,53818,1,0,0:0:0:0:
453,36,53923,101,2,0:0:0:0:
410,45,54027,1,0,0:0:0:0:
369,55,54131,1,0,0:0:0:0:
299,74,54235,5,2,0:0:0:0:
308,117,54339,1,0,0:0:0:0:
318,158,54443,1,0,0:0:0:0:
397,131,54548,101,4,3:2:0:0:
422,384,54964,5,2,0:0:0:0:
412,373,55068,1,2,0:0:0:0:
397,361,55173,2,0,L|407:318,2,45.0000017166138,2|2|2,0:0|0:0|0:0,0:0:0:0:
338,288,55485,2,0,L|328:245,2,45.0000017166138,2|2|2,0:0|0:0|0:0,0:0:0:0:
255,232,55798,101,2,0:0:0:0:
215,270,55902,1,0,0:0:0:0:
164,257,56006,1,0,0:0:0:0:
102,308,56110,5,2,0:0:0:0:
74,279,56214,1,0,0:0:0:0:
84,242,56318,1,0,0:0:0:0:
43,178,56423,101,2,0:0:0:0:
63,158,56527,1,0,0:0:0:0:
89,165,56631,1,0,0:0:0:0:
155,136,56735,5,2,0:0:0:0:
166,147,56839,1,0,0:0:0:0:
162,161,56943,1,0,0:0:0:0:
239,154,57048,101,2,0:0:0:0:
512,0,57464,5,2,0:0:0:0:
494,8,57568,1,2,0:0:0:0:
472,23,57673,2,0,L|462:66,2,45.0000017166138,2|2|2,0:0|0:0|0:0,0:0:0:0:
439,138,57985,2,0,L|396:128,2,45.0000017166138,2|2|2,0:0|0:0|0:0,0:0:0:0:
394,5,58298,101,2,0:0:0:0:
337,19,58402,1,0,0:0:0:0:
280,35,58506,1,0,0:0:0:0:
297,118,58610,5,2,0:0:0:0:
253,105,58714,1,0,0:0:0:0:
210,95,58818,1,0,0:0:0:0:
205,21,58923,101,2,0:0:0:0:
172,28,59027,1,0,0:0:0:0:
140,38,59131,1,0,0:0:0:0:
134,113,59235,5,2,0:0:0:0:
114,107,59339,1,0,0:0:0:0:
95,102,59443,1,0,0:0:0:0:
63,35,59548,101,4,3:0:0:0:
456,378,59964,5,0,0:0:0:0:
474,376,60068,1,0,0:0:0:0:
498,374,60173,2,0,L|508:331,2,45.0000017166138
455,279,60485,2,0,L|445:236,2,45.0000017166138,0|0|0,3:0|0:0|0:0,0:0:0:0:
320,338,60798,101,0,3:0:0:0:
364,315,60902,1,0,0:0:0:0:
356,264,61006,1,0,0:0:0:0:
222,245,61110,5,2,0:0:0:0:
239,278,61214,1,0,0:0:0:0:
279,272,61318,1,0,0:0:0:0:
299,158,61423,101,2,0:0:0:0:
275,170,61527,1,0,0:0:0:0:
279,198,61631,1,0,0:0:0:0:
390,198,61735,5,2,0:0:0:0:
384,185,61839,1,0,0:0:0:0:
369,188,61943,1,0,0:0:0:0:
364,114,62048,1,4,3:0:0:0:
131,0,62464,101,0,0:0:0:0:
141,12,62568,1,0,0:0:0:0:
157,29,62673,2,0,L|147:72,2,45.0000017166138,0|0|0,3:0|0:0|0:0,0:0:0:0:
125,143,62985,2,0,L|82:133,2,45.0000017166138
74,57,63298,101,0,3:0:0:0:
22,186,63454,102,0,L|36:242,1,50.6250019311906,2|0,1:0|0:0,0:0:0:0:
34,245,63610,2,0,L|31:269,6,16.8750006437302,8|0|8|0|8|0|8,0:0|0:0|0:0|0:0|0:0|0:0|0:0,0:0:0:0:
108,297,63923,2,0,L|117:254,3,33.7500012874604,2|2|2|2,0:0|0:0|0:0|0:0,0:0:0:0:
46,336,64235,6,0,L|197:316,1,135.000005149842,2|4,1:0|1:0,0:0:0:0:
255,372,64548,1,6,1:0:0:0:
258,367,64626,38,0,L|302:361,3,45,2|2|2|8,0:0|0:0|0:0|0:0,0:0:0:0:
407,320,65016,1,6,1:0:0:0:
404,315,65094,22,0,L|360:309,3,45,0|0|0|8,0:0|0:0|0:0|0:0,0:0:0:0:
248,272,65485,1,6,1:0:0:0:
251,267,65563,86,0,L|295:261,3,45,2|2|2|8,0:0|0:0|0:0|0:0,0:0:0:0:
400,220,65953,1,6,1:0:0:0:
397,215,66031,22,0,L|353:209,3,45,2|2|2|8,0:0|0:0|0:0|0:0,0:0:0:0:
292,166,66423,1,6,1:0:0:0:
291,154,66501,85,2,0:0:0:0:
305,151,66579,1,2,0:0:0:0:
395,130,66735,1,8,0:0:0:0:
395,130,66891,1,2,0:0:0:0:
171,0,67048,21,6,1:0:0:0:
166,3,67126,2,0,L|160:47,3,45,2|2|2|8,0:0|0:0|0:0|0:0,0:0:0:0:
77,76,67516,85,6,1:0:0:0:
82,79,67594,2,0,L|88:123,3,45,2|2|2|8,0:0|0:0|0:0|0:0,0:0:0:0:
186,136,67985,21,6,1:0:0:0:
181,139,68063,2,0,L|175:183,3,45,2|2|2|8,0:0|0:0|0:0|0:0,0:0:0:0:
92,212,68453,85,6,1:0:0:0:
97,215,68531,2,0,L|103:259,4,45,2|2|2|10|2,0:0|0:0|0:0|0:0|0:0,0:0:0:0:
15,272,68923,2,0,L|9:228,2,45,6|2|2,1:0|0:0|0:0,0:0:0:0:
102,274,69235,21,8,0:0:0:0:
152,346,69391,1,2,0:0:0:0:
295,283,69548,85,6,1:0:0:0:
292,278,69626,2,0,L|248:272,3,45,2|2|2|8,0:0|0:0|0:0|0:0,0:0:0:0:
171,188,70016,21,6,1:0:0:0:
174,183,70094,2,0,L|218:177,3,45,2|2|2|8,0:0|0:0|0:0|0:0,0:0:0:0:
346,117,70485,85,6,1:0:0:0:
343,112,70563,2,0,L|299:106,3,45,2|2|2|8,0:0|0:0|0:0|0:0,0:0:0:0:
222,22,70953,21,6,1:0:0:0:
225,17,71031,2,0,L|269:11,3,45,2|2|2|8,0:0|0:0|0:0|0:0,0:0:0:0:
78,76,71423,85,6,1:0:0:0:
164,92,71579,1,2,0:0:0:0:
269,10,71735,21,8,0:0:0:0:
355,26,71891,1,2,0:0:0:0:
417,308,72048,86,0,P|342:284|349:207,1,168.750006437302,6|0,1:0|0:0,0:0:0:0:
446,238,72282,22,0,P|438:315|361:324,1,168.750006437302,6|0,1:0|0:0,0:0:0:0:
371,247,72516,86,0,P|442:216|487:281,1,168.750006437302,6|0,1:0|0:0,0:0:0:0:
416,309,72751,2,0,P|337:277|254:270,1,168.750006437302,6|0,1:0|0:0,0:0:0:0:
247,271,72985,2,0,P|214:279|184:294,2,67.5000025749208,6|2|2,1:0|0:0|0:0,0:0:0:0:
65,163,73298,22,0,B|67:198|67:198|26:216|26:216|16:169|16:169|51:150,1,168.750006437302,6|0,1:0|0:0,0:0:0:0:
60,79,73532,86,0,B|29:60|29:60|38:16|38:16|83:35|83:35|77:75,1,168.750006437302,6|0,1:0|0:0,0:0:0:0:
138,118,73766,22,0,B|169:111|169:111|186:146|186:146|152:155|152:155|135:132,1,135.000005149842,6|6,1:0|1:0,0:0:0:0:
259,11,74001,2,0,B|237:82|237:82|250:107,1,90,2|2,0:0|0:0,0:0:0:0:
370,63,74235,85,8,0:0:0:0:
313,117,74391,1,2,0:0:0:0:
441,139,74548,5,6,1:0:0:0:
432,140,74626,1,2,0:0:0:0:
425,148,74704,1,8,0:0:0:0:
423,161,74782,1,2,0:0:0:0:
430,182,74860,1,8,0:0:0:0:
494,255,75016,21,6,1:0:0:0:
503,253,75094,1,2,0:0:0:0:
509,245,75172,1,8,0:0:0:0:
512,232,75250,1,2,0:0:0:0:
505,211,75328,1,8,0:0:0:0:
384,246,75485,85,6,1:0:0:0:
368,255,75563,1,2,0:0:0:0:
356,269,75641,1,8,0:0:0:0:
350,286,75719,1,2,0:0:0:0:
354,313,75798,1,8,0:0:0:0:
220,384,75954,21,6,1:0:0:0:
236,375,76032,1,2,0:0:0:0:
248,361,76110,1,8,0:0:0:0:
254,344,76188,1,2,0:0:0:0:
250,317,76267,1,8,0:0:0:0:
128,312,76423,86,0,P|154:307|178:298,3,45,6|2|8|0,1:0|0:0|0:0|0:0,0:0:0:0:
81,372,76735,21,8,0:0:0:0:
4,143,76891,1,2,0:0:0:0:
16,156,77048,85,6,1:0:0:0:
31,153,77126,1,2,0:0:0:0:
46,144,77204,1,8,0:0:0:0:
60,132,77282,1,2,0:0:0:0:
68,106,77360,1,8,0:0:0:0:
201,0,77516,21,6,1:0:0:0:
185,1,77594,1,2,0:0:0:0:
170,10,77672,1,8,0:0:0:0:
156,23,77750,1,2,0:0:0:0:
148,49,77828,1,8,0:0:0:0:
201,128,77985,85,6,1:0:0:0:
228,135,78063,1,2,0:0:0:0:
249,154,78141,1,8,0:0:0:0:
259,182,78219,1,2,0:0:0:0:
250,224,78298,1,8,0:0:0:0:
230,224,78454,22,0,P|220:162|244:219,1,180,10|8,1:0|0:0,0:0:0:0:
309,124,78688,86,0,P|331:66|323:127,1,180,6|8,1:0|0:0,0:0:0:0:
429,96,78923,22,0,P|447:96|435:111,4,45,6|0|2|0|8,1:0|0:0|0:0|0:0|0:0,0:0:0:0:
394,173,79235,85,8,0:0:0:0:
467,351,79391,1,2,0:0:0:0:
476,342,79548,21,6,1:0:0:0:
463,319,79626,1,2,0:0:0:0:
437,312,79704,1,8,0:0:0:0:
409,322,79782,1,2,0:0:0:0:
390,358,79860,1,8,0:0:0:0:
240,314,80016,85,6,1:0:0:0:
253,337,80094,1,2,0:0:0:0:
279,344,80172,1,8,0:0:0:0:
307,334,80250,1,2,0:0:0:0:
326,298,80328,1,8,0:0:0:0:
309,124,80485,21,6,1:0:0:0:
291,153,80563,1,2,0:0:0:0:
303,188,80641,1,8,0:0:0:0:
338,205,80719,1,2,0:0:0:0:
380,174,80798,1,8,0:0:0:0:
494,144,80954,85,10,1:0:0:0:
512,115,81032,1,2,0:0:0:0:
500,80,81110,1,8,0:0:0:0:
465,63,81188,1,2,0:0:0:0:
423,94,81267,1,8,0:0:0:0:
383,180,81423,22,0,P|288:153|179:133,1,202.500007724762,6|2,1:0|0:0,0:0:0:0:
171,141,81735,1,8,0:0:0:0:
0,111,81891,1,2,0:0:0:0:
110,0,82048,86,0,B|93:7|93:7|103:33|103:33|125:15|125:15|112:0,1,84.3750032186509,6|0,1:0|0:0,0:0:0:0:
109,7,82282,22,0,B|85:16|85:16|99:52|99:52|129:27|129:27|112:7,1,112.5,6|0,1:0|0:0,0:0:0:0:
107,13,82516,86,0,B|76:25|76:25|94:71|94:71|133:39|133:39|111:13,1,168.750006437302,6|0,1:0|0:0,0:0:0:0:
106,22,82751,22,0,B|65:38|65:38|89:100|89:100|141:57|141:57|111:22,1,225,6|0,1:0|0:0,0:0:0:0:
102,39,82985,86,0,B|61:55|61:55|85:117|85:117|137:74|137:74|107:39,1,225,6|8,1:0|0:0,0:0:0:0:
201,221,83298,22,0,P|168:196|162:155,1,84.3750032186509,6|0,1:0|0:0,0:0:0:0:
267,197,83532,86,0,P|240:228|199:231,1,84.3750032186509,6|0,1:0|0:0,0:0:0:0:
260,124,83766,22,0,P|285:156|280:197,1,84.3750032186509,6|0,1:0|0:0,0:0:0:0:
198,234,84001,86,0,P|270:180|358:164,1,180,2|2,0:0|0:0,0:0:0:0:
375,164,84235,2,0,P|399:169|420:184,2,45,6|4|8,1:0|0:0|0:0,0:0:0:0:
460,372,84548,22,0,P|433:355|413:308,1,67.5000025749208,6|0,1:0|0:0,0:0:0:0:
341,327,84704,2,0,P|350:289|377:260,1,67.5000025749208,8|0,0:0|0:0,0:0:0:0:
375,164,84860,86,0,P|402:181|422:228,1,67.5000025749208,6|0,1:0|0:0,0:0:0:0:
494,209,85016,2,0,P|485:247|458:276,1,67.5000025749208,8|0,0:0|0:0,0:0:0:0:
336,339,85173,21,6,1:0:0:0:
319,318,85251,1,8,0:0:0:0:
296,304,85329,1,8,0:0:0:0:
270,298,85407,1,8,0:0:0:0:
247,303,85485,86,0,P|255:325|257:347,3,45,6|8|8|8,1:0|0:0|0:0|0:0,0:0:0:0:
180,344,85798,1,0,3:0:0:0:
12,291,85954,22,0,L|-4:193,1,67.5000025749208
47,161,86110,2,0,L|81:181,6,33.7500012874604,8|0|8|0|8|0|8,0:0|0:0|0:0|0:0|0:0|0:0|0:0,0:0:0:0:
143,143,86423,86,0,L|127:45,3,67.5000025749208,2|2|2|2,0:0|0:0|0:0|0:0,0:0:0:0:
182,18,86735,2,0,L|305:90,1,135,6|0,1:0|0:0,0:0:0:0:
512,34,87048,6,0,B|457:32|443:79|443:79|451:31|411:0,1,135.000005149842,2|0,3:2|0:0,0:0:0:0:
429,28,87204,2,0,P|406:9|382:1,1,45,0|0,3:0|0:0,0:0:0:0:
371,73,87360,2,0,P|378:117|405:141,1,67.5000025749208,8|0,0:0|0:0,0:0:0:0:
500,218,87516,2,0,P|472:189|437:181,1,67.5000025749208,0|0,3:0|0:0,0:0:0:0:
398,237,87673,6,0,P|387:269|401:299,1,67.5000025749208,8|0,0:0|0:0,0:0:0:0:
412,317,87829,2,0,P|443:322|479:332,1,67.5000025749208,0|0,1:0|0:0,0:0:0:0:
495,331,87985,2,0,P|462:321|429:314,1,67.5000025749208,8|0,0:0|0:0,0:0:0:0:
249,271,88141,1,4,3:2:0:0:
398,238,88298,101,0,0:0:0:0:
345,367,88454,1,0,3:0:0:0:
334,359,88532,1,0,0:0:0:0:
321,363,88610,2,0,P|288:353|255:346,1,67.5000025749208,8|0,0:0|0:0,0:0:0:0:
115,307,88766,1,0,3:0:0:0:
249,271,88923,6,0,P|215:269|183:280,1,67.5000025749208,0|0,3:0|0:0,0:0:0:0:
114,313,89079,1,0,3:0:0:0:
12,214,89235,102,0,P|44:223|70:245,1,67.5000025749208,8|0,0:0|0:0,0:0:0:0:
140,224,89391,2,0,L|161:132,1,90,8|0,0:0|0:0,0:0:0:0:
103,5,89548,5,0,3:0:0:0:
165,126,89704,1,0,3:0:0:0:
284,49,89860,1,8,0:0:0:0:
191,30,90016,101,0,3:0:0:0:
253,154,90173,1,8,0:0:0:0:
257,155,90251,1,8,0:0:0:0:
257,150,90329,1,8,0:0:0:0:
253,149,90407,1,8,0:0:0:0:
331,177,90485,6,0,B|350:173|350:173|369:106,1,90,8|8,3:2|0:0,0:0:0:0:
512,0,90641,2,0,B|493:4|493:4|474:71,1,90,0|0,3:0|0:0,0:0:0:0:
416,203,90798,102,0,B|435:270|435:270|454:274,1,90,8|0,0:0|0:0,0:0:0:0:
500,340,90954,2,0,B|489:304|489:304|377:276|377:276|350:301,1,180,0|8,3:0|0:0,0:0:0:0:
256,374,91266,1,0,3:0:0:0:
256,374,91344,1,0,0:0:0:0:
256,374,91423,6,0,P|272:343|258:291,1,67.5000025749208,8|0,0:0|0:0,0:0:0:0:
188,289,91579,2,0,P|172:320|186:372,1,67.5000025749208,0|0,3:0|3:0,0:0:0:0:
357,294,91735,101,8,0:0:0:0:
85,374,91891,1,8,0:0:0:0:
74,368,91969,1,0,0:0:0:0:
66,362,92048,6,0,L|51:315,1,45,0|0,3:0|0:0,0:0:0:0:
55,201,92204,2,0,L|69:244,1,45,0|0,3:0|0:0,0:0:0:0:
0,266,92360,1,8,0:0:0:0:
103,5,92516,1,0,1:0:0:0:
103,14,92673,102,0,L|109:35,1,18,8|0,0:0|0:0,0:0:0:0:
178,61,92829,2,0,L|184:82,1,18,0|0,1:0|0:0,0:0:0:0:
253,108,92985,1,8,0:0:0:0:
386,0,93141,1,0,3:0:0:0:
349,121,93298,6,0,L|336:79,1,45
468,40,93454,2,0,L|481:82,1,45,0|0,3:0|0:0,0:0:0:0:
431,171,93610,1,8,0:0:0:0:
357,294,93766,2,0,P|363:272|379:257,1,45,0|0,3:0|3:0,0:0:0:0:
446,287,93923,101,0,3:0:0:0:
451,291,94001,1,0,3:0:0:0:
455,296,94079,2,0,P|448:317|432:332,1,45,8|0,0:0|0:0,0:0:0:0:
338,374,94235,6,0,B|294:378|251:328|294:306|252:263|205:264,1,180,0|8,3:0|0:0,0:0:0:0:
202,268,94469,1,0,0:0:0:0:
202,278,94548,1,0,3:0:0:0:
65,302,94704,102,0,P|58:351|90:379,1,90,0|0,3:0|0:0,0:0:0:0:
136,321,94860,1,8,0:0:0:0:
0,266,95016,1,0,3:0:0:0:
202,268,95173,6,0,L|193:203,1,45,8|8,0:0|0:0,0:0:0:0:
206,252,95329,2,0,L|197:187,1,45,8|8,0:0|0:0,0:0:0:0:
259,63,95485,2,0,L|250:128,1,45,8|0,0:0|0:0,0:0:0:0:
266,73,95641,2,0,L|257:138,1,45,0|0,3:0|0:0,0:0:0:0:
272,192,95798,101,0,3:0:0:0:
125,209,95954,1,0,3:0:0:0:
284,192,96110,1,8,0:0:0:0:
348,35,96266,1,0,3:0:0:0:
458,160,96423,5,0,3:0:0:0:
437,129,96501,1,0,3:0:0:0:
395,126,96579,1,0,3:0:0:0:
370,158,96657,1,0,3:0:0:0:
389,201,96735,101,8,0:0:0:0:
438,203,96813,1,0,3:0:0:0:
463,246,96891,1,0,3:0:0:0:
440,287,96969,1,0,3:0:0:0:
371,272,97048,38,0,L|360:30,1,225,6|0,1:0|0:0,0:0:0:0:
350,361,97360,101,12,0:0:0:0:
364,353,97516,2,0,L|261:326,1,101.250003862381,6|0,1:0|0:0,0:0:0:0:
145,382,97829,2,0,P|176:370|193:342,1,67.5000025749208,6|0,1:0|3:0,0:0:0:0:
35,259,98141,6,0,B|45:304|67:286|82:339,1,90,14|0,1:0|0:0,0:0:0:0:
71,340,98610,1,0,3:0:0:0:
45,345,98688,1,0,3:0:0:0:
29,371,98766,102,0,B|48:285|89:319|118:218,1,180,14|0,1:0|0:0,0:0:0:0:
0,90,99235,1,0,3:0:0:0:
0,90,99391,1,0,3:0:0:0:
64,133,99548,86,0,B|90:126|90:126|99:88|68:59,1,90,12|0,0:0|0:0,0:0:0:0:
186,0,99704,2,0,B|160:7|160:7|151:45|182:74,1,90,0|0,3:0|0:0,0:0:0:0:
207,207,99860,6,0,B|222:180|219:141|219:141|258:128|258:128|249:88|274:50,1,180,8|0,0:0|3:0,0:0:0:0:
336,104,100173,1,0,3:0:0:0:
344,105,100251,1,0,3:0:0:0:
347,113,100329,2,0,B|345:160|345:160|320:195,1,90,0|0,3:0|3:0,0:0:0:0:
227,304,100485,102,0,B|239:281|239:281|316:267,1,90,8|0,0:0|0:0,0:0:0:0:
470,245,100641,1,0,3:0:0:0:
451,384,100798,6,0,B|430:376|430:376|419:304,1,90,8|0,0:0|0:0,0:0:0:0:
480,101,100954,2,0,B|501:109|501:109|506:153|506:153|493:148|493:148|464:265,1,180,0|8,3:0|0:0,0:0:0:0:
347,113,101266,1,0,3:0:0:0:
302,269,101423,101,8,0:0:0:0:
306,283,101501,1,0,0:0:0:0:
318,283,101579,2,0,P|303:253|272:240,1,67.5000025749208,0|0,3:0|3:0,0:0:0:0:
226,303,101735,2,0,P|198:309|174:339,1,67.5000025749208,8|0,0:0|0:0,0:0:0:0:
0,296,101891,1,0,3:0:0:0:
72,380,102048,6,0,L|61:328,1,45,0|0,3:0|0:0,0:0:0:0:
119,287,102204,2,0,L|108:235,1,45,0|0,3:0|0:0,0:0:0:0:
39,226,102360,1,8,0:0:0:0:
275,159,102516,1,0,3:0:0:0:
268,152,102673,102,0,L|243:148,1,18,8|0,0:0|0:0,0:0:0:0:
194,102,102829,2,0,L|169:98,1,18,0|0,3:0|0:0,0:0:0:0:
116,54,102985,1,8,0:0:0:0:
372,22,103141,1,0,3:0:0:0:
421,84,103298,6,0,L|411:128,1,45
439,239,103454,2,0,L|448:194,1,45,0|0,3:0|0:0,0:0:0:0:
487,131,103610,1,8,0:0:0:0:
491,343,103766,102,0,P|474:327|453:320,1,45,0|0,3:0|3:0,0:0:0:0:
381,294,103923,1,0,3:0:0:0:
371,287,104001,1,0,3:0:0:0:
358,292,104079,2,0,P|341:310|336:336,1,45,4|0,3:0|3:0,0:0:0:0:
397,371,104235,5,8,0:0:0:0:
39,226,104391,102,0,B|65:167|65:167|132:326|132:326|115:349|115:349|149:305|149:305|204:324|204:324|81:24|81:24|148:-6|148:-6|292:154|292:154|237:199|237:199|193:156|193:156|160:179,1,1147.50004377365,6|0,0:0|0:0,0:0:0:0:
30,236,105798,2,0,L|211:274,1,180,2|0,0:0|0:0,0:0:0:0:
352,296,106110,2,0,L|341:240,6,45,8|0|8|0|8|0|8,0:0|0:0|0:0|0:0|0:0|0:0|0:0,0:0:0:0:
418,331,106423,38,0,L|397:371,3,45,2|2|2|2,0:0|0:0|0:0|0:0,0:0:0:0:
479,288,106735,101,8,0:0:0:0:
471,243,106813,1,2,0:0:0:0:
464,199,106891,1,0,3:0:0:0:
457,154,106969,1,2,0:0:0:0:
489,119,107048,6,0,B|521:152|521:152|408:123,1,161.999995056153,2|0,3:2|0:0,0:0:0:0:
395,118,107204,2,0,B|384:72|384:72|397:56,1,67.5000025749208,0|0,3:0|0:0,0:0:0:0:
345,0,107360,102,0,L|269:16,1,67.5000025749208,8|0,0:0|0:0,0:0:0:0:
220,139,107516,2,0,P|253:108|253:79,1,67.5000025749208,0|0,3:0|0:0,0:0:0:0:
201,38,107673,6,0,P|154:64|149:118,1,112.5,8|0,0:0|0:0,0:0:0:0:
53,191,107829,2,0,P|77:168|66:135,1,67.5000025749208,0|0,1:0|0:0,0:0:0:0:
0,281,107985,2,0,P|32:270|65:264,1,67.5000025749208,8|0,0:0|0:0,0:0:0:0:
205,254,108141,1,4,3:2:0:0:
103,330,108298,101,0,0:0:0:0:
272,295,108454,1,0,3:0:0:0:
277,302,108532,1,0,0:0:0:0:
285,302,108610,2,0,P|317:291|350:285,1,67.5000025749208,8|0,0:0|0:0,0:0:0:0:
479,288,108766,1,0,0:0:0:0:
426,383,108923,6,0,P|407:357|410:324,1,67.5000025749208,0|0,3:0|0:0,0:0:0:0:
486,290,109079,1,0,3:0:0:0:
414,249,109235,102,0,P|417:216|397:189,1,67.5000025749208,8|0,0:0|0:0,0:0:0:0:
280,127,109391,2,0,P|307:144|340:140,1,67.5000025749208,8|0,0:0|0:0,0:0:0:0:
512,73,109548,5,0,3:0:0:0:
397,189,109704,1,0,3:0:0:0:
358,33,109860,1,8,0:0:0:0:
425,101,110016,101,0,3:0:0:0:
337,252,110172,1,8,0:0:0:0:
332,250,110251,1,8,0:0:0:0:
331,254,110329,1,8,0:0:0:0:
335,255,110408,1,8,0:0:0:0:
272,295,110485,6,0,B|210:304|210:304|197:330,1,90,8|8,3:2|0:0,0:0:0:0:
28,363,110641,2,0,B|90:354|90:354|103:328,1,90,0|0,3:0|0:0,0:0:0:0:
149,118,110798,2,0,B|123:53|123:53|95:43,1,90,8|0,0:0|0:0,0:0:0:0:
32,16,110954,102,0,B|49:43|49:43|170:25|170:25|174:0,1,180,0|8,3:0|0:0,0:0:0:0:
293,0,111266,5,0,3:0:0:0:
286,2,111344,1,0,0:0:0:0:
280,5,111423,2,0,P|259:30|259:63,1,67.5000025749208,8|0,0:0|0:0,0:0:0:0:
337,91,111579,2,0,P|357:65|357:32,1,67.5000025749208,0|0,3:0|3:0,0:0:0:0:
149,118,111735,101,8,0:0:0:0:
477,15,111891,1,8,0:0:0:0:
488,16,111969,1,0,0:0:0:0:
499,18,112048,6,0,L|484:70,1,45,0|0,3:0|0:0,0:0:0:0:
408,158,112204,2,0,L|423:106,1,45,0|0,3:0|0:0,0:0:0:0:
493,135,112360,1,8,0:0:0:0:
438,382,112516,101,0,1:0:0:0:
426,374,112673,2,0,L|422:355,1,18,8|0,0:0|0:0,0:0:0:0:
370,307,112829,2,0,L|366:288,1,18,0|0,1:0|0:0,0:0:0:0:
308,244,112985,1,8,0:0:0:0:
149,118,113141,1,0,3:0:0:0:
190,204,113298,6,0,L|180:251,1,45
63,213,113454,2,0,L|73:166,1,45,0|0,3:0|0:0,0:0:0:0:
102,297,113610,1,8,0:0:0:0:
308,244,113766,102,0,P|296:263|293:285,1,45,0|0,3:0|3:0,0:0:0:0:
358,320,113923,1,0,3:0:0:0:
366,319,114001,1,0,3:0:0:0:
374,312,114079,2,0,P|385:292|388:270,1,45,8|0,0:0|0:0,0:0:0:0:
261,102,114235,6,0,B|267:149|334:201|394:162|386:96|318:84,1,207.000003948212,0|8,3:0|0:0,0:0:0:0:
332,80,114469,1,0,0:0:0:0:
328,70,114548,1,0,3:0:0:0:
470,13,114704,102,0,P|475:60|428:72,1,103.500001974106,0|0,3:0|0:0,0:0:0:0:
399,6,114860,1,8,0:0:0:0:
441,150,115016,1,0,3:0:0:0:
388,270,115173,6,0,L|434:262,1,45,8|8,0:0|0:0,0:0:0:0:
405,257,115329,2,0,L|451:249,1,45,8|8,0:0|0:0,0:0:0:0:
254,353,115485,2,0,L|302:363,1,45,8|0,0:0|0:0,0:0:0:0:
233,360,115641,2,0,L|281:370,1,45,0|0,3:0|0:0,0:0:0:0:
372,347,115798,101,0,3:0:0:0:
190,204,115954,1,0,3:0:0:0:
158,383,116110,5,8,0:0:0:0:
267,185,116266,1,0,3:0:0:0:
13,181,116423,101,0,3:0:0:0:
23,222,116501,1,0,3:0:0:0:
69,237,116579,1,8,3:0:0:0:
110,206,116657,1,0,3:0:0:0:
92,159,116735,5,8,0:0:0:0:
106,114,116813,1,0,3:0:0:0:
152,102,116891,1,8,3:0:0:0:
189,125,116969,1,0,3:0:0:0:
190,204,117048,70,0,L|219:23,1,180,6|0,1:0|0:0,0:0:0:0:
291,11,117360,5,12,0:0:0:0:
303,2,117516,2,0,L|405:18,1,101.250003862381,6|0,1:0|0:0,0:0:0:0:
461,73,117829,2,0,P|452:95|455:73,1,67.5000025749208,6|0,1:0|0:0,0:0:0:0:
455,175,118141,102,0,B|383:170|407:122|334:118,1,135.000005149842,14|0,1:0|0:0,0:0:0:0:
329,130,118532,1,0,0:0:0:0:
342,141,118610,6,0,P|357:183|371:239,1,101.250003862381,4|0,3:2|0:0,0:0:0:0:
461,324,118923,2,0,P|465:291|442:268,1,67.5000025749208,12|0,0:0|0:0,0:0:0:0:
379,316,119157,2,0,B|330:306|324:335|278:325,1,101.250003862381,12|12,0:0|0:0,0:0:0:0:
221,280,119548,22,0,P|188:250|186:223,1,67.5000025749208,12|0,0:0|0:0,0:0:0:0:
23,222,119704,2,0,P|55:251|57:278,1,67.5000025749208,0|0,3:0|0:0,0:0:0:0:
94,358,119860,102,0,B|63:175|63:175|85:147,1,207.000003948212,8|0,0:0|3:0,0:0:0:0:
108,91,120173,1,0,3:0:0:0:
115,96,120251,1,0,3:0:0:0:
119,90,120329,6,0,B|135:94|135:94|155:170,1,90,0|0,3:0|3:0,0:0:0:0:
241,140,120485,2,0,B|225:136|225:136|205:60,1,90,8|0,0:0|0:0,0:0:0:0:
339,12,120641,1,0,3:0:0:0:
437,119,120798,102,0,L|344:93,1,90,8|0,0:0|0:0,0:0:0:0:
312,182,120954,6,0,B|318:219|318:219|391:181|391:181|348:90,1,215.999993408203,0|8,3:0|0:0,0:0:0:0:
221,280,121266,1,0,3:0:0:0:
382,231,121423,1,8,0:0:0:0:
394,226,121501,1,0,0:0:0:0:
401,233,121579,102,0,P|381:274|331:287,1,90,0|0,3:0|3:0,0:0:0:0:
284,334,121735,2,0,P|243:316|220:279,1,90,8|0,0:0|0:0,0:0:0:0:
23,222,121891,1,0,3:0:0:0:
66,284,122048,6,0,L|129:274,1,45,0|0,3:2|0:0,0:0:0:0:
91,142,122204,2,0,L|28:152,1,45,0|0,3:0|0:0,0:0:0:0:
23,222,122360,1,8,0:0:0:0:
210,0,122516,1,0,3:0:0:0:
202,8,122673,102,0,L|199:31,1,18,8|0,0:0|0:0,0:0:0:0:
247,82,122829,2,0,L|244:105,1,18,0|2,3:0|0:0,0:0:0:0:
282,166,122985,1,8,0:0:0:0:
419,61,123141,1,0,3:0:0:0:
488,146,123298,6,0,L|440:128,1,45
316,0,123454,2,0,L|364:18,1,45,0|2,3:0|0:0,0:0:0:0:
419,61,123610,1,8,0:0:0:0:
334,271,123766,101,0,3:0:0:0:
317,270,123844,1,0,3:0:0:0:
307,283,123923,2,0,P|312:319|338:343,1,67.5000025749208,0|0,3:0|3:0,0:0:0:0:
427,290,124079,2,0,P|422:254|396:230,1,67.5000025749208,4|0,3:0|3:0,0:0:0:0:
282,166,124235,5,8,0:0:0:0:
51,87,124391,22,0,B|37:147|37:147|192:106|192:106|175:187|175:187|24:228|24:228|6:306|6:306|193:257|193:257|160:337|160:337|44:369|44:369|122:27|122:27|127:47|127:47|350:-8|350:-8|413:50|413:50|294:81|294:81|282:165,1,1835.99994396973,6|4,0:0|3:2,0:0:0:0:
