osu file format v14

[General]
AudioFilename: audio.mp3
AudioLeadIn: 0
PreviewTime: 87048
Countdown: 0
SampleSet: Soft
StackLeniency: 0.4
Mode: 0
LetterboxInBreaks: 0
WidescreenStoryboard: 1

[Editor]
Bookmarks: 9548,12048,19860,24548,32048,34548,44548,53923,54548,64548,74548,87048,97048,105798,107048,117048,127048
DistanceSpacing: 1.5
BeatDivisor: 4
GridSize: 32
TimelineZoom: 3.800004

[Metadata]
Title:Dizzolve
TitleUnicode:Dizzolve
Artist:litmus*
ArtistUnicode:litmus*
Creator:Enon
Version:dailycare's hard
Source:OverRapid
Tags:omc omcx omc10 featured artist fa bms BOFU2017 ddm teaminhtg Weeklycare Shiraya Sayuki JeokHwa Athanasia- bIG data bIG_data dailycare morinaga milr_ [ White Music ] [_White_Music_] instrumental electronic
BeatmapID:3854761
BeatmapSetID:1850676

[Difficulty]
HPDrainRate:4.5
CircleSize:3.6
OverallDifficulty:6
ApproachRate:8
SliderMultiplier:1.38
SliderTickRate:1

[Events]
//Background and Video events
0,0,"omc10.png",0,0
//Break Periods
//Storyboard Layer 0 (Background)
//Storyboard Layer 1 (Fail)
//Storyboard Layer 2 (Pass)
//Storyboard Layer 3 (Foreground)
//Storyboard Layer 4 (Overlay)
//Storyboard Sound Samples

[TimingPoints]
2048,312.5,4,2,1,65,1,0
9782,-100,4,2,1,5,0,0
9860,-100,4,2,1,65,0,0
10016,-100,4,2,1,5,0,0
10094,-100,4,2,1,65,0,0
10250,-100,4,2,1,5,0,0
10329,-100,4,2,1,65,0,0
10485,-100,4,2,1,5,0,0
10563,-100,4,2,1,65,0,0
10719,-100,4,2,1,5,0,0
10798,-100,4,2,1,65,0,0
10954,-100,4,2,1,5,0,0
11032,-100,4,2,1,65,0,0
11188,-100,4,2,1,5,0,0
11266,-100,4,2,1,65,0,0
11423,-100,4,2,1,5,0,0
11501,-100,4,2,1,65,0,0
11657,-100,4,2,1,5,0,0
11735,-100,4,2,1,65,0,0
11813,-100,4,2,1,5,0,0
11891,-100,4,2,1,65,0,0
19782,-100,4,2,1,5,0,0
19860,-100,4,2,1,65,0,0
20016,-100,4,2,1,5,0,0
20094,-100,4,2,1,65,0,0
20250,-100,4,2,1,5,0,0
20329,-100,4,2,1,65,0,0
20485,-100,4,2,1,5,0,0
20563,-100,4,2,1,65,0,0
21188,-100,4,2,1,5,0,0
21266,-100,4,2,1,65,0,0
21891,-100,4,2,1,5,0,0
21969,-100,4,2,1,65,0,0
22281,-100,4,2,1,5,0,0
22360,-100,4,2,1,65,0,0
23219,-100,4,2,1,5,0,0
23298,-100,4,2,1,65,0,0
23402,-100,4,2,1,5,0,0
23428,-100,4,2,1,65,0,0
23558,-100,4,2,1,5,0,0
23584,-100,4,2,1,65,0,0
24313,-100,4,2,1,5,0,0
24365,-100,4,2,1,65,0,0
24495,-100,4,2,1,5,0,0
24548,-92.5925925925926,4,2,1,65,0,0
25094,-92.5925925925926,4,2,1,5,0,0
25173,-92.5925925925926,4,2,1,65,0,0
25251,-92.5925925925926,4,2,1,5,0,0
25329,-92.5925925925926,4,2,1,65,0,0
26852,-92.5925925925926,4,2,1,5,0,0
26891,-92.5925925925926,4,2,1,65,0,0
29040,-92.5925925925926,4,2,1,5,0,0
29079,-92.5925925925926,4,2,1,65,0,0
29196,-92.5925925925926,4,2,1,5,0,0
29235,-92.5925925925926,4,2,1,65,0,0
29352,-92.5925925925926,4,2,1,5,0,0
29391,-92.5925925925926,4,2,1,65,0,0
32282,-92.5925925925926,4,2,1,5,0,0
32360,-92.5925925925926,4,2,1,65,0,0
32751,-92.5925925925926,4,2,1,5,0,0
32829,-92.5925925925926,4,2,1,65,0,0
33454,-92.5925925925926,4,2,1,5,0,0
33532,-92.5925925925926,4,2,1,65,0,0
33688,-92.5925925925926,4,2,1,5,0,0
33766,-92.5925925925926,4,2,1,60,0,0
43923,-92.5925925925926,4,2,1,15,0,0
44001,-92.5925925925926,4,2,1,20,0,0
44079,-92.5925925925926,4,2,1,25,0,0
44157,-92.5925925925926,4,2,1,30,0,0
44235,-92.5925925925926,4,2,1,35,0,0
44313,-92.5925925925926,4,2,1,40,0,0
44391,-92.5925925925926,4,2,1,45,0,0
44469,-92.5925925925926,4,2,1,50,0,0
44548,-117.647058823529,4,2,1,50,0,0
53298,-142.857142857143,4,2,1,50,0,0
54548,-117.647058823529,4,2,1,50,0,0
63402,-117.647058823529,4,2,1,5,0,0
63454,-117.647058823529,4,2,1,50,0,0
63558,-117.647058823529,4,2,1,5,0,0
63584,-117.647058823529,4,2,1,50,0,0
64391,-117.647058823529,4,2,1,75,0,0
64548,-100,4,2,1,75,0,0
85798,-111.111111111111,4,2,1,75,0,0
87048,-92.5925925925926,4,2,1,90,0,0
88376,-92.5925925925926,4,2,1,5,0,0
88454,-92.5925925925926,4,2,1,90,0,0
90902,-92.5925925925926,4,2,1,5,0,0
90954,-92.5925925925926,4,2,1,90,0,0
91058,-92.5925925925926,4,2,1,5,0,0
91110,-92.5925925925926,4,2,1,90,0,0
91214,-92.5925925925926,4,2,1,5,0,0
91266,-92.5925925925926,4,2,1,90,0,0
91370,-92.5925925925926,4,2,1,5,0,0
91423,-92.5925925925926,4,2,1,90,0,0
93376,-92.5925925925926,4,2,1,5,0,0
93454,-92.5925925925926,4,2,1,90,0,0
97282,-92.5925925925926,4,2,1,5,0,0
97360,-92.5925925925926,4,2,1,90,0,0
97438,-92.5925925925926,4,2,1,5,0,0
97516,-92.5925925925926,4,2,1,90,0,0
97751,-92.5925925925926,4,2,1,5,0,0
97829,-92.5925925925926,4,2,1,90,0,0
98532,-92.5925925925926,4,2,1,5,0,0
98610,-92.5925925925926,4,2,1,90,0,0
99157,-92.5925925925926,4,2,1,5,0,0
99235,-92.5925925925926,4,2,1,90,0,0
105719,-92.5925925925926,4,2,1,5,0,0
105798,-92.5925925925926,4,2,1,90,0,0
105902,-92.5925925925926,4,2,1,5,0,0
105928,-92.5925925925926,4,2,1,90,0,0
106058,-92.5925925925926,4,2,1,5,0,0
106084,-92.5925925925926,4,2,1,90,0,0
107048,-92.5925925925926,4,2,1,100,0,0
123376,-92.5925925925926,4,2,1,5,0,0
123454,-92.5925925925926,4,2,1,100,0,0
124548,-92.5925925925926,4,2,1,90,0,0
124860,-92.5925925925926,4,2,1,80,0,0
125173,-92.5925925925926,4,2,1,70,0,0
125485,-92.5925925925926,4,2,1,60,0,0
125798,-92.5925925925926,4,2,1,50,0,0
126110,-92.5925925925926,4,2,1,40,0,0
126423,-92.5925925925926,4,2,1,30,0,0
126735,-92.5925925925926,4,2,1,20,0,0
127048,-92.5925925925926,4,2,1,70,0,0

[Colours]
Combo1 : 0,231,255
Combo2 : 207,207,207
Combo3 : 141,141,141
Combo4 : 254,228,163
Combo5 : 224,245,158
Combo6 : 255,171,19
Combo7 : 204,255,0
Combo8 : 255,0,156

[HitObjects]
36,22,2048,38,0,P|47:88|59:172,1,138,4|8,3:2|0:0,0:0:0:0:
18,239,2516,2,0,P|52:204|154:209,1,138,0|0,3:0|0:0,0:0:0:0:
202,136,2985,1,8,0:0:0:0:
228,223,3141,6,0,P|217:289|205:373,1,138,8|0,0:0|3:0,0:0:0:0:
299,343,3610,2,0,P|305:302|315:254,1,69,8|0,0:0|3:0,0:0:0:0:
398,256,3923,1,0,0:0:0:0:
480,299,4079,2,0,P|486:258|496:210,1,69,0|8,3:0|0:0,0:0:0:0:
443,156,4391,1,0,0:0:0:0:
504,92,4548,102,0,P|438:103|354:115,1,138,0|8,3:0|0:0,0:0:0:0:
304,179,5016,2,0,P|267:145|162:159,1,138,0|0,3:0|1:0,0:0:0:0:
136,222,5485,1,8,0:0:0:0:
52,186,5641,2,0,P|46:145|36:97,1,69,8|0,0:0|3:0,0:0:0:0:
105,54,5954,6,0,P|172:57|223:14,2,138,0|0|4,3:0|3:0|3:0,0:0:0:0:
40,117,6735,2,0,P|47:151|52:186,1,69,8|0,0:0|1:0,0:0:0:0:
5,272,7048,102,0,P|71:279|114:331,1,138,0|8,3:0|0:0,0:0:0:0:
195,372,7516,2,0,P|204:303|216:235,1,138,0|0,3:0|1:0,0:0:0:0:
134,192,7985,1,8,0:0:0:0:
208,138,8141,6,0,P|274:130|317:78,1,138,8|0,0:0|3:0,0:0:0:0:
397,25,8610,2,0,P|403:66|413:114,1,69,8|0,0:0|3:0,0:0:0:0:
361,173,8923,1,0,0:0:0:0:
442,217,9079,2,0,P|435:251|419:365,1,138,0|0,3:0|1:0,0:0:0:0:
328,369,9548,1,0,3:0:0:0:
328,369,9860,6,0,P|290:339|222:339,2,103.5,8|8|8,1:0|1:0|1:0,0:0:0:0:
241,246,10563,2,0,P|193:255|149:307,2,103.5,8|8|8,1:0|1:0|1:0,0:0:0:0:
90,233,11266,2,0,P|67:275|78:342,2,103.5,8|8|8,1:0|1:0|1:0,0:0:0:0:
90,233,12048,86,0,P|81:164|68:96,1,138,4|8,3:2|0:0,0:0:0:0:
110,18,12516,2,0,P|147:52|252:38,1,138,0|0,3:0|1:0,0:0:0:0:
277,132,12985,1,8,0:0:0:0:
357,84,13141,6,0,P|425:75|493:62,1,138,8|0,0:0|3:0,0:0:0:0:
483,154,13610,2,0,P|449:160|415:166,1,69,8|0,0:0|3:0,0:0:0:0:
334,213,13923,1,0,1:0:0:0:
376,295,14079,2,0,P|342:301|308:307,1,69,0|8,3:0|0:0,0:0:0:0:
247,374,14391,1,0,1:0:0:0:
217,286,14548,102,0,P|180:252|75:266,1,138,0|8,3:0|0:0,0:0:0:0:
11,223,15016,2,0,P|76:205|112:149,1,138,0|0,3:0|1:0,0:0:0:0:
197,114,15485,1,8,0:0:0:0:
155,31,15641,2,0,P|189:25|222:18,1,69,8|0,0:0|3:0,0:0:0:0:
291,79,15954,6,0,P|278:146|269:215,2,138,0|0|0,3:0|3:0|3:0,0:0:0:0:
222,18,16735,2,0,P|189:25|155:31,1,69,8|0,0:0|1:0,0:0:0:0:
68,7,17048,102,0,P|33:41|38:143,1,138,0|8,3:0|0:0,0:0:0:0:
9,217,17516,2,0,P|76:204|145:195,1,138,0|0,3:0|1:0,0:0:0:0:
215,133,17985,1,8,0:0:0:0:
235,221,18141,6,0,P|270:255|265:357,1,138,8|0,0:0|3:0,0:0:0:0:
359,377,18610,2,0,P|364:342|371:309,1,69,8|0,0:0|3:0,0:0:0:0:
459,278,18923,1,0,1:0:0:0:
398,208,19079,2,0,P|389:139|376:71,1,138,0|0,3:0|1:0,0:0:0:0:
449,14,19548,1,0,3:0:0:0:
449,14,19860,6,0,P|471:52|462:112,2,103.5,8|8|8,1:0|1:0|1:0,0:0:0:0:
388,152,20563,2,0,P|373:193|321:224,2,103.5,8|8|8,1:0|1:0|1:0,0:0:0:0:
243,193,21266,2,0,P|201:208|144:188,2,103.5,8|8|8,1:0|1:0|1:0,0:0:0:0:
243,193,22360,37,4,3:2:0:0:
256,192,22438,12,0,24235,0:0:0:0:
243,193,24548,38,0,P|235:226|228:272,1,74.520001819336,4|0,3:2|0:0,0:0:0:0:
184,352,24860,2,0,P|139:307|46:316,1,149.040003638672,8|0,0:0|3:0,0:0:0:0:
0,235,25329,1,0,3:0:0:0:
90,204,25485,2,0,P|95:167|104:130,1,74.520001819336,8|0,0:0|3:0,0:0:0:0:
60,50,25798,5,0,3:0:0:0:
148,14,25954,1,0,3:0:0:0:
191,95,26110,2,0,P|227:86|316:75,1,111.780002729004,8|0,0:0|0:0,0:0:0:0:
300,75,26423,1,2,3:1:0:0:
390,112,26579,1,2,3:1:0:0:
317,170,26735,2,0,P|308:206|303:243,1,74.520001819336,10|2,3:1|3:1,0:0:0:0:
254,329,27048,102,0,P|290:292|397:299,1,149.040003638672,4|8,3:2|0:0,0:0:0:0:
501,267,27516,2,0,P|450:237|442:159,1,111.780002729004
434,189,27829,1,0,3:0:0:0:
390,112,27985,2,0,P|354:121|317:126,1,74.520001819336,8|0,0:0|0:0,0:0:0:0:
240,180,28298,21,0,3:0:0:0:
179,112,28454,1,0,3:0:0:0:
253,57,28610,2,0,L|240:3,2,37.260000909668,8|0|0,0:0|0:0|3:0,0:0:0:0:
316,126,28923,6,0,P|320:162|330:199,1,74.520001819336,2|2,3:1|3:1,0:0:0:0:
254,253,29235,2,0,P|249:216|239:179,1,74.520001819336,10|2,3:1|3:1,0:0:0:0:
179,112,29548,102,0,P|143:121|106:126,1,74.520001819336,4|0,3:2|0:0,0:0:0:0:
8,167,29860,2,0,P|50:185|82:285,1,149.040003638672,8|0,0:0|0:0,0:0:0:0:
44,360,30329,1,0,3:0:0:0:
136,354,30485,2,0,P|172:358|209:368,1,74.520001819336,8|0,0:0|3:0,0:0:0:0:
287,313,30798,5,0,0:0:0:0:
202,270,30954,1,0,0:0:0:0:
276,217,31110,2,0,P|266:180|258:95,1,111.780002729004,8|0,0:0|0:0,0:0:0:0:
257,107,31423,1,2,3:1:0:0:
188,49,31579,1,2,3:1:0:0:
274,17,31735,2,0,P|310:26|347:31,1,74.520001819336,10|2,3:1|3:1,0:0:0:0:
417,93,32048,1,8,0:0:0:0:
417,93,32360,102,0,P|444:56|526:43,2,111.780002729004,8|8|8,1:0|1:0|1:0,0:0:0:0:
345,222,33063,2,0,P|319:183|335:102,2,111.780002729004,8|8|8,1:0|1:0|1:0,0:0:0:0:
441,333,33766,2,0,P|396:343|325:301,2,111.780002729004,8|8|8,1:0|1:0|1:0,0:0:0:0:
441,333,34548,86,0,P|445:296|455:259,1,74.520001819336,4|0,3:2|0:0,0:0:0:0:
370,233,34860,1,8,0:0:0:0:
370,233,34938,1,0,0:0:0:0:
370,233,35016,2,0,P|379:197|383:160,1,74.520001819336,0|0,0:0|3:0,0:0:0:0:
471,133,35329,1,0,3:0:0:0:
408,66,35485,2,0,P|371:75|334:80,1,74.520001819336,8|0,0:0|0:0,0:0:0:0:
253,39,35798,5,0,3:0:0:0:
201,114,35954,1,0,3:0:0:0:
284,159,36110,2,0,P|275:195|264:284,1,111.780002729004,8|0,0:0|0:0,0:0:0:0:
264,268,36423,1,2,3:1:0:0:
210,344,36579,1,2,3:1:0:0:
128,301,36735,2,0,P|91:306|54:314,1,74.520001819336,10|2,3:1|3:1,0:0:0:0:
2,237,37048,102,0,P|54:214|84:129,1,149.040003638672,4|8,3:2|0:0,0:0:0:0:
101,12,37516,2,0,P|131:59|199:79,1,111.780002729004
181,79,37829,1,0,3:0:0:0:
187,180,37985,2,0,P|223:171|260:166,1,74.520001819336,8|0,0:0|0:0,0:0:0:0:
354,137,38298,21,0,3:0:0:0:
411,215,38454,1,0,3:0:0:0:
318,243,38610,2,0,L|327:285,2,37.260000909668,8|0|0,0:0|0:0|0:0,0:0:0:0:
260,166,38923,6,0,P|268:129|273:92,1,74.520001819336,2|2,3:1|3:1,0:0:0:0:
367,63,39235,2,0,P|358:99|353:136,1,74.520001819336,10|2,3:1|3:1,0:0:0:0:
411,215,39548,102,0,P|447:206|484:201,1,74.520001819336,4|0,3:2|0:0,0:0:0:0:
459,301,39860,1,8,0:0:0:0:
459,301,39938,1,0,0:0:0:0:
459,301,40016,2,0,P|422:306|385:314,1,74.520001819336,0|0,0:0|3:0,0:0:0:0:
317,376,40329,1,0,3:0:0:0:
266,300,40485,2,0,P|229:294|192:286,1,74.520001819336,8|0,0:0|0:0,0:0:0:0:
129,220,40798,5,0,3:0:0:0:
99,309,40954,1,0,3:0:0:0:
36,241,41110,2,0,P|29:185|16:131,1,111.780002729004,8|0,0:0|0:0,0:0:0:0:
16,131,41423,1,2,3:1:0:0:
104,101,41579,1,2,3:1:0:0:
83,9,41735,2,0,P|119:17|156:22,1,74.520001819336,10|2,3:1|3:1,0:0:0:0:
232,74,42048,70,0,P|274:34|377:47,1,149.040003638672,4|8,3:2|0:0,0:0:0:0:
491,32,42516,2,0,P|450:59|447:147,1,111.780002729004
435,117,42829,1,0,3:0:0:0:
351,161,42985,2,0,P|359:197|364:234,1,74.520001819336,8|0,0:0|0:0,0:0:0:0:
414,313,43298,6,0,P|467:322|496:346,2,74.520001819336,0|0|8,3:0|3:0|0:0,0:0:0:0:
319,296,43766,1,8,0:0:0:0:
319,296,43844,1,0,3:0:0:0:
414,313,44548,70,0,B|480:285|493:220|461:158|461:158|458:193|417:216,1,234.60000447464,4|2,3:1|0:0,0:0:0:0:
275,191,45485,2,0,P|248:174|206:168,1,58.65000111866,2|0,0:0|0:0,0:0:0:0:
240,77,45798,2,0,L|61:103,1,175.95000335598,2|0,0:0|0:0,0:0:0:0:
0,366,46891,5,0,0:0:0:0:
0,366,47048,2,0,P|24:333|164:320,1,175.95000335598,4|0,3:0|0:0,0:0:0:0:
242,333,47673,2,0,P|235:300|230:264,1,58.65000111866,2|0,0:0|0:0,0:0:0:0:
181,201,47985,2,0,L|200:80,1,117.30000223732,2|2,0:0|0:0,0:0:0:0:
275,38,48454,2,0,P|346:80|403:76,1,117.30000223732
456,123,48923,2,0,P|431:135|408:157,1,58.65000111866,2|0,0:0|0:0,0:0:0:0:
237,188,49391,101,0,0:0:0:0:
237,188,49548,2,0,B|204:137|140:111|72:126|72:126|95:136|109:164,1,234.60000447464,4|0,3:0|0:0,0:0:0:0:
155,239,50329,2,0,P|123:243|86:255,1,58.65000111866,0|2,3:0|0:0,0:0:0:0:
18,218,50641,1,2,0:0:0:0:
0,320,50798,2,0,L|176:346,1,175.95000335598,0|0,3:0|0:0,0:0:0:0:
279,188,51579,1,0,0:0:0:0:
437,301,51891,5,0,0:0:0:0:
437,301,52048,2,0,L|475:58,1,234.60000447464,4|0,3:0|3:0,0:0:0:0:
388,19,52829,2,0,P|340:37|263:39,1,117.30000223732
209,107,53298,102,0,P|179:79|69:252,1,338.099989682007,2|0,0:0|0:0,0:0:0:0:
2,329,54548,6,0,L|240:293,1,234.60000447464,4|2,3:2|0:0,0:0:0:0:
316,337,55329,1,0,0:0:0:0:
377,265,55485,2,0,P|381:230|392:199,1,58.65000111866,2|0,0:0|0:0,0:0:0:0:
306,173,55798,102,0,L|271:-10,2,175.95000335598,2|0|2,0:0|0:0|0:0,0:0:0:0:
237,235,56891,5,0,0:0:0:0:
237,235,57048,2,0,P|173:198|69:206,1,175.95000335598,2|0,0:0|0:0,0:0:0:0:
0,154,57673,2,0,P|8:125|11:96,1,58.65000111866,2|0,0:0|0:0,0:0:0:0:
79,41,57985,1,2,0:0:0:0:
233,153,58298,101,2,0:0:0:0:
300,96,58454,2,0,P|359:92|429:83,1,117.30000223732
467,157,58923,2,0,P|437:159|402:163,1,58.65000111866,2|0,0:0|0:0,0:0:0:0:
268,249,59391,5,0,0:0:0:0:
273,254,59548,2,0,P|327:234|480:316,1,234.60000447464,4|0,3:0|0:0,0:0:0:0:
512,221,60329,1,0,3:0:0:0:
441,162,60485,2,0,L|456:96,1,58.65000111866,0|0,3:0|0:0,0:0:0:0:
422,22,60798,102,0,P|357:48|250:52,1,175.95000335598,0|0,3:0|0:0,0:0:0:0:
197,219,61579,1,0,0:0:0:0:
54,138,61891,1,0,0:0:0:0:
54,138,62048,1,4,3:0:0:0:
256,192,62126,12,2,64235,1:0:0:0:
54,138,64548,22,0,L|27:301,1,138,6|8,1:0|0:0,0:0:0:0:
107,340,65016,2,0,L|129:203,1,138,6|8,1:0|0:0,0:0:0:0:
230,124,65485,2,0,L|203:287,1,138,6|8,1:0|0:0,0:0:0:0:
283,326,65953,2,0,L|305:189,1,138,6|8,1:0|0:0,0:0:0:0:
400,106,66423,2,0,L|382:205,1,69,6|2,1:0|0:0,0:0:0:0:
466,228,66735,1,8,0:0:0:0:
466,228,66891,1,2,0:0:0:0:
419,303,67048,22,0,L|282:325,1,138,6|8,1:0|0:0,0:0:0:0:
199,255,67516,2,0,L|335:232,1,138,6|8,1:0|0:0,0:0:0:0:
385,138,67985,2,0,L|248:160,1,138,6|8,1:0|0:0,0:0:0:0:
165,90,68454,2,0,L|264:72,2,69,6|2|10,1:0|0:0|0:0,0:0:0:0:
43,138,68923,2,0,L|55:70,1,69,6|2,1:0|0:0,0:0:0:0:
127,182,69235,1,8,0:0:0:0:
127,182,69391,1,2,0:0:0:0:
47,227,69548,86,0,P|44:272|123:346,1,138,6|8,1:0|0:0,0:0:0:0:
195,344,70016,2,0,P|232:369|336:337,1,138,6|8,1:0|0:0,0:0:0:0:
387,290,70485,2,0,P|427:270|452:164,1,138,6|8,1:0|0:0,0:0:0:0:
401,113,70954,2,0,P|403:68|325:-5,1,138,6|8,1:0|0:0,0:0:0:0:
198,33,71423,2,0,P|234:31|273:51,1,69,6|2,1:0|0:0,0:0:0:0:
311,128,71735,1,8,0:0:0:0:
311,128,71891,1,2,0:0:0:0:
242,191,72048,22,0,L|230:272,1,69,6|2,1:0|0:0,0:0:0:0:
251,286,72282,2,0,L|170:299,1,69,6|2,1:0|0:0,0:0:0:0:
163,323,72516,2,0,L|125:250,1,69,6|0,1:0|0:0,0:0:0:0:
99,251,72751,2,0,L|156:192,1,69,6|2,1:0|0:0,0:0:0:0:
149,169,72985,2,0,L|222:205,1,69,6|2,1:0|0:0,0:0:0:0:
325,250,73298,86,0,L|445:233,1,103.5,6|6,1:0|1:0,0:0:0:0:
454,249,73610,2,0,L|467:168,1,69,2|6,0:0|1:0,0:0:0:0:
402,112,73923,2,0,L|247:135,1,138,6|8,1:0|0:0,0:0:0:0:
199,68,74391,1,2,0:0:0:0:
106,85,74548,5,6,1:0:0:0:
106,85,74626,1,2,0:0:0:0:
106,85,74704,2,0,L|119:4,1,69,8|8,0:0|0:0,0:0:0:0:
123,178,75017,21,6,1:0:0:0:
123,178,75095,1,2,0:0:0:0:
123,178,75173,2,0,L|42:164,1,69,8|8,0:0|0:0,0:0:0:0:
216,161,75485,85,6,1:0:0:0:
216,161,75563,1,2,0:0:0:0:
216,161,75641,2,0,L|202:241,1,69,8|8,0:0|0:0,0:0:0:0:
199,68,75954,21,6,1:0:0:0:
199,68,76032,1,2,0:0:0:0:
199,68,76110,2,0,L|279:81,1,69,8|8,0:0|0:0,0:0:0:0:
358,57,76423,86,0,L|375:10,2,34.5,6|2|8,1:0|0:0|0:0,0:0:0:0:
339,160,76735,2,0,L|258:173,1,69,8|2,0:0|0:0,0:0:0:0:
432,177,77048,21,6,1:0:0:0:
432,177,77126,1,2,0:0:0:0:
432,177,77204,2,0,L|418:96,1,69,8|8,0:0|0:0,0:0:0:0:
415,270,77517,85,6,1:0:0:0:
415,270,77595,1,2,0:0:0:0:
415,270,77673,2,0,L|495:256,1,69,8|8,0:0|0:0,0:0:0:0:
322,253,77985,21,6,1:0:0:0:
322,253,78063,1,2,0:0:0:0:
322,253,78141,2,0,L|335:333,1,69,8|8,0:0|0:0,0:0:0:0:
339,160,78454,86,0,L|258:173,1,69,10|8,1:0|0:0,0:0:0:0:
226,223,78688,2,0,L|254:146,1,69,6|8,1:0|0:0,3:0:0:0:
227,93,78923,2,0,L|279:156,1,69,6|8,1:0|0:0,0:0:0:0:
322,253,79235,2,0,P|358:272|410:267,1,69,8|2,0:0|0:0,0:0:0:0:
252,321,79548,21,6,1:0:0:0:
252,321,79626,1,2,0:0:0:0:
252,321,79704,2,0,P|216:302|164:307,1,69,8|8,0:0|0:0,0:0:0:0:
92,354,80016,85,6,1:0:0:0:
92,354,80094,1,2,0:0:0:0:
92,354,80172,2,0,P|98:313|78:265,1,69,8|8,0:0|0:0,0:0:0:0:
11,212,80485,21,6,1:0:0:0:
11,212,80563,1,2,0:0:0:0:
11,212,80641,2,0,P|51:206|90:171,1,69,8|8,0:0|0:0,0:0:0:0:
121,91,80954,85,10,1:0:0:0:
121,91,81032,1,2,0:0:0:0:
121,91,81110,2,0,P|138:127|183:154,1,69,8|8,0:0|0:0,0:0:0:0:
270,157,81423,22,0,P|244:180|233:207,2,34.5,6|2|8,1:0|0:0|0:0,0:0:0:0:
291,66,81735,2,0,P|307:35|309:1,1,69,8|2,0:0|0:0,0:0:0:0:
360,127,82048,86,0,L|372:208,1,69,6|8,1:0|0:0,0:0:0:0:
351,222,82282,2,0,L|432:235,1,69,6|8,1:0|0:0,0:0:0:0:
439,259,82516,2,0,L|477:186,1,69,6|8,1:0|0:0,0:0:0:0:
503,187,82751,2,0,L|446:128,1,69,6|8,1:0|0:0,0:0:0:0:
453,105,82985,2,0,L|380:141,1,69,6|8,1:0|0:0,0:0:0:0:
279,168,83298,22,0,L|268:99,1,69,6|8,1:0|0:0,0:0:0:0:
268,99,83532,1,6,1:0:0:0:
268,99,83610,2,0,L|199:88,1,69,2|6,0:0|1:0,0:0:0:0:
145,232,83923,2,0,L|187:177,1,69,6|8,1:0|0:0,0:0:0:0:
93,59,84235,2,0,L|118:123,1,69,6|8,1:0|0:0,0:0:0:0:
59,196,84548,85,6,1:0:0:0:
145,232,84704,1,8,0:0:0:0:
231,268,84860,1,6,1:0:0:0:
317,304,85016,1,8,0:0:0:0:
252,370,85173,22,0,L|199:379,3,34.5,6|8|8|8,1:0|0:0|0:0|0:0,0:0:0:0:
204,366,85485,2,0,L|151:375,3,34.5,6|8|8|8,1:0|0:0|0:0|0:0,0:0:0:0:
148,361,85798,86,0,L|164:283,1,62.0999981048585,0|0,3:0|0:0,0:0:0:0:
91,182,86110,2,0,L|66:296,1,93.1499971572877,8|8,0:0|0:0,0:0:0:0:
75,282,86423,2,0,L|-3:298,1,62.0999981048585,2|2,0:0|0:0,0:0:0:0:
182,211,86735,1,6,1:0:0:0:
182,211,87048,6,0,L|259:194,1,74.520001819336,2|0,3:2|3:0,0:0:0:0:
336,241,87360,1,8,0:0:0:0:
351,149,87516,1,0,3:0:0:0:
421,210,87673,1,8,0:0:0:0:
499,164,87829,2,0,P|504:127|513:90,1,74.520001819336,0|8,1:0|0:0,0:0:0:0:
426,57,88141,6,0,P|353:63|297:17,1,149.040003638672,4|0,3:2|3:0,0:0:0:0:
205,38,88610,2,0,P|213:74|218:111,1,74.520001819336,8|0,0:0|3:0,0:0:0:0:
225,126,88844,1,2,0:0:0:0:
233,140,88923,2,0,P|196:131|159:126,1,74.520001819336,0|0,3:0|3:0,0:0:0:0:
90,60,89235,1,8,0:0:0:0:
51,147,89391,102,0,P|96:203|90:275,1,149.040003638672,8|0,0:0|3:0,0:0:0:0:
2,315,89860,1,8,0:0:0:0:
80,372,90016,2,0,L|167:360,1,74.520001819336,0|8,3:0|0:0,0:0:0:0:
254,383,90329,1,8,0:0:0:0:
254,383,90407,1,8,0:0:0:0:
254,383,90485,2,0,L|241:296,1,74.520001819336,8|0,3:2|3:0,0:0:0:0:
177,241,90798,5,8,0:0:0:0:
318,231,90954,2,0,P|285:222|254:189,1,74.520001819336,0|8,3:0|0:0,0:0:0:0:
139,153,91266,1,0,3:0:0:0:
139,153,91423,2,0,P|170:138|195:101,1,74.520001819336,8|0,0:0|3:0,0:0:0:0:
266,0,91735,2,0,L|284:93,1,74.520001819336,8|8,0:0|0:0,0:0:0:0:
339,149,92048,102,0,L|420:159,1,74.520001819336,0|0,3:0|3:0,0:0:0:0:
496,201,92360,1,8,0:0:0:0:
441,275,92516,1,0,1:0:0:0:
355,235,92673,1,8,0:0:0:0:
271,288,92829,2,0,P|266:251|257:214,1,74.520001819336,0|8,1:0|0:0,0:0:0:0:
199,139,93141,6,0,P|163:148|30:168,1,149.040003638672,0|0,3:0|3:0,0:0:0:0:
0,264,93610,2,0,P|36:255|73:250,1,74.520001819336,8|0,0:0|3:0,0:0:0:0:
88,252,93844,1,0,3:0:0:0:
103,255,93923,2,0,P|98:292|89:329,1,74.520001819336,0|8,3:0|0:0,0:0:0:0:
180,369,94235,1,0,3:0:0:0:
226,285,94391,102,0,P|217:249|197:116,1,149.040003638672,8|0,0:0|3:0,0:0:0:0:
138,63,94860,1,8,0:0:0:0:
219,12,95016,2,0,P|255:20|292:25,1,74.520001819336,0|8,3:0|0:0,0:0:0:0:
316,127,95329,1,8,0:0:0:0:
316,127,95407,1,8,0:0:0:0:
316,127,95485,2,0,P|307:163|302:200,1,74.520001819336,8|0,0:0|3:0,0:0:0:0:
380,252,95798,5,0,3:0:0:0:
427,170,95954,2,0,P|472:226|466:298,1,149.040003638672,0|0,3:0|3:0,0:0:0:0:
407,375,96423,102,0,L|345:361,3,37.260000909668,0|0|0|0,3:0|3:0|3:0|3:0,0:0:0:0:
355,351,96735,2,0,L|293:337,3,37.260000909668,8|0|0|0,0:0|3:0|3:0|3:0,0:0:0:0:
301,323,97048,38,0,L|141:344,1,149.040003638672,6|12,1:0|0:0,0:0:0:0:
0,269,97516,2,0,P|38:280|81:282,1,74.520001819336,6|0,1:0|0:0,0:0:0:0:
157,243,97829,2,0,L|141:162,1,74.520001819336,6|0,1:0|3:0,0:0:0:0:
214,106,98141,2,0,B|163:69|187:-3|187:-3|196:26|228:39,1,149.040003638672,14|0,1:0|0:0,0:0:0:0:
302,78,98610,1,0,3:0:0:0:
310,83,98688,1,0,3:0:0:0:
318,88,98766,2,0,L|488:66,1,149.040003638672,14|0,1:0|0:0,0:0:0:0:
510,178,99235,2,0,P|474:166|429:165,1,74.520001819336,0|0,3:0|3:0,0:0:0:0:
358,211,99548,70,0,L|377:305,1,74.520001819336,12|0,0:0|3:0,0:0:0:0:
302,342,99860,1,8,0:0:0:0:
244,268,100016,2,0,P|207:276|170:281,1,74.520001819336,0|0,3:0|3:0,0:0:0:0:
76,309,100329,1,0,3:0:0:0:
76,309,100407,1,0,3:0:0:0:
76,309,100485,2,0,P|84:272|89:235,1,74.520001819336,8|0,0:0|3:0,0:0:0:0:
153,167,100798,5,8,0:0:0:0:
4,153,100954,2,0,P|52:141|75:112,1,74.520001819336,0|8,3:0|0:0,0:0:0:0:
177,82,101266,1,0,3:0:0:0:
177,82,101423,2,0,P|131:61|114:29,1,74.520001819336,8|0,0:0|3:0,0:0:0:0:
259,119,101735,2,0,P|296:97|341:100,1,74.520001819336,8|0,0:0|3:0,0:0:0:0:
421,77,102048,102,0,P|412:113|407:150,1,74.520001819336,0|0,3:0|3:0,0:0:0:0:
342,221,102360,1,8,0:0:0:0:
431,242,102516,1,0,3:0:0:0:
404,329,102673,1,8,0:0:0:0:
316,306,102829,2,0,P|279:297|242:292,1,74.520001819336,0|8,3:0|0:0,0:0:0:0:
162,340,103141,6,0,P|149:269|200:210,1,149.040003638672,0|0,3:0|3:0,0:0:0:0:
147,134,103610,2,0,P|183:129|220:120,1,74.520001819336,8|0,0:0|3:0,0:0:0:0:
233,129,103844,1,0,3:0:0:0:
247,136,103923,2,0,P|251:99|260:62,1,74.520001819336,0|4,3:0|3:0,0:0:0:0:
328,0,104235,1,8,0:0:0:0:
352,87,104391,1,6,0:0:0:0:
256,192,104469,12,8,106735,0:0:0:0:
352,87,107048,22,0,P|311:91|268:118,1,74.520001819336,2|0,3:2|3:0,0:0:0:0:
206,153,107360,1,8,0:0:0:0:
165,72,107516,1,0,3:0:0:0:
100,137,107673,1,8,0:0:0:0:
6,120,107829,2,0,P|14:156|19:193,1,74.520001819336,0|8,1:0|0:0,0:0:0:0:
6,285,108141,102,0,P|46:281|129:370,1,149.040003638672,4|0,3:2|3:0,0:0:0:0:
209,382,108610,2,0,P|213:345|222:308,1,74.520001819336,8|0,0:0|0:0,0:0:0:0:
218,295,108844,1,2,0:0:0:0:
213,281,108923,2,0,P|249:289|286:294,1,74.520001819336,0|0,3:0|3:0,0:0:0:0:
365,342,109235,1,8,0:0:0:0:
419,266,109391,6,0,P|410:230|390:97,1,149.040003638672,8|0,0:0|3:0,0:0:0:0:
389,22,109860,1,8,0:0:0:0:
472,68,110016,2,0,P|476:104|485:141,1,74.520001819336,0|8,3:0|0:0,0:0:0:0:
391,119,110329,1,8,0:0:0:0:
391,119,110407,1,8,0:0:0:0:
391,119,110485,2,0,P|354:110|317:105,1,74.520001819336,8|0,3:2|3:0,0:0:0:0:
232,139,110798,101,8,0:0:0:0:
181,20,110954,2,0,P|210:42|263:47,1,74.520001819336,0|8,3:0|0:0,0:0:0:0:
135,102,111266,1,0,3:0:0:0:
135,102,111423,2,0,P|103:120|85:161,1,74.520001819336,8|0,0:0|3:0,0:0:0:0:
18,260,111735,2,0,P|15:223|-5:182,1,74.520001819336,8|8,0:0|0:0,0:0:0:0:
121,236,112048,6,0,L|100:336,1,74.520001819336,0|0,3:0|3:0,0:0:0:0:
168,378,112360,1,8,0:0:0:0:
201,291,112516,1,0,1:0:0:0:
289,321,112673,1,8,0:0:0:0:
337,241,112829,2,0,P|328:204|323:167,1,74.520001819336,0|8,1:0|0:0,0:0:0:0:
258,103,113141,102,0,P|294:112|427:132,1,149.040003638672,0|0,3:0|3:0,0:0:0:0:
493,163,113610,2,0,P|497:126|506:89,1,74.520001819336,8|0,0:0|3:0,0:0:0:0:
503,73,113844,1,0,3:0:0:0:
499,58,113923,2,0,P|462:53|425:44,1,74.520001819336,0|8,3:0|0:0,0:0:0:0:
343,0,114235,1,0,3:0:0:0:
261,48,114391,6,0,P|316:94|322:166,1,149.040003638672,8|0,0:0|3:0,0:0:0:0:
373,243,114860,1,8,0:0:0:0:
294,290,115016,2,0,P|257:294|220:303,1,74.520001819336,0|8,3:0|0:0,0:0:0:0:
139,366,115329,1,8,0:0:0:0:
139,366,115407,1,8,0:0:0:0:
139,366,115485,2,0,P|134:329|125:292,1,74.520001819336,8|0,0:0|3:0,0:0:0:0:
160,209,115798,101,0,3:0:0:0:
64,196,115954,2,0,P|47:123|36:49,1,149.040003638672,0|0,3:0|3:0,0:0:0:0:
118,0,116423,6,0,L|182:11,3,37.260000909668,0|0|8|0,3:0|3:0|3:0|3:0,0:0:0:0:
157,32,116735,2,0,L|221:43,3,37.260000909668,8|0|8|0,0:0|3:0|3:0|3:0,0:0:0:0:
211,61,117048,70,0,L|371:40,1,149.040003638672,6|12,1:0|0:0,0:0:0:0:
512,115,117516,2,0,P|474:104|431:102,1,74.520001819336,6|0,1:0|0:0,0:0:0:0:
355,141,117829,2,0,L|371:222,1,74.520001819336,6|0,1:0|0:0,0:0:0:0:
298,278,118141,2,0,B|349:315|325:387|325:387|316:358|284:345,1,149.040003638672,14|0,1:0|0:0,0:0:0:0:
297,359,118532,1,0,0:0:0:0:
283,354,118610,1,4,3:2:0:0:
47,261,118923,2,0,B|57:213|57:213|55:208|55:208|74:126,2,111.780002729004,12|12|12,0:0|0:0|0:0,0:0:0:0:
111,345,119548,38,0,P|125:309|165:278,1,74.520001819336,12|0,0:0|3:0,0:0:0:0:
231,241,119860,1,8,0:0:0:0:
208,149,120016,2,0,P|244:157|281:162,1,74.520001819336,0|0,3:0|3:0,0:0:0:0:
379,194,120329,1,0,3:0:0:0:
379,194,120407,1,0,3:0:0:0:
379,194,120485,2,0,P|371:157|366:120,1,74.520001819336,8|0,0:0|3:0,0:0:0:0:
304,51,120798,101,8,0:0:0:0:
436,56,120954,2,0,P|404:39|384:7,1,74.520001819336,0|8,3:0|0:0,0:0:0:0:
500,131,121266,1,0,3:0:0:0:
500,131,121423,2,0,P|494:175|452:219,1,74.520001819336,8|0,0:0|3:0,0:0:0:0:
453,343,121735,2,0,P|434:311|431:274,1,74.520001819336,8|0,0:0|3:0,0:0:0:0:
345,310,122048,6,0,P|308:301|271:296,1,74.520001819336,0|0,3:2|3:0,0:0:0:0:
203,235,122360,1,8,0:0:0:0:
170,322,122516,1,0,3:0:0:0:
91,272,122673,1,8,0:0:0:0:
13,329,122829,2,0,P|8:292|0:255,1,74.520001819336,0|8,3:0|0:0,0:0:0:0:
32,168,123141,102,0,P|68:177|201:197,1,149.040003638672,0|0,3:0|3:0,0:0:0:0:
260,154,123610,2,0,P|251:117|246:80,1,74.520001819336,8|0,0:0|3:0,0:0:0:0:
239,65,123844,1,0,3:0:0:0:
232,51,123923,2,0,P|268:59|305:64,1,74.520001819336,0|4,3:0|3:0,0:0:0:0:
383,116,124235,1,8,0:0:0:0:
441,44,124391,1,6,0:0:0:0:
256,192,124469,12,4,127048,3:2:0:0:
