osu file format v14

[General]
AudioFilename: audio.mp3
AudioLeadIn: 0
PreviewTime: 75129
Countdown: 0
SampleSet: Soft
StackLeniency: 0.7
Mode: 3
LetterboxInBreaks: 0
SpecialStyle: 0
WidescreenStoryboard: 1

[Editor]
DistanceSpacing: 0.1
BeatDivisor: 4
GridSize: 32
TimelineZoom: 1.4

[Metadata]
Title:Bliss
TitleUnicode:Bliss
Artist:litmus*
ArtistUnicode:litmus*
Creator:Jakads
Version:Normal
Source:THE BMS OF FIGHTERS XVI -NEO DYSTOPIA-
Tags:featured artist fa BOFXVI instrumental electronic Yesod EDM Dance Electro House Future Bounce EP Ester GroundbreakinG 2020 COMPILATION ALBUM Disc 1 Good Morning Station FAMoss
BeatmapID:3559182
BeatmapSetID:1741009

[Difficulty]
HPDrainRate:7
CircleSize:6
OverallDifficulty:7
ApproachRate:5
SliderMultiplier:1.4
SliderTickRate:1

[Events]
//Background and Video events
0,0,"bliss.jpg",0,0
Video,-1790,"blessed.mp4"
//Break Periods
//Storyboard Layer 0 (Background)
//Storyboard Layer 1 (Fail)
//Storyboard Layer 2 (Pass)
//Storyboard Layer 3 (Foreground)
//Storyboard Layer 4 (Overlay)
//Storyboard Sound Samples

[TimingPoints]
129,468.75,4,2,1,70,1,0
30129,-100,4,2,1,70,0,1
45129,-100,4,2,1,70,0,0
75129,-100,4,2,1,70,0,1
89660,-100,4,2,1,70,0,0
90129,-100,4,2,1,70,0,1
105129,-100,4,2,1,70,0,0

[HitObjects]
42,192,129,128,0,597:0:0:0:0:
384,192,597,1,0,0:0:0:100:02_clap_snare - Part_1.wav
128,192,1066,128,0,1535:0:0:0:0:
384,192,1535,1,0,0:0:0:100:02_clap_snare - Part_1.wav
213,192,1769,128,0,2238:0:0:0:0:
384,192,2472,1,0,0:0:0:100:02_clap_snare - Part_1.wav
128,192,2941,1,0,0:0:0:0:
128,192,3293,1,0,0:0:0:0:
384,192,3410,1,0,0:0:0:100:02_clap_snare - Part_1.wav
128,192,3644,1,0,0:0:0:0:
298,192,3879,128,0,4347:0:0:0:0:
128,192,4347,1,0,0:0:0:100:02_clap_snare - Part_1.wav
384,192,4816,128,0,5285:0:0:0:0:
128,192,5285,1,0,0:0:0:100:02_clap_snare - Part_1.wav
469,192,5519,128,0,5988:0:0:0:0:
128,192,6691,128,0,7160:0:0:0:100:12_snareroll_040.wav
384,192,6691,1,0,0:0:0:0:
298,192,7160,1,0,0:0:0:100:12_snareroll_186.wav
469,192,7160,1,0,0:0:0:0:
213,192,7394,1,0,0:0:0:100:13_perc_002.wav
42,192,7629,128,0,8097:0:0:0:0:
384,192,7629,1,0,0:0:0:0:
298,192,8097,1,0,0:0:0:100:02_clap_snare - Part_1.wav
128,192,8566,128,0,9035:0:0:0:0:
384,192,8566,1,0,0:0:0:0:
298,192,9035,1,0,0:0:0:100:02_clap_snare - Part_1.wav
213,192,9269,128,0,9738:0:0:0:0:
384,192,9504,1,0,0:0:0:0:
298,192,9972,1,0,0:0:0:100:02_clap_snare - Part_1.wav
128,192,10441,1,0,0:0:0:0:
384,192,10441,1,0,0:0:0:0:
128,192,10793,1,0,0:0:0:0:
298,192,10910,1,0,0:0:0:100:02_clap_snare - Part_1.wav
128,192,11144,1,0,0:0:0:0:
213,192,11379,1,0,0:0:0:0:
298,192,11379,128,0,11847:0:0:0:0:
128,192,11847,1,0,0:0:0:100:02_clap_snare - Part_1.wav
213,192,12316,1,0,0:0:0:0:
384,192,12316,128,0,12785:0:0:0:0:
128,192,12785,1,0,0:0:0:100:02_clap_snare - Part_1.wav
469,192,13019,128,0,13488:0:0:0:0:
213,192,13488,1,0,0:0:0:0:
469,192,13722,1,0,0:0:0:0:
42,192,13957,1,0,0:0:0:100:12_snareroll_186.wav
213,192,13957,1,0,0:0:0:0:
298,192,14191,1,0,0:0:0:100:02_clap_snare - Part_5.wav
469,192,14191,128,0,14660:0:0:0:0:
128,192,14660,1,0,0:0:0:100:13_perc_002.wav
213,192,14660,1,0,0:0:0:0:
42,192,15129,1,0,0:0:0:100:02_clap_snare - Part_1.wav
298,192,15129,1,0,0:0:0:100:25_explode_005.wav
469,192,15129,1,0,0:0:0:0:
42,192,15597,1,0,0:0:0:100:02_clap_snare - Part_1.wav
213,192,15597,1,0,0:0:0:0:
298,192,15832,1,0,0:0:0:0:
42,192,16066,1,0,0:0:0:100:02_clap_snare - Part_1.wav
384,192,16066,1,0,0:0:0:0:
298,192,16418,1,0,0:0:0:0:
42,192,16535,1,0,0:0:0:100:02_clap_snare - Part_1.wav
213,192,16769,1,0,0:0:0:0:
128,192,17004,1,0,0:0:0:100:02_clap_snare - Part_1.wav
298,192,17238,1,0,0:0:0:0:
128,192,17472,1,0,0:0:0:100:02_clap_snare - Part_1.wav
213,192,17472,1,0,0:0:0:0:
298,192,17707,1,0,0:0:0:0:
128,192,17941,1,0,0:0:0:100:02_clap_snare - Part_1.wav
384,192,17941,1,0,0:0:0:0:
213,192,18175,1,0,0:0:0:0:
128,192,18410,1,0,0:0:0:100:02_clap_snare - Part_1.wav
298,192,18410,1,0,0:0:0:0:
384,192,18644,1,0,0:0:0:0:
213,192,18879,1,0,0:0:0:100:02_clap_snare - Part_1.wav
469,192,18879,1,0,0:0:0:0:
128,192,19347,1,0,0:0:0:100:02_clap_snare - Part_1.wav
469,192,19347,1,0,0:0:0:0:
213,192,19582,1,0,0:0:0:0:
298,192,19816,1,0,0:0:0:100:02_clap_snare - Part_1.wav
469,192,19816,1,0,0:0:0:0:
213,192,20168,1,0,0:0:0:0:
469,192,20285,1,0,0:0:0:100:02_clap_snare - Part_1.wav
298,192,20519,1,0,0:0:0:0:
384,192,20754,1,0,0:0:0:100:02_clap_snare - Part_1.wav
213,192,20988,1,0,0:0:0:0:
298,192,21222,1,0,0:0:0:100:02_clap_snare - Part_1.wav
384,192,21222,1,0,0:0:0:0:
213,192,21457,1,0,0:0:0:0:
128,192,21691,1,0,0:0:0:100:02_clap_snare - Part_1.wav
384,192,21691,1,0,0:0:0:0:
298,192,21925,1,0,0:0:0:100:02_clap_snare - Part_1.wav
213,192,22160,1,0,0:0:0:50:12_snareroll_040.wav
384,192,22160,1,0,0:0:0:0:
42,192,22394,1,0,0:0:0:50:13_perc_002.wav
384,192,22629,1,4,0:0:0:0:
469,192,22629,1,0,0:0:0:100:02_clap_snare - Part_1.wav
128,192,22863,1,0,0:0:0:100:02_clap_snare - Part_1.wav
384,192,23097,1,0,0:0:0:100:02_clap_snare - Part_1.wav
469,192,23097,1,0,0:0:0:0:
128,192,23332,1,0,0:0:0:100:02_clap_snare - Part_1.wav
298,192,23566,1,0,0:0:0:100:02_clap_snare - Part_1.wav
469,192,23566,1,0,0:0:0:0:
213,192,23800,1,0,0:0:0:100:02_clap_snare - Part_1.wav
298,192,24035,1,0,0:0:0:100:02_clap_snare - Part_1.wav
469,192,24035,1,0,0:0:0:0:
213,192,24269,1,0,0:0:0:100:02_clap_snare - Part_1.wav
42,192,24504,1,0,0:0:0:100:02_clap_snare - Part_1.wav
128,192,24504,1,0,0:0:0:0:
384,192,24738,1,0,0:0:0:100:02_clap_snare - Part_1.wav
42,192,24972,1,0,0:0:0:100:02_clap_snare - Part_1.wav
128,192,24972,1,0,0:0:0:0:
384,192,25207,1,0,0:0:0:100:02_clap_snare - Part_1.wav
42,192,25441,1,0,0:0:0:100:02_clap_snare - Part_1.wav
213,192,25441,1,0,0:0:0:0:
298,192,25675,1,0,0:0:0:100:02_clap_snare - Part_1.wav
42,192,25910,1,0,0:0:0:100:02_clap_snare - Part_1.wav
213,192,25910,1,0,0:0:0:0:
298,192,26144,1,0,0:0:0:100:02_clap_snare - Part_1.wav
384,192,26379,1,0,0:0:0:100:02_clap_snare - Part_1.wav
469,192,26379,1,0,0:0:0:0:
42,192,26613,1,0,0:0:0:100:02_clap_snare - Part_1.wav
128,192,26613,1,0,0:0:0:0:
384,192,26847,1,0,0:0:0:100:02_clap_snare - Part_1.wav
469,192,26847,1,0,0:0:0:0:
42,192,27082,1,0,0:0:0:100:02_clap_snare - Part_1.wav
128,192,27082,1,0,0:0:0:0:
298,192,27316,1,0,0:0:0:100:02_clap_snare - Part_1.wav
384,192,27316,1,0,0:0:0:0:
128,192,27550,1,0,0:0:0:100:02_clap_snare - Part_1.wav
213,192,27550,1,0,0:0:0:0:
384,192,27785,1,0,0:0:0:100:02_clap_snare - Part_1.wav
298,192,27902,1,0,0:0:0:100:02_clap_snare - Part_1.wav
213,192,28019,1,0,0:0:0:100:02_clap_snare - Part_1.wav
128,192,28136,1,0,0:0:0:100:02_clap_snare - Part_1.wav
298,192,28254,1,0,0:0:0:100:25_explode_008.wav
384,192,28254,1,0,0:0:0:0:
42,192,28957,1,0,0:0:0:100:12_snareroll_186.wav
213,192,28957,1,0,0:0:0:0:
298,192,29191,1,0,0:0:0:100:12_bigsnare_000.wav
469,192,29191,1,0,0:0:0:0:
128,192,29425,1,0,0:0:0:100:06_tom - Part_2.wav
213,192,29660,1,0,0:0:0:100:13_perc_002.wav
384,192,29660,1,0,0:0:0:0:
42,192,30129,1,2,0:0:0:0:
128,192,30129,1,4,0:0:0:0:
298,192,30129,1,0,0:0:0:0:
42,192,30597,1,2,0:0:0:0:
213,192,30597,1,0,0:0:0:0:
298,192,30832,1,0,0:0:0:0:
128,192,31066,1,2,0:0:0:0:
384,192,31066,1,0,0:0:0:0:
128,192,31535,1,2,0:0:0:0:
298,192,31535,1,0,0:0:0:0:
213,192,31886,1,2,0:0:0:0:
384,192,32004,1,2,0:0:0:0:
469,192,32004,1,0,0:0:0:100:04_crash - Part_2.wav
128,192,32238,1,0,0:0:0:0:
384,192,32472,1,2,0:0:0:0:
469,192,32472,1,0,0:0:0:100:04_crash - Part_2.wav
213,192,32707,1,0,0:0:0:0:
42,192,32941,1,2,0:0:0:0:
128,192,32941,1,0,0:0:0:100:04_crash - Part_2.wav
298,192,33175,1,0,0:0:0:0:
42,192,33410,1,2,0:0:0:0:
128,192,33410,1,0,0:0:0:100:04_crash - Part_2.wav
384,192,33644,1,0,0:0:0:0:
213,192,33879,1,2,0:0:0:0:
469,192,33879,1,0,0:0:0:100:04_crash - Part_5.wav
213,192,34347,1,2,0:0:0:0:
469,192,34347,1,0,0:0:0:0:
298,192,34582,1,0,0:0:0:0:
128,192,34816,1,2,0:0:0:0:
384,192,34816,1,0,0:0:0:0:
213,192,35285,1,2,0:0:0:0:
298,192,35285,1,0,0:0:0:0:
469,192,35636,1,2,0:0:0:0:
42,192,35754,1,2,0:0:0:0:
128,192,35754,1,0,0:0:0:100:04_crash - Part_2.wav
298,192,35988,1,0,0:0:0:0:
42,192,36222,1,2,0:0:0:0:
128,192,36222,1,0,0:0:0:100:04_crash - Part_2.wav
213,192,36457,1,0,0:0:0:0:
298,192,36691,1,2,0:0:0:0:
469,192,36691,1,0,0:0:0:100:04_crash - Part_2.wav
384,192,36925,1,0,0:0:0:0:
42,192,37160,1,2,0:0:0:0:
213,192,37160,1,0,0:0:0:100:04_crash - Part_2.wav
128,192,37511,1,2,0:0:0:0:
384,192,37511,1,0,0:0:0:100:04_crash - Part_5.wav
42,192,38097,1,2,0:0:0:0:
213,192,38097,1,0,0:0:0:0:
298,192,38332,1,0,0:0:0:0:
128,192,38566,1,2,0:0:0:0:
384,192,38566,1,0,0:0:0:0:
128,192,39035,1,2,0:0:0:0:
298,192,39035,1,0,0:0:0:0:
213,192,39386,1,2,0:0:0:0:
384,192,39504,1,2,0:0:0:0:
469,192,39504,1,0,0:0:0:100:04_crash - Part_2.wav
128,192,39738,1,0,0:0:0:0:
384,192,39972,1,2,0:0:0:0:
469,192,39972,1,0,0:0:0:100:04_crash - Part_2.wav
298,192,40207,1,0,0:0:0:0:
42,192,40441,1,2,0:0:0:0:
128,192,40441,1,0,0:0:0:100:04_crash - Part_2.wav
384,192,40675,1,0,0:0:0:0:
42,192,40910,1,2,0:0:0:0:
128,192,40910,1,0,0:0:0:100:04_crash - Part_2.wav
213,192,41144,1,0,0:0:0:0:
298,192,41379,1,2,0:0:0:0:
469,192,41379,1,0,0:0:0:100:04_crash - Part_5.wav
213,192,41847,1,2,0:0:0:0:
469,192,41847,1,0,0:0:0:0:
298,192,42082,1,0,0:0:0:0:
128,192,42316,1,2,0:0:0:0:
384,192,42316,1,0,0:0:0:100:04_crash - Part_5.wav
213,192,42785,1,2,0:0:0:0:
298,192,42785,1,0,0:0:0:100:04_crash - Part_5.wav
42,192,43136,1,2,0:0:0:0:
469,192,43136,128,0,43488:0:0:0:100:04_crash - Part_5.wav
213,192,43488,1,0,0:0:0:100:11_fillin_000.wav
469,192,43722,1,0,0:0:0:100:11_fillin_001.wav
213,192,43957,1,0,0:0:0:100:11_fillin_000.wav
298,192,44191,1,0,0:0:0:100:11_fillin_002.wav
469,192,44191,128,0,44660:0:0:0:0:
128,192,44660,1,0,0:0:0:100:13_perc_002.wav
213,192,44660,1,0,0:0:0:0:
42,192,45129,1,2,0:0:0:0:
213,192,45129,1,4,0:0:0:0:
469,192,45129,1,0,0:0:0:0:
384,192,45363,1,0,0:0:0:0:
213,192,45597,1,2,0:0:0:0:
298,192,45597,1,0,0:0:0:0:
128,192,46066,1,2,0:0:0:0:
384,192,46066,1,0,0:0:0:0:
298,192,46300,1,0,0:0:0:0:
128,192,46535,1,2,0:0:0:0:
213,192,46535,1,0,0:0:0:0:
298,192,47004,1,2,0:0:0:0:
384,192,47004,1,0,0:0:0:0:
213,192,47238,1,0,0:0:0:0:
128,192,47472,1,2,0:0:0:0:
384,192,47472,1,0,0:0:0:0:
213,192,47941,1,2,0:0:0:0:
298,192,47941,1,0,0:0:0:0:
128,192,48175,1,0,0:0:0:0:
42,192,48410,1,2,0:0:0:0:
298,192,48410,1,0,0:0:0:0:
42,192,48879,1,2,0:0:0:0:
384,192,48879,1,0,0:0:0:0:
128,192,49113,1,0,0:0:0:0:
213,192,49347,1,2,0:0:0:0:
384,192,49347,1,0,0:0:0:0:
128,192,49816,1,2,0:0:0:0:
469,192,49816,1,0,0:0:0:0:
213,192,50050,1,0,0:0:0:0:
298,192,50285,1,2,0:0:0:0:
469,192,50285,1,0,0:0:0:0:
42,192,50754,1,2,0:0:0:0:
213,192,50754,1,0,0:0:0:0:
298,192,50988,1,0,0:0:0:0:
42,192,51222,1,2,0:0:0:0:
384,192,51222,1,0,0:0:0:0:
128,192,51691,1,2,0:0:0:0:
298,192,51691,1,0,0:0:0:0:
384,192,51925,1,2,0:0:0:0:
128,192,52043,1,0,0:0:0:100:11_fillin_000.wav
213,192,52160,1,2,0:0:0:0:
469,192,52160,1,0,0:0:0:0:
384,192,52394,1,0,0:0:0:0:
42,192,52629,1,2,0:0:0:0:
213,192,52629,1,0,0:0:0:100:04_crash - Part_5.wav
298,192,52863,1,0,0:0:0:0:
128,192,53097,1,2,0:0:0:0:
384,192,53097,1,0,0:0:0:0:
213,192,53332,1,0,0:0:0:0:
298,192,53566,1,2,0:0:0:0:
469,192,53566,1,0,0:0:0:0:
128,192,53800,1,0,0:0:0:0:
213,192,54035,1,2,0:0:0:0:
384,192,54035,1,0,0:0:0:0:
298,192,54269,1,0,0:0:0:0:
42,192,54504,1,2,0:0:0:0:
213,192,54504,1,0,0:0:0:0:
384,192,54738,1,0,0:0:0:0:
213,192,54972,1,2,0:0:0:0:
298,192,54972,1,0,0:0:0:0:
128,192,55207,1,0,0:0:0:0:
298,192,55441,1,2,0:0:0:0:
469,192,55441,1,0,0:0:0:0:
213,192,55675,1,0,0:0:0:0:
128,192,55910,1,2,0:0:0:0:
298,192,55910,1,0,0:0:0:0:
384,192,56144,1,0,0:0:0:0:
42,192,56379,1,2,0:0:0:0:
213,192,56379,1,0,0:0:0:0:
298,192,56613,1,0,0:0:0:0:
128,192,56847,1,2,0:0:0:0:
384,192,56847,1,0,0:0:0:0:
213,192,57082,1,0,0:0:0:0:
298,192,57316,1,2,0:0:0:0:
469,192,57316,1,0,0:0:0:0:
128,192,57550,1,0,0:0:0:0:
213,192,57785,1,2,0:0:0:0:
384,192,57785,1,0,0:0:0:0:
298,192,58019,128,0,58488:0:0:0:0:
42,192,58254,1,2,0:0:0:0:
213,192,58488,1,0,0:0:0:0:
298,192,58722,1,2,0:0:0:0:
469,192,58722,1,0,0:0:0:0:
213,192,58957,1,0,0:0:0:0:
42,192,59191,1,2,0:0:0:0:
298,192,59191,128,0,59660:0:0:0:100:02_clap_snare - Part_5.wav
42,192,59660,1,2,0:0:0:0:
213,192,59660,1,0,0:0:0:100:11_fillin_004.wav
42,192,60129,1,0,0:0:0:100:02_clap_snare - Part_1.wav
213,192,60129,1,0,0:0:0:100:25_explode_008.wav
469,192,60129,1,0,0:0:0:0:
298,192,60363,1,0,0:0:0:0:
384,192,60597,1,0,0:0:0:100:02_clap_snare - Part_1.wav
128,192,61066,1,0,0:0:0:100:02_clap_snare - Part_1.wav
298,192,61300,1,0,0:0:0:0:
384,192,61535,1,0,0:0:0:100:02_clap_snare - Part_1.wav
213,192,61769,1,0,0:0:0:0:
298,192,62238,1,0,0:0:0:0:
384,192,62472,1,0,0:0:0:100:02_clap_snare - Part_1.wav
469,192,62707,1,0,0:0:0:0:
384,192,63175,1,0,0:0:0:0:
298,192,63410,1,0,0:0:0:100:02_clap_snare - Part_1.wav
213,192,63527,1,0,0:0:0:0:
128,192,63644,1,0,0:0:0:0:
42,192,63879,1,0,0:0:0:100:02_clap_snare - Part_1.wav
298,192,64113,1,0,0:0:0:0:
384,192,64347,1,0,0:0:0:100:02_clap_snare - Part_1.wav
128,192,64816,1,0,0:0:0:100:02_clap_snare - Part_1.wav
298,192,65050,1,0,0:0:0:0:
384,192,65285,1,0,0:0:0:100:02_clap_snare - Part_1.wav
213,192,65519,1,0,0:0:0:0:
298,192,65988,1,0,0:0:0:0:
384,192,66222,1,0,0:0:0:100:02_clap_snare - Part_1.wav
469,192,66457,1,0,0:0:0:0:
384,192,66925,1,0,0:0:0:100:02_clap_snare - Part_1.wav
298,192,67160,1,0,0:0:0:50:12_snareroll_040.wav
213,192,67277,1,0,0:0:0:0:
128,192,67394,1,0,0:0:0:50:13_perc_002.wav
42,192,67629,1,4,0:0:0:0:
469,192,67629,1,0,0:0:0:100:02_clap_snare - Part_1.wav
384,192,67863,1,0,0:0:0:100:02_clap_snare - Part_1.wav
213,192,68097,1,0,0:0:0:100:02_clap_snare - Part_1.wav
298,192,68097,1,0,0:0:0:0:
128,192,68332,1,0,0:0:0:100:02_clap_snare - Part_1.wav
42,192,68566,1,0,0:0:0:100:02_clap_snare - Part_1.wav
469,192,68566,1,0,0:0:0:0:
384,192,68800,1,0,0:0:0:100:02_clap_snare - Part_1.wav
213,192,69035,1,0,0:0:0:100:02_clap_snare - Part_1.wav
298,192,69035,1,0,0:0:0:0:
128,192,69269,1,0,0:0:0:100:02_clap_snare - Part_1.wav
42,192,69504,1,0,0:0:0:100:02_clap_snare - Part_1.wav
298,192,69504,1,0,0:0:0:0:
384,192,69738,1,0,0:0:0:100:02_clap_snare - Part_1.wav
42,192,69972,1,0,0:0:0:100:02_clap_snare - Part_1.wav
469,192,69972,1,0,0:0:0:0:
128,192,70207,1,0,0:0:0:100:02_clap_snare - Part_1.wav
213,192,70441,1,0,0:0:0:100:02_clap_snare - Part_1.wav
298,192,70441,1,0,0:0:0:0:
384,192,70675,1,0,0:0:0:100:02_clap_snare - Part_1.wav
42,192,70910,1,0,0:0:0:100:02_clap_snare - Part_1.wav
469,192,70910,1,0,0:0:0:0:
128,192,71144,1,0,0:0:0:100:02_clap_snare - Part_1.wav
298,192,71379,1,0,0:0:0:100:02_clap_snare - Part_1.wav
469,192,71379,1,0,0:0:0:0:
42,192,71613,1,0,0:0:0:100:02_clap_snare - Part_1.wav
213,192,71613,1,0,0:0:0:0:
298,192,71847,1,0,0:0:0:100:02_clap_snare - Part_1.wav
469,192,71847,1,0,0:0:0:0:
42,192,72082,1,0,0:0:0:100:02_clap_snare - Part_1.wav
213,192,72082,1,0,0:0:0:0:
298,192,72316,1,0,0:0:0:100:02_clap_snare - Part_1.wav
384,192,72316,1,0,0:0:0:0:
128,192,72550,1,0,0:0:0:100:02_clap_snare - Part_1.wav
213,192,72550,1,0,0:0:0:0:
384,192,72785,1,0,0:0:0:100:02_clap_snare - Part_1.wav
298,192,72902,1,0,0:0:0:100:02_clap_snare - Part_1.wav
213,192,73019,1,0,0:0:0:100:02_clap_snare - Part_1.wav
128,192,73136,1,0,0:0:0:100:02_clap_snare - Part_1.wav
298,192,73254,1,0,0:0:0:100:25_explode_008.wav
384,192,73254,1,0,0:0:0:0:
42,192,73957,1,0,0:0:0:100:12_snareroll_186.wav
213,192,73957,1,0,0:0:0:0:
298,192,74191,1,0,0:0:0:100:12_bigsnare_000.wav
469,192,74191,1,0,0:0:0:0:
128,192,74425,1,0,0:0:0:100:06_tom - Part_2.wav
213,192,74660,1,0,0:0:0:100:13_perc_002.wav
384,192,74660,1,0,0:0:0:0:
42,192,75129,1,2,0:0:0:0:
128,192,75129,1,4,0:0:0:0:
298,192,75129,1,0,0:0:0:0:
42,192,75597,1,2,0:0:0:0:
213,192,75597,1,0,0:0:0:0:
298,192,75832,1,0,0:0:0:0:
128,192,76066,1,2,0:0:0:0:
384,192,76066,1,0,0:0:0:0:
128,192,76535,1,2,0:0:0:0:
298,192,76535,1,0,0:0:0:0:
213,192,76886,1,2,0:0:0:0:
384,192,77004,1,2,0:0:0:0:
469,192,77004,1,0,0:0:0:100:04_crash - Part_2.wav
128,192,77238,1,0,0:0:0:0:
384,192,77472,1,2,0:0:0:0:
469,192,77472,1,0,0:0:0:100:04_crash - Part_2.wav
213,192,77707,1,0,0:0:0:0:
42,192,77941,1,2,0:0:0:0:
128,192,77941,1,0,0:0:0:100:04_crash - Part_2.wav
298,192,78175,1,0,0:0:0:0:
42,192,78410,1,2,0:0:0:0:
128,192,78410,1,0,0:0:0:100:04_crash - Part_2.wav
384,192,78644,1,0,0:0:0:0:
213,192,78879,1,2,0:0:0:0:
469,192,78879,1,0,0:0:0:100:04_crash - Part_5.wav
213,192,79347,1,2,0:0:0:0:
469,192,79347,1,0,0:0:0:0:
298,192,79582,1,0,0:0:0:0:
128,192,79816,1,2,0:0:0:0:
384,192,79816,1,0,0:0:0:0:
213,192,80285,1,2,0:0:0:0:
298,192,80285,1,0,0:0:0:0:
469,192,80636,1,2,0:0:0:0:
42,192,80754,1,2,0:0:0:0:
128,192,80754,1,0,0:0:0:100:04_crash - Part_2.wav
298,192,80988,1,0,0:0:0:0:
42,192,81222,1,2,0:0:0:0:
128,192,81222,1,0,0:0:0:100:04_crash - Part_2.wav
213,192,81457,1,0,0:0:0:0:
298,192,81691,1,2,0:0:0:0:
469,192,81691,1,0,0:0:0:100:04_crash - Part_2.wav
384,192,81925,1,0,0:0:0:0:
42,192,82160,1,2,0:0:0:0:
213,192,82160,1,0,0:0:0:100:04_crash - Part_2.wav
128,192,82511,1,2,0:0:0:0:
384,192,82511,1,0,0:0:0:100:04_crash - Part_5.wav
42,192,83097,1,2,0:0:0:0:
213,192,83097,1,0,0:0:0:0:
298,192,83332,1,0,0:0:0:0:
128,192,83566,1,2,0:0:0:0:
384,192,83566,1,0,0:0:0:0:
128,192,84035,1,2,0:0:0:0:
298,192,84035,1,0,0:0:0:0:
213,192,84386,1,2,0:0:0:0:
384,192,84504,1,2,0:0:0:0:
469,192,84504,1,0,0:0:0:100:04_crash - Part_2.wav
128,192,84738,1,0,0:0:0:0:
384,192,84972,1,2,0:0:0:0:
469,192,84972,1,0,0:0:0:100:04_crash - Part_2.wav
298,192,85207,1,0,0:0:0:0:
42,192,85441,1,2,0:0:0:0:
128,192,85441,1,0,0:0:0:100:04_crash - Part_2.wav
384,192,85675,1,0,0:0:0:0:
42,192,85910,1,2,0:0:0:0:
128,192,85910,1,0,0:0:0:100:04_crash - Part_2.wav
213,192,86144,1,0,0:0:0:0:
298,192,86379,1,2,0:0:0:0:
469,192,86379,1,0,0:0:0:100:04_crash - Part_5.wav
213,192,86847,1,2,0:0:0:0:
469,192,86847,1,0,0:0:0:0:
298,192,87082,1,0,0:0:0:0:
128,192,87316,1,2,0:0:0:0:
384,192,87316,1,0,0:0:0:100:04_crash - Part_5.wav
213,192,87785,1,2,0:0:0:0:
298,192,87785,1,0,0:0:0:100:04_crash - Part_5.wav
42,192,88136,1,2,0:0:0:0:
469,192,88136,128,0,88488:0:0:0:100:04_crash - Part_5.wav
213,192,88488,1,0,0:0:0:100:11_fillin_000.wav
469,192,88722,1,0,0:0:0:100:11_fillin_001.wav
213,192,88957,1,0,0:0:0:100:11_fillin_000.wav
298,192,89191,1,0,0:0:0:100:11_fillin_002.wav
469,192,89191,128,0,89660:0:0:0:0:
128,192,89660,1,0,0:0:0:100:13_perc_002.wav
213,192,89660,1,0,0:0:0:0:
213,192,90129,1,2,0:0:0:0:
298,192,90129,1,4,0:0:0:0:
469,192,90129,1,0,0:0:0:0:
298,192,90480,1,0,0:0:0:100:02_clap_snare - Part_1.wav
42,192,90597,1,2,0:0:0:0:
128,192,90597,1,0,0:0:0:0:
384,192,90832,1,0,0:0:0:100:06_tom - Part_1.wav
213,192,91066,1,2,0:0:0:0:
469,192,91066,1,0,0:0:0:0:
213,192,91418,1,0,0:0:0:100:02_clap_snare - Part_1.wav
298,192,91535,1,2,0:0:0:0:
384,192,91535,1,0,0:0:0:0:
128,192,91769,1,0,0:0:0:100:02_clap_snare - Part_1.wav
213,192,91886,1,2,0:0:0:0:
298,192,92004,1,2,0:0:0:0:
469,192,92004,1,0,0:0:0:100:04_crash - Part_2.wav
128,192,92238,1,0,0:0:0:100:06_tom - Part_1.wav
384,192,92472,1,2,0:0:0:0:
469,192,92472,1,0,0:0:0:100:04_crash - Part_2.wav
213,192,92589,1,0,0:0:0:0:
298,192,92824,1,0,0:0:0:0:
42,192,92941,1,2,0:0:0:0:
128,192,92941,1,0,0:0:0:100:04_crash - Part_2.wav
384,192,93058,1,0,0:0:0:0:
213,192,93175,1,0,0:0:0:100:06_tom - Part_1.wav
128,192,93410,1,2,0:0:0:0:
298,192,93410,1,0,0:0:0:100:04_crash - Part_2.wav
384,192,93644,1,0,0:0:0:100:06_tom - Part_1.wav
42,192,93879,1,2,0:0:0:0:
298,192,93879,1,0,0:0:0:100:04_crash - Part_5.wav
298,192,94230,1,0,0:0:0:100:02_clap_snare - Part_1.wav
128,192,94347,1,2,0:0:0:0:
213,192,94347,1,0,0:0:0:0:
384,192,94582,1,0,0:0:0:100:06_tom - Part_1.wav
213,192,94816,1,2,0:0:0:0:
469,192,94816,1,0,0:0:0:0:
213,192,95168,1,0,0:0:0:100:02_clap_snare - Part_1.wav
298,192,95285,1,2,0:0:0:0:
384,192,95285,1,0,0:0:0:0:
128,192,95519,1,0,0:0:0:100:02_clap_snare - Part_1.wav
213,192,95636,1,2,0:0:0:0:
298,192,95754,1,2,0:0:0:0:
469,192,95754,1,0,0:0:0:100:04_crash - Part_2.wav
128,192,95988,1,0,0:0:0:100:06_tom - Part_1.wav
298,192,96222,1,2,0:0:0:0:
384,192,96222,1,0,0:0:0:100:04_crash - Part_2.wav
128,192,96457,1,0,0:0:0:100:06_tom - Part_1.wav
213,192,96691,1,2,0:0:0:0:
384,192,96691,1,0,0:0:0:100:04_crash - Part_2.wav
42,192,96925,1,0,0:0:0:100:06_tom - Part_1.wav
213,192,97160,1,2,0:0:0:0:
298,192,97160,1,0,0:0:0:100:04_crash - Part_2.wav
128,192,97511,1,2,0:0:0:0:
384,192,97511,1,0,0:0:0:100:04_crash - Part_5.wav
298,192,97980,1,0,0:0:0:100:02_clap_snare - Part_1.wav
42,192,98097,1,2,0:0:0:0:
128,192,98097,1,0,0:0:0:0:
384,192,98332,1,0,0:0:0:100:06_tom - Part_1.wav
213,192,98566,1,2,0:0:0:0:
469,192,98566,1,0,0:0:0:0:
213,192,98918,1,0,0:0:0:100:02_clap_snare - Part_1.wav
298,192,99035,1,2,0:0:0:0:
384,192,99035,1,0,0:0:0:0:
128,192,99269,1,0,0:0:0:100:02_clap_snare - Part_1.wav
213,192,99386,1,2,0:0:0:0:
298,192,99504,1,2,0:0:0:0:
469,192,99504,1,0,0:0:0:100:04_crash - Part_2.wav
128,192,99738,1,0,0:0:0:100:06_tom - Part_1.wav
384,192,99972,1,2,0:0:0:0:
469,192,99972,1,0,0:0:0:100:04_crash - Part_2.wav
213,192,100089,1,0,0:0:0:0:
298,192,100324,1,0,0:0:0:0:
42,192,100441,1,2,0:0:0:0:
128,192,100441,1,0,0:0:0:100:04_crash - Part_2.wav
384,192,100558,1,0,0:0:0:0:
213,192,100675,1,0,0:0:0:100:06_tom - Part_1.wav
128,192,100910,1,2,0:0:0:0:
298,192,100910,1,0,0:0:0:100:04_crash - Part_2.wav
384,192,101144,1,0,0:0:0:100:06_tom - Part_1.wav
42,192,101379,1,2,0:0:0:0:
298,192,101379,1,0,0:0:0:100:04_crash - Part_5.wav
298,192,101730,1,0,0:0:0:100:02_clap_snare - Part_1.wav
128,192,101847,1,2,0:0:0:0:
213,192,101847,1,0,0:0:0:0:
384,192,102082,1,0,0:0:0:100:06_tom - Part_1.wav
213,192,102316,1,2,0:0:0:0:
469,192,102316,1,0,0:0:0:100:04_crash - Part_5.wav
42,192,102785,1,2,0:0:0:0:
298,192,102785,1,0,0:0:0:100:04_crash - Part_5.wav
213,192,103136,1,2,0:0:0:0:
384,192,103136,128,0,103488:0:0:0:100:04_crash - Part_5.wav
469,192,103136,1,0,0:0:0:0:
128,192,103488,1,0,0:0:0:100:11_fillin_000.wav
384,192,103722,1,0,0:0:0:100:11_fillin_001.wav
128,192,103957,1,0,0:0:0:100:11_fillin_000.wav
384,192,104191,1,0,0:0:0:100:11_fillin_002.wav
298,192,104308,1,0,0:0:0:100:02_clap_snare - Part_4.wav
213,192,104425,1,0,0:0:0:100:02_clap_snare - Part_4.wav
128,192,104543,1,0,0:0:0:100:02_clap_snare - Part_4.wav
42,192,104660,1,0,0:0:0:100:13_perc_002.wav
384,192,104660,1,0,0:0:0:100:25_explode_005.wav
469,192,104660,1,0,0:0:0:0:
