osu file format v14

[General]
AudioFilename: audio.mp3
AudioLeadIn: 0
PreviewTime: 75129
Countdown: 0
SampleSet: Soft
StackLeniency: 0.7
Mode: 3
LetterboxInBreaks: 0
SpecialStyle: 0
WidescreenStoryboard: 0

[Editor]
DistanceSpacing: 0.1
BeatDivisor: 4
GridSize: 32
TimelineZoom: 1.4

[Metadata]
Title:Bliss
TitleUnicode:Bliss
Artist:litmus*
ArtistUnicode:litmus*
Creator:Jakads
Version:Another
Source:THE BMS OF FIGHTERS XVI -NEO DYSTOPIA-
Tags:featured artist fa BOFXVI instrumental electronic Yesod EDM Dance Electro House Future Bounce EP Ester GroundbreakinG 2020 COMPILATION ALBUM Disc 1 Good Morning Station FAMoss
BeatmapID:3559180
BeatmapSetID:1741009

[Difficulty]
HPDrainRate:8
CircleSize:6
OverallDifficulty:8
ApproachRate:5
SliderMultiplier:1.4
SliderTickRate:1

[Events]
//Background and Video events
0,0,"bliss.jpg",0,0
Video,-1790,"blessed.mp4"
//Break Periods
//Storyboard Layer 0 (Background)
//Storyboard Layer 1 (Fail)
//Storyboard Layer 2 (Pass)
//Storyboard Layer 3 (Foreground)
//Storyboard Layer 4 (Overlay)
//Storyboard Sound Samples

[TimingPoints]
129,468.75,4,2,1,70,1,0
30129,-100,4,2,1,70,0,1
45129,-100,4,2,1,70,0,0
75129,-100,4,2,1,70,0,1
89660,-100,4,2,1,70,0,0
90129,-100,4,2,1,70,0,1
105129,-100,4,2,1,70,0,0

[HitObjects]
42,192,129,128,0,480:0:0:0:0:
213,192,129,128,0,480:0:0:0:0:
42,192,597,1,0,0:0:0:100:02_clap_snare - Part_1.wav
213,192,597,1,0,0:0:0:0:
298,192,1066,128,0,1418:0:0:0:0:
469,192,1066,128,0,1418:0:0:0:0:
298,192,1535,1,0,0:0:0:100:02_clap_snare - Part_1.wav
469,192,1535,1,0,0:0:0:0:
213,192,1769,128,0,2238:0:0:0:0:
298,192,1769,128,0,2238:0:0:0:0:
213,192,2472,1,0,0:0:0:100:02_clap_snare - Part_1.wav
298,192,2472,1,0,0:0:0:0:
128,192,2941,128,0,3058:0:0:0:0:
384,192,2941,128,0,3058:0:0:0:0:
128,192,3293,128,0,3410:0:0:0:0:
384,192,3293,128,0,3410:0:0:0:0:
213,192,3410,1,0,0:0:0:100:02_clap_snare - Part_1.wav
298,192,3410,1,0,0:0:0:0:
128,192,3644,128,0,3761:0:0:0:0:
384,192,3644,128,0,3761:0:0:0:0:
42,192,3879,128,0,4230:0:0:0:0:
213,192,3879,128,0,4230:0:0:0:0:
42,192,4347,1,0,0:0:0:100:02_clap_snare - Part_1.wav
213,192,4347,1,0,0:0:0:0:
298,192,4816,128,0,5168:0:0:0:0:
469,192,4816,128,0,5168:0:0:0:0:
298,192,5285,1,0,0:0:0:100:02_clap_snare - Part_1.wav
469,192,5285,1,0,0:0:0:0:
213,192,5519,128,0,5988:0:0:0:0:
298,192,5519,128,0,5988:0:0:0:0:
298,192,6691,1,0,0:0:0:100:12_snareroll_040.wav
384,192,6691,1,0,0:0:0:0:
128,192,6808,1,0,0:0:0:0:
213,192,6808,1,0,0:0:0:0:
384,192,6925,1,0,0:0:0:100:12_snareroll_040.wav
298,192,6984,1,0,0:0:0:0:
213,192,7043,1,0,0:0:0:100:12_snareroll_040.wav
128,192,7101,1,0,0:0:0:0:
42,192,7160,1,0,0:0:0:100:12_snareroll_186.wav
384,192,7160,1,0,0:0:0:0:
469,192,7160,1,0,0:0:0:0:
213,192,7394,1,0,0:0:0:100:13_perc_002.wav
298,192,7394,1,0,0:0:0:0:
42,192,7629,128,0,7980:0:0:0:0:
213,192,7629,128,0,7980:0:0:0:0:
469,192,7629,1,0,0:0:0:0:
42,192,8097,1,0,0:0:0:100:02_clap_snare - Part_1.wav
213,192,8097,1,0,0:0:0:0:
469,192,8097,1,0,0:0:0:0:
42,192,8566,1,0,0:0:0:0:
298,192,8566,128,0,8918:0:0:0:0:
469,192,8566,128,0,8918:0:0:0:0:
42,192,9035,1,0,0:0:0:100:02_clap_snare - Part_1.wav
298,192,9035,1,0,0:0:0:0:
469,192,9035,1,0,0:0:0:0:
213,192,9269,128,0,9738:0:0:0:0:
298,192,9269,128,0,9738:0:0:0:0:
469,192,9504,1,0,0:0:0:0:
213,192,9972,1,0,0:0:0:100:02_clap_snare - Part_1.wav
298,192,9972,1,0,0:0:0:0:
469,192,9972,1,0,0:0:0:0:
42,192,10441,1,0,0:0:0:0:
128,192,10441,128,0,10558:0:0:0:0:
384,192,10441,128,0,10558:0:0:0:0:
128,192,10793,128,0,10910:0:0:0:0:
384,192,10793,128,0,10910:0:0:0:0:
42,192,10910,1,0,0:0:0:100:02_clap_snare - Part_1.wav
213,192,10910,1,0,0:0:0:0:
298,192,10910,1,0,0:0:0:0:
128,192,11144,128,0,11261:0:0:0:0:
384,192,11144,128,0,11261:0:0:0:0:
42,192,11379,128,0,11730:0:0:0:0:
213,192,11379,128,0,11730:0:0:0:0:
469,192,11379,1,0,0:0:0:0:
42,192,11847,1,0,0:0:0:100:02_clap_snare - Part_1.wav
213,192,11847,1,0,0:0:0:0:
469,192,11847,1,0,0:0:0:0:
42,192,12316,1,0,0:0:0:0:
298,192,12316,128,0,12668:0:0:0:0:
469,192,12316,128,0,12668:0:0:0:0:
42,192,12785,1,0,0:0:0:100:02_clap_snare - Part_1.wav
298,192,12785,1,0,0:0:0:0:
469,192,12785,1,0,0:0:0:0:
213,192,13019,128,0,13371:0:0:0:0:
298,192,13019,128,0,13371:0:0:0:0:
213,192,13488,128,0,13605:0:0:0:0:
298,192,13488,128,0,13605:0:0:0:0:
213,192,13722,128,0,13839:0:0:0:0:
298,192,13722,128,0,13839:0:0:0:0:
128,192,13957,1,0,0:0:0:100:12_snareroll_186.wav
213,192,13957,128,0,14074:0:0:0:0:
298,192,13957,128,0,14074:0:0:0:0:
384,192,13957,1,0,0:0:0:0:
298,192,14191,1,0,0:0:0:100:02_clap_snare - Part_5.wav
384,192,14191,1,0,0:0:0:0:
298,192,14308,1,0,0:0:0:100:02_clap_snare - Part_4.wav
384,192,14308,1,0,0:0:0:0:
128,192,14425,1,0,0:0:0:100:12_snareroll_186.wav
213,192,14425,1,0,0:0:0:0:
128,192,14543,1,0,0:0:0:0:
213,192,14543,1,0,0:0:0:0:
42,192,14660,1,0,0:0:0:100:13_perc_002.wav
298,192,14660,1,0,0:0:0:0:
384,192,14660,1,0,0:0:0:0:
469,192,14660,1,0,0:0:0:0:
42,192,15129,1,0,0:0:0:100:02_clap_snare - Part_1.wav
128,192,15129,1,0,0:0:0:100:25_explode_005.wav
298,192,15129,128,0,15246:0:0:0:0:
384,192,15129,1,0,0:0:0:0:
469,192,15129,1,0,0:0:0:0:
128,192,15480,1,0,0:0:0:0:
42,192,15597,1,0,0:0:0:100:02_clap_snare - Part_1.wav
213,192,15597,1,0,0:0:0:0:
298,192,15597,128,0,15714:0:0:0:0:
213,192,15832,1,0,0:0:0:0:
384,192,15832,128,0,15949:0:0:0:0:
42,192,16066,1,0,0:0:0:100:02_clap_snare - Part_1.wav
128,192,16066,1,0,0:0:0:0:
469,192,16066,128,0,16183:0:0:0:0:
213,192,16183,1,0,0:0:0:0:
213,192,16418,1,0,0:0:0:0:
384,192,16418,128,0,16535:0:0:0:0:
42,192,16535,1,0,0:0:0:100:02_clap_snare - Part_1.wav
128,192,16535,1,0,0:0:0:0:
128,192,16769,1,0,0:0:0:0:
298,192,16769,128,0,16886:0:0:0:0:
42,192,17004,1,0,0:0:0:100:02_clap_snare - Part_1.wav
384,192,17004,1,0,0:0:0:0:
469,192,17004,1,0,0:0:0:0:
128,192,17238,128,0,17355:0:0:0:0:
384,192,17355,1,0,0:0:0:0:
42,192,17472,128,0,17589:0:0:0:100:02_clap_snare - Part_1.wav
298,192,17472,1,0,0:0:0:0:
469,192,17472,1,0,0:0:0:0:
128,192,17707,128,0,17824:0:0:0:0:
298,192,17707,1,0,0:0:0:0:
213,192,17941,128,0,18058:0:0:0:100:02_clap_snare - Part_1.wav
384,192,17941,1,0,0:0:0:0:
469,192,17941,1,0,0:0:0:0:
298,192,18058,1,0,0:0:0:0:
42,192,18175,128,0,18293:0:0:0:0:
298,192,18293,1,0,0:0:0:0:
128,192,18410,128,0,18527:0:0:0:100:02_clap_snare - Part_1.wav
384,192,18410,1,0,0:0:0:0:
469,192,18410,1,0,0:0:0:0:
213,192,18644,128,0,18761:0:0:0:0:
384,192,18644,1,0,0:0:0:0:
42,192,18879,1,0,0:0:0:100:02_clap_snare - Part_1.wav
128,192,18879,1,0,0:0:0:0:
298,192,18879,128,0,18996:0:0:0:0:
384,192,19113,1,0,0:0:0:0:
128,192,19230,1,0,0:0:0:0:
42,192,19347,1,0,0:0:0:100:02_clap_snare - Part_1.wav
213,192,19347,1,0,0:0:0:0:
298,192,19347,128,0,19464:0:0:0:0:
213,192,19582,1,0,0:0:0:0:
384,192,19582,128,0,19699:0:0:0:0:
42,192,19816,1,0,0:0:0:100:02_clap_snare - Part_1.wav
128,192,19816,1,0,0:0:0:0:
469,192,19816,128,0,19933:0:0:0:0:
213,192,19933,1,0,0:0:0:0:
384,192,20050,1,0,0:0:0:0:
213,192,20168,1,0,0:0:0:0:
298,192,20168,128,0,20285:0:0:0:0:
42,192,20285,1,0,0:0:0:100:02_clap_snare - Part_1.wav
128,192,20285,1,0,0:0:0:0:
128,192,20519,1,0,0:0:0:0:
469,192,20519,128,0,20636:0:0:0:0:
213,192,20636,1,0,0:0:0:0:
42,192,20754,1,0,0:0:0:100:02_clap_snare - Part_1.wav
384,192,20754,1,0,0:0:0:0:
469,192,20754,1,0,0:0:0:0:
128,192,20988,128,0,21105:0:0:0:0:
213,192,20988,1,0,0:0:0:0:
384,192,21105,1,0,0:0:0:0:
42,192,21222,128,0,21339:0:0:0:100:02_clap_snare - Part_1.wav
298,192,21222,1,0,0:0:0:0:
469,192,21222,1,0,0:0:0:0:
128,192,21457,128,0,21574:0:0:0:0:
298,192,21457,1,0,0:0:0:0:
213,192,21691,128,0,21808:0:0:0:100:02_clap_snare - Part_1.wav
384,192,21691,1,0,0:0:0:0:
469,192,21691,1,0,0:0:0:0:
42,192,21808,1,0,0:0:0:0:
128,192,21808,1,0,0:0:0:0:
298,192,21925,128,0,22043:0:0:0:100:02_clap_snare - Part_1.wav
469,192,21925,1,0,0:0:0:0:
42,192,22043,1,0,0:0:0:100:02_clap_snare - Part_1.wav
128,192,22043,1,0,0:0:0:0:
213,192,22160,128,0,22277:0:0:0:50:12_snareroll_040.wav
384,192,22160,1,0,0:0:0:0:
469,192,22160,1,0,0:0:0:0:
128,192,22394,128,0,22511:0:0:0:50:13_perc_002.wav
298,192,22394,1,0,0:0:0:0:
42,192,22629,1,4,0:0:0:0:
128,192,22629,1,0,0:0:0:100:02_clap_snare - Part_1.wav
213,192,22629,1,0,0:0:0:0:
384,192,22629,128,0,22746:0:0:0:0:
469,192,22629,1,0,0:0:0:0:
42,192,22863,1,0,0:0:0:100:02_clap_snare - Part_1.wav
128,192,22863,1,0,0:0:0:0:
213,192,22980,1,0,0:0:0:0:
42,192,23097,1,0,0:0:0:100:02_clap_snare - Part_1.wav
128,192,23097,1,0,0:0:0:0:
298,192,23097,128,0,23214:0:0:0:0:
42,192,23332,1,0,0:0:0:100:02_clap_snare - Part_1.wav
128,192,23332,1,0,0:0:0:0:
213,192,23332,1,0,0:0:0:0:
384,192,23332,128,0,23449:0:0:0:0:
42,192,23566,1,0,0:0:0:100:02_clap_snare - Part_1.wav
213,192,23566,1,0,0:0:0:0:
469,192,23566,128,0,23683:0:0:0:0:
128,192,23683,1,0,0:0:0:0:
42,192,23800,1,0,0:0:0:100:02_clap_snare - Part_1.wav
213,192,23800,1,0,0:0:0:0:
384,192,23918,128,0,24035:0:0:0:0:
42,192,24035,1,0,0:0:0:100:02_clap_snare - Part_1.wav
128,192,24035,1,0,0:0:0:0:
213,192,24035,1,0,0:0:0:0:
42,192,24269,1,0,0:0:0:100:02_clap_snare - Part_1.wav
128,192,24269,1,0,0:0:0:0:
213,192,24269,1,0,0:0:0:0:
298,192,24269,128,0,24386:0:0:0:0:
298,192,24504,1,0,0:0:0:100:02_clap_snare - Part_1.wav
384,192,24504,1,0,0:0:0:0:
469,192,24504,1,0,0:0:0:0:
128,192,24738,128,0,24855:0:0:0:100:02_clap_snare - Part_1.wav
384,192,24738,1,0,0:0:0:0:
469,192,24738,1,0,0:0:0:0:
298,192,24855,1,0,0:0:0:0:
42,192,24972,128,0,25089:0:0:0:100:02_clap_snare - Part_1.wav
384,192,24972,1,0,0:0:0:0:
469,192,24972,1,0,0:0:0:0:
128,192,25207,128,0,25324:0:0:0:100:02_clap_snare - Part_1.wav
298,192,25207,1,0,0:0:0:0:
384,192,25207,1,0,0:0:0:0:
469,192,25207,1,0,0:0:0:0:
213,192,25441,128,0,25558:0:0:0:100:02_clap_snare - Part_1.wav
298,192,25441,1,0,0:0:0:0:
469,192,25441,1,0,0:0:0:0:
384,192,25558,1,0,0:0:0:0:
42,192,25675,128,0,25793:0:0:0:100:02_clap_snare - Part_1.wav
298,192,25675,1,0,0:0:0:0:
469,192,25675,1,0,0:0:0:0:
128,192,25910,128,0,26027:0:0:0:100:02_clap_snare - Part_1.wav
298,192,25910,1,0,0:0:0:0:
384,192,25910,1,0,0:0:0:0:
469,192,25910,1,0,0:0:0:0:
213,192,26144,128,0,26261:0:0:0:100:02_clap_snare - Part_1.wav
298,192,26144,1,0,0:0:0:0:
384,192,26144,1,0,0:0:0:0:
469,192,26144,1,0,0:0:0:0:
42,192,26379,1,0,0:0:0:100:02_clap_snare - Part_1.wav
128,192,26379,1,0,0:0:0:0:
384,192,26379,1,0,0:0:0:0:
213,192,26496,1,0,0:0:0:100:02_clap_snare - Part_1.wav
469,192,26496,1,0,0:0:0:0:
42,192,26613,1,0,0:0:0:100:02_clap_snare - Part_1.wav
298,192,26613,1,0,0:0:0:0:
128,192,26730,1,0,0:0:0:100:02_clap_snare - Part_1.wav
384,192,26730,1,0,0:0:0:0:
213,192,26847,1,0,0:0:0:100:02_clap_snare - Part_1.wav
298,192,26847,1,0,0:0:0:0:
469,192,26847,1,0,0:0:0:0:
42,192,26964,1,0,0:0:0:100:02_clap_snare - Part_1.wav
128,192,26964,1,0,0:0:0:0:
298,192,27082,1,0,0:0:0:100:02_clap_snare - Part_1.wav
384,192,27082,1,0,0:0:0:0:
128,192,27199,1,0,0:0:0:100:02_clap_snare - Part_1.wav
213,192,27199,1,0,0:0:0:0:
298,192,27316,1,0,0:0:0:100:02_clap_snare - Part_1.wav
384,192,27316,1,0,0:0:0:0:
469,192,27316,1,0,0:0:0:0:
384,192,27433,1,0,0:0:0:100:02_clap_snare - Part_1.wav
469,192,27433,1,0,0:0:0:0:
42,192,27550,1,0,0:0:0:100:02_clap_snare - Part_1.wav
128,192,27550,1,0,0:0:0:0:
213,192,27550,1,0,0:0:0:0:
42,192,27668,1,0,0:0:0:100:02_clap_snare - Part_1.wav
128,192,27668,1,0,0:0:0:0:
298,192,27785,1,0,0:0:0:100:02_clap_snare - Part_1.wav
384,192,27785,1,0,0:0:0:0:
469,192,27785,1,0,0:0:0:0:
298,192,27902,1,0,0:0:0:100:02_clap_snare - Part_1.wav
384,192,27902,1,0,0:0:0:0:
469,192,27902,1,0,0:0:0:0:
42,192,28019,1,0,0:0:0:100:02_clap_snare - Part_1.wav
128,192,28019,1,0,0:0:0:0:
213,192,28019,1,0,0:0:0:0:
42,192,28136,1,0,0:0:0:100:02_clap_snare - Part_1.wav
128,192,28136,1,0,0:0:0:0:
213,192,28136,1,0,0:0:0:0:
298,192,28254,128,0,28488:0:0:0:100:25_explode_008.wav
384,192,28254,128,0,28722:0:0:0:0:
469,192,28254,128,0,28957:0:0:0:0:
213,192,28488,128,0,28957:0:0:0:0:
298,192,28722,128,0,29191:0:0:0:0:
42,192,28957,1,0,0:0:0:100:12_snareroll_186.wav
128,192,28957,1,0,0:0:0:0:
384,192,28957,128,0,29191:0:0:0:0:
42,192,29191,1,0,0:0:0:100:12_bigsnare_000.wav
128,192,29191,1,0,0:0:0:0:
213,192,29191,1,0,0:0:0:0:
298,192,29308,1,0,0:0:0:100:06_tom - Part_1.wav
384,192,29308,1,0,0:0:0:0:
128,192,29425,1,0,0:0:0:100:06_tom - Part_2.wav
213,192,29425,1,0,0:0:0:0:
42,192,29660,1,0,0:0:0:100:13_perc_002.wav
213,192,29660,1,0,0:0:0:0:
298,192,29660,1,0,0:0:0:0:
469,192,29660,1,0,0:0:0:0:
42,192,30129,128,2,30421:0:0:0:0:
128,192,30129,128,4,30421:0:0:0:0:
298,192,30129,128,0,30421:0:0:0:0:
384,192,30129,1,0,0:0:0:0:
469,192,30129,1,0,0:0:0:0:
42,192,30597,128,2,30714:0:0:0:0:
128,192,30597,128,0,30714:0:0:0:0:
213,192,30597,128,0,30714:0:0:0:0:
298,192,30597,128,0,30714:0:0:0:0:
469,192,30597,1,0,0:0:0:0:
128,192,30832,128,0,30949:0:0:0:0:
213,192,30832,128,0,30949:0:0:0:0:
298,192,30832,128,0,30949:0:0:0:0:
384,192,30832,128,0,30949:0:0:0:0:
42,192,31066,1,2,0:0:0:0:
213,192,31066,128,0,31300:0:0:0:0:
298,192,31066,128,0,31300:0:0:0:0:
384,192,31066,128,0,31300:0:0:0:0:
469,192,31066,128,0,31300:0:0:0:0:
42,192,31535,1,2,0:0:0:0:
128,192,31535,128,0,31711:0:0:0:0:
213,192,31535,128,0,31711:0:0:0:0:
384,192,31535,128,0,31711:0:0:0:0:
469,192,31535,128,0,31711:0:0:0:0:
42,192,31886,128,2,32004:0:0:0:0:
213,192,31886,128,0,32004:0:0:0:0:
298,192,31886,128,0,32004:0:0:0:0:
469,192,31886,128,0,32004:0:0:0:0:
128,192,32004,1,2,0:0:0:0:
384,192,32004,1,0,0:0:0:100:04_crash - Part_2.wav
213,192,32238,1,0,0:0:0:0:
384,192,32238,1,0,0:0:0:0:
42,192,32472,1,2,0:0:0:0:
213,192,32472,1,0,0:0:0:100:04_crash - Part_2.wav
298,192,32472,1,0,0:0:0:0:
469,192,32472,1,0,0:0:0:0:
384,192,32589,1,0,0:0:0:0:
128,192,32707,1,0,0:0:0:0:
469,192,32824,1,0,0:0:0:0:
42,192,32941,1,2,0:0:0:0:
128,192,32941,1,0,0:0:0:100:04_crash - Part_2.wav
213,192,32941,1,0,0:0:0:0:
384,192,33058,1,0,0:0:0:0:
213,192,33175,1,0,0:0:0:0:
298,192,33175,1,0,0:0:0:0:
42,192,33410,1,2,0:0:0:0:
128,192,33410,1,0,0:0:0:100:04_crash - Part_2.wav
298,192,33410,1,0,0:0:0:0:
384,192,33410,1,0,0:0:0:0:
213,192,33644,1,0,0:0:0:0:
384,192,33644,1,0,0:0:0:0:
128,192,33761,1,0,0:0:0:0:
42,192,33879,128,2,34171:0:0:0:0:
213,192,33879,128,0,34171:0:0:0:100:04_crash - Part_5.wav
298,192,33879,128,0,34171:0:0:0:0:
469,192,33879,1,0,0:0:0:0:
42,192,34347,128,2,34464:0:0:0:0:
128,192,34347,128,0,34464:0:0:0:0:
213,192,34347,128,0,34464:0:0:0:0:
298,192,34347,128,0,34464:0:0:0:0:
469,192,34347,1,0,0:0:0:0:
128,192,34582,128,0,34699:0:0:0:0:
213,192,34582,128,0,34699:0:0:0:0:
298,192,34582,128,0,34699:0:0:0:0:
384,192,34582,128,0,34699:0:0:0:0:
42,192,34816,128,2,35050:0:0:0:0:
128,192,34816,1,0,0:0:0:0:
213,192,34816,128,0,35050:0:0:0:0:
384,192,34816,128,0,35050:0:0:0:0:
469,192,34816,128,0,35050:0:0:0:0:
42,192,35285,128,2,35461:0:0:0:0:
128,192,35285,128,0,35461:0:0:0:0:
298,192,35285,128,0,35461:0:0:0:0:
384,192,35285,1,0,0:0:0:0:
469,192,35285,128,0,35461:0:0:0:0:
42,192,35636,128,2,35754:0:0:0:0:
128,192,35636,128,0,35754:0:0:0:0:
384,192,35636,128,0,35754:0:0:0:0:
469,192,35636,128,0,35754:0:0:0:0:
213,192,35754,1,2,0:0:0:0:
298,192,35754,1,0,0:0:0:100:04_crash - Part_2.wav
213,192,35988,1,0,0:0:0:0:
384,192,35988,1,0,0:0:0:0:
42,192,36222,1,2,0:0:0:0:
128,192,36222,1,0,0:0:0:100:04_crash - Part_2.wav
298,192,36222,1,0,0:0:0:0:
469,192,36222,1,0,0:0:0:0:
384,192,36339,1,0,0:0:0:0:
128,192,36457,1,0,0:0:0:0:
213,192,36457,1,0,0:0:0:0:
298,192,36574,1,0,0:0:0:0:
42,192,36691,128,2,36925:0:0:0:0:
213,192,36691,128,0,36925:0:0:0:100:04_crash - Part_2.wav
384,192,36691,128,0,36925:0:0:0:0:
469,192,36691,1,0,0:0:0:0:
128,192,36925,1,0,0:0:0:0:
298,192,36925,1,0,0:0:0:0:
42,192,37160,128,2,37336:0:0:0:0:
213,192,37160,128,0,37336:0:0:0:100:04_crash - Part_2.wav
298,192,37160,128,0,37336:0:0:0:0:
469,192,37160,1,0,0:0:0:0:
42,192,37511,128,2,37921:0:0:0:0:
128,192,37511,128,0,37921:0:0:0:100:04_crash - Part_5.wav
298,192,37511,128,0,37921:0:0:0:0:
384,192,37511,1,0,0:0:0:0:
469,192,37511,1,0,0:0:0:0:
42,192,38097,128,2,38214:0:0:0:0:
128,192,38097,128,0,38214:0:0:0:0:
213,192,38097,128,0,38214:0:0:0:0:
298,192,38097,128,0,38214:0:0:0:0:
469,192,38097,1,0,0:0:0:0:
128,192,38332,128,0,38449:0:0:0:0:
213,192,38332,128,0,38449:0:0:0:0:
298,192,38332,128,0,38449:0:0:0:0:
384,192,38332,128,0,38449:0:0:0:0:
42,192,38566,1,2,0:0:0:0:
213,192,38566,128,0,38800:0:0:0:0:
298,192,38566,128,0,38800:0:0:0:0:
384,192,38566,128,0,38800:0:0:0:0:
469,192,38566,128,0,38800:0:0:0:0:
42,192,39035,128,2,39211:0:0:0:0:
128,192,39035,128,0,39211:0:0:0:0:
298,192,39035,128,0,39211:0:0:0:0:
384,192,39035,128,0,39211:0:0:0:0:
469,192,39035,1,0,0:0:0:0:
128,192,39386,128,2,39504:0:0:0:0:
213,192,39386,128,0,39504:0:0:0:0:
298,192,39386,128,0,39504:0:0:0:0:
469,192,39386,128,0,39504:0:0:0:0:
42,192,39504,1,2,0:0:0:0:
384,192,39504,1,0,0:0:0:100:04_crash - Part_2.wav
213,192,39738,1,0,0:0:0:0:
384,192,39738,1,0,0:0:0:0:
42,192,39972,1,2,0:0:0:0:
213,192,39972,1,0,0:0:0:100:04_crash - Part_2.wav
298,192,39972,1,0,0:0:0:0:
469,192,39972,1,0,0:0:0:0:
384,192,40089,1,0,0:0:0:0:
128,192,40207,1,0,0:0:0:0:
469,192,40324,1,0,0:0:0:0:
42,192,40441,1,2,0:0:0:0:
128,192,40441,1,0,0:0:0:100:04_crash - Part_2.wav
213,192,40441,1,0,0:0:0:0:
384,192,40558,1,0,0:0:0:0:
213,192,40675,1,0,0:0:0:0:
298,192,40675,1,0,0:0:0:0:
42,192,40910,1,2,0:0:0:0:
128,192,40910,1,0,0:0:0:100:04_crash - Part_2.wav
298,192,40910,1,0,0:0:0:0:
384,192,40910,1,0,0:0:0:0:
213,192,41027,1,0,0:0:0:0:
128,192,41144,1,0,0:0:0:0:
469,192,41144,1,0,0:0:0:0:
298,192,41261,1,0,0:0:0:0:
42,192,41379,128,2,41671:0:0:0:0:
213,192,41379,128,0,41671:0:0:0:100:04_crash - Part_5.wav
384,192,41379,128,0,41671:0:0:0:0:
469,192,41379,1,0,0:0:0:0:
42,192,41847,128,2,41964:0:0:0:0:
128,192,41847,128,0,41964:0:0:0:0:
213,192,41847,128,0,41964:0:0:0:0:
298,192,41847,128,0,41964:0:0:0:0:
469,192,41847,1,0,0:0:0:0:
128,192,42082,128,0,42199:0:0:0:0:
213,192,42082,128,0,42199:0:0:0:0:
298,192,42082,128,0,42199:0:0:0:0:
384,192,42082,128,0,42199:0:0:0:0:
42,192,42316,1,2,0:0:0:0:
128,192,42316,128,0,42550:0:0:0:100:04_crash - Part_5.wav
298,192,42316,128,0,42550:0:0:0:0:
384,192,42316,128,0,42550:0:0:0:0:
469,192,42316,128,0,42550:0:0:0:0:
42,192,42785,128,2,42961:0:0:0:0:
128,192,42785,128,0,42961:0:0:0:100:04_crash - Part_5.wav
213,192,42785,128,0,42961:0:0:0:0:
384,192,42785,128,0,42961:0:0:0:0:
469,192,42785,1,0,0:0:0:0:
42,192,43136,128,2,43371:0:0:0:0:
128,192,43136,128,0,43371:0:0:0:100:04_crash - Part_5.wav
298,192,43136,1,0,0:0:0:0:
384,192,43136,128,0,43371:0:0:0:0:
469,192,43136,128,0,43371:0:0:0:0:
298,192,43488,1,0,0:0:0:100:11_fillin_000.wav
384,192,43488,128,0,43605:0:0:0:0:
469,192,43488,128,0,43605:0:0:0:0:
128,192,43605,1,0,0:0:0:0:
213,192,43664,1,0,0:0:0:0:
298,192,43722,1,0,0:0:0:100:11_fillin_001.wav
384,192,43722,128,0,43839:0:0:0:0:
469,192,43722,128,0,43839:0:0:0:0:
128,192,43839,1,0,0:0:0:0:
213,192,43898,1,0,0:0:0:0:
298,192,43957,1,0,0:0:0:100:11_fillin_000.wav
384,192,43957,128,0,44074:0:0:0:0:
469,192,43957,128,0,44074:0:0:0:0:
128,192,44074,1,0,0:0:0:0:
384,192,44191,1,0,0:0:0:100:11_fillin_002.wav
469,192,44191,1,0,0:0:0:0:
213,192,44250,1,0,0:0:0:0:
384,192,44308,1,0,0:0:0:100:02_clap_snare - Part_4.wav
469,192,44308,1,0,0:0:0:0:
42,192,44425,1,0,0:0:0:100:02_clap_snare - Part_4.wav
128,192,44425,1,0,0:0:0:0:
298,192,44425,1,0,0:0:0:0:
42,192,44543,1,0,0:0:0:100:02_clap_snare - Part_4.wav
128,192,44543,1,0,0:0:0:0:
213,192,44660,1,0,0:0:0:100:13_perc_002.wav
298,192,44660,1,0,0:0:0:0:
384,192,44660,1,0,0:0:0:0:
469,192,44660,1,0,0:0:0:0:
42,192,45129,1,2,0:0:0:0:
128,192,45129,1,4,0:0:0:0:
213,192,45129,1,0,0:0:0:0:
298,192,45129,1,0,0:0:0:0:
469,192,45129,1,0,0:0:0:0:
298,192,45363,1,0,0:0:0:0:
213,192,45480,1,0,0:0:0:0:
42,192,45597,1,2,0:0:0:0:
128,192,45597,1,0,0:0:0:0:
384,192,45597,1,0,0:0:0:0:
469,192,45597,1,0,0:0:0:0:
213,192,45714,1,0,0:0:0:0:
298,192,45832,1,0,0:0:0:0:
42,192,46066,1,2,0:0:0:0:
213,192,46066,1,0,0:0:0:0:
469,192,46066,1,0,0:0:0:0:
213,192,46300,1,0,0:0:0:0:
298,192,46418,1,0,0:0:0:0:
42,192,46535,1,2,0:0:0:0:
128,192,46535,1,0,0:0:0:0:
384,192,46535,1,0,0:0:0:0:
469,192,46535,1,0,0:0:0:0:
298,192,46652,1,0,0:0:0:0:
128,192,46769,1,0,0:0:0:0:
42,192,47004,1,2,0:0:0:0:
384,192,47004,1,0,0:0:0:0:
469,192,47004,1,0,0:0:0:0:
384,192,47238,1,0,0:0:0:0:
213,192,47355,1,0,0:0:0:0:
42,192,47472,1,2,0:0:0:0:
128,192,47472,1,0,0:0:0:0:
298,192,47472,1,0,0:0:0:0:
469,192,47472,1,0,0:0:0:0:
213,192,47589,1,0,0:0:0:0:
384,192,47707,1,0,0:0:0:0:
298,192,47824,1,0,0:0:0:0:
42,192,47941,1,2,0:0:0:0:
128,192,47941,1,0,0:0:0:0:
469,192,47941,1,0,0:0:0:0:
128,192,48175,1,0,0:0:0:0:
298,192,48293,1,0,0:0:0:0:
42,192,48410,1,2,0:0:0:0:
213,192,48410,1,0,0:0:0:0:
384,192,48410,1,0,0:0:0:0:
469,192,48410,1,0,0:0:0:0:
298,192,48527,1,0,0:0:0:0:
128,192,48644,1,0,0:0:0:0:
42,192,48879,1,2,0:0:0:0:
213,192,48879,1,0,0:0:0:0:
469,192,48879,1,0,0:0:0:0:
213,192,49113,1,0,0:0:0:0:
298,192,49230,1,0,0:0:0:0:
42,192,49347,1,2,0:0:0:0:
128,192,49347,1,0,0:0:0:0:
384,192,49347,1,0,0:0:0:0:
469,192,49347,1,0,0:0:0:0:
298,192,49464,1,0,0:0:0:0:
213,192,49582,1,0,0:0:0:0:
42,192,49816,1,2,0:0:0:0:
298,192,49816,1,0,0:0:0:0:
469,192,49816,1,0,0:0:0:0:
298,192,50050,1,0,0:0:0:0:
213,192,50168,1,0,0:0:0:0:
42,192,50285,1,2,0:0:0:0:
128,192,50285,1,0,0:0:0:0:
384,192,50285,1,0,0:0:0:0:
469,192,50285,1,0,0:0:0:0:
213,192,50402,1,0,0:0:0:0:
384,192,50519,1,0,0:0:0:0:
42,192,50754,1,2,0:0:0:0:
128,192,50754,1,0,0:0:0:0:
469,192,50754,1,0,0:0:0:0:
128,192,50988,1,0,0:0:0:0:
298,192,51105,1,0,0:0:0:0:
42,192,51222,1,2,0:0:0:0:
213,192,51222,1,0,0:0:0:0:
384,192,51222,1,0,0:0:0:0:
469,192,51222,1,0,0:0:0:0:
298,192,51339,1,0,0:0:0:0:
128,192,51457,1,0,0:0:0:0:
213,192,51574,1,0,0:0:0:0:
42,192,51691,1,2,0:0:0:0:
384,192,51691,1,0,0:0:0:0:
469,192,51691,1,0,0:0:0:0:
384,192,51925,1,2,0:0:0:0:
128,192,52043,1,0,0:0:0:100:11_fillin_000.wav
213,192,52043,1,0,0:0:0:0:
128,192,52160,1,2,0:0:0:0:
213,192,52160,1,0,0:0:0:0:
469,192,52160,1,0,0:0:0:0:
298,192,52277,1,0,0:0:0:0:
42,192,52394,1,0,0:0:0:0:
384,192,52394,1,0,0:0:0:0:
42,192,52629,1,2,0:0:0:0:
128,192,52629,1,0,0:0:0:100:04_crash - Part_5.wav
298,192,52629,1,0,0:0:0:0:
469,192,52629,1,0,0:0:0:0:
213,192,52746,1,0,0:0:0:0:
128,192,52863,1,0,0:0:0:0:
384,192,52863,1,0,0:0:0:0:
298,192,52980,1,0,0:0:0:0:
42,192,53097,1,2,0:0:0:0:
213,192,53097,1,0,0:0:0:0:
469,192,53097,1,0,0:0:0:0:
384,192,53214,1,0,0:0:0:0:
213,192,53332,1,0,0:0:0:0:
298,192,53332,1,0,0:0:0:0:
128,192,53449,1,0,0:0:0:0:
42,192,53566,1,2,0:0:0:0:
298,192,53566,1,0,0:0:0:0:
469,192,53566,1,0,0:0:0:0:
213,192,53683,1,0,0:0:0:0:
128,192,53800,1,0,0:0:0:0:
384,192,53800,1,0,0:0:0:0:
298,192,53918,1,0,0:0:0:0:
42,192,54035,1,2,0:0:0:0:
213,192,54035,1,0,0:0:0:0:
469,192,54035,1,0,0:0:0:0:
384,192,54152,1,0,0:0:0:0:
213,192,54269,1,0,0:0:0:0:
298,192,54269,1,0,0:0:0:0:
128,192,54386,1,0,0:0:0:0:
42,192,54504,1,2,0:0:0:0:
298,192,54504,1,0,0:0:0:0:
469,192,54504,1,0,0:0:0:0:
128,192,54621,1,0,0:0:0:0:
213,192,54738,1,0,0:0:0:0:
298,192,54738,1,0,0:0:0:0:
384,192,54855,1,0,0:0:0:0:
42,192,54972,1,2,0:0:0:0:
213,192,54972,1,0,0:0:0:0:
469,192,54972,1,0,0:0:0:0:
298,192,55089,1,0,0:0:0:0:
128,192,55207,1,0,0:0:0:0:
384,192,55207,1,0,0:0:0:0:
213,192,55324,1,0,0:0:0:0:
42,192,55441,1,2,0:0:0:0:
298,192,55441,1,0,0:0:0:0:
469,192,55441,1,0,0:0:0:0:
128,192,55558,1,0,0:0:0:0:
213,192,55675,1,0,0:0:0:0:
298,192,55675,1,0,0:0:0:0:
384,192,55793,1,0,0:0:0:0:
42,192,55910,1,2,0:0:0:0:
213,192,55910,1,0,0:0:0:0:
469,192,55910,1,0,0:0:0:0:
298,192,56027,1,0,0:0:0:0:
128,192,56144,1,0,0:0:0:0:
384,192,56144,1,0,0:0:0:0:
213,192,56261,1,0,0:0:0:0:
42,192,56379,1,2,0:0:0:0:
298,192,56379,1,0,0:0:0:0:
469,192,56379,1,0,0:0:0:0:
128,192,56496,1,0,0:0:0:0:
213,192,56613,1,0,0:0:0:0:
384,192,56613,1,0,0:0:0:0:
128,192,56730,1,0,0:0:0:0:
42,192,56847,1,2,0:0:0:0:
298,192,56847,1,0,0:0:0:0:
469,192,56847,1,0,0:0:0:0:
213,192,56964,1,0,0:0:0:0:
128,192,57082,1,0,0:0:0:0:
384,192,57082,1,0,0:0:0:0:
298,192,57199,1,0,0:0:0:0:
42,192,57316,1,2,0:0:0:0:
213,192,57316,1,0,0:0:0:0:
469,192,57316,1,0,0:0:0:0:
384,192,57433,1,0,0:0:0:0:
128,192,57550,1,0,0:0:0:0:
298,192,57550,1,0,0:0:0:0:
384,192,57668,1,0,0:0:0:0:
42,192,57785,1,2,0:0:0:0:
213,192,57785,1,0,0:0:0:0:
469,192,57785,1,0,0:0:0:0:
298,192,57902,1,0,0:0:0:0:
128,192,58019,1,0,0:0:0:0:
384,192,58019,1,0,0:0:0:0:
213,192,58136,1,0,0:0:0:0:
42,192,58254,1,2,0:0:0:0:
298,192,58254,1,0,0:0:0:0:
469,192,58254,1,0,0:0:0:0:
128,192,58371,1,0,0:0:0:0:
213,192,58488,1,0,0:0:0:0:
384,192,58488,128,0,58605:0:0:0:0:
128,192,58605,1,0,0:0:0:0:
42,192,58722,1,2,0:0:0:0:
298,192,58722,1,0,0:0:0:0:
384,192,58722,128,0,58839:0:0:0:0:
213,192,58839,1,0,0:0:0:0:
128,192,58957,1,0,0:0:0:0:
384,192,58957,128,0,59074:0:0:0:0:
213,192,59074,1,0,0:0:0:0:
298,192,59191,1,2,0:0:0:0:
384,192,59191,1,0,0:0:0:100:02_clap_snare - Part_5.wav
469,192,59191,1,0,0:0:0:0:
384,192,59308,1,0,0:0:0:0:
469,192,59308,1,0,0:0:0:0:
42,192,59425,1,2,0:0:0:0:
128,192,59425,1,0,0:0:0:0:
42,192,59543,1,0,0:0:0:0:
128,192,59543,1,0,0:0:0:0:
213,192,59660,1,2,0:0:0:0:
298,192,59660,1,0,0:0:0:100:11_fillin_004.wav
384,192,59660,1,0,0:0:0:0:
469,192,59660,1,0,0:0:0:0:
42,192,60129,128,0,60832:0:0:0:100:02_clap_snare - Part_1.wav
128,192,60129,1,0,0:0:0:100:25_explode_008.wav
298,192,60129,1,0,0:0:0:0:
384,192,60129,1,0,0:0:0:0:
469,192,60129,1,0,0:0:0:0:
213,192,60363,128,0,60832:0:0:0:0:
298,192,60597,128,0,60832:0:0:0:100:02_clap_snare - Part_1.wav
384,192,60597,1,0,0:0:0:0:
469,192,60597,1,0,0:0:0:0:
128,192,61066,128,0,61652:0:0:0:100:02_clap_snare - Part_1.wav
384,192,61066,1,0,0:0:0:0:
469,192,61066,1,0,0:0:0:0:
213,192,61300,128,0,61652:0:0:0:0:
298,192,61535,128,0,61652:0:0:0:100:02_clap_snare - Part_1.wav
384,192,61535,1,0,0:0:0:0:
469,192,61535,1,0,0:0:0:0:
213,192,61769,128,0,62589:0:0:0:0:
42,192,62004,1,0,0:0:0:100:02_clap_snare - Part_1.wav
128,192,62004,1,0,0:0:0:0:
298,192,62238,128,0,62589:0:0:0:0:
42,192,62472,1,0,0:0:0:100:02_clap_snare - Part_1.wav
128,192,62472,1,0,0:0:0:0:
384,192,62472,128,0,62589:0:0:0:0:
384,192,62707,1,0,0:0:0:0:
469,192,62736,128,0,63175:0:0:0:0:
42,192,62941,1,0,0:0:0:100:02_clap_snare - Part_1.wav
128,192,62941,1,0,0:0:0:0:
384,192,63175,128,0,63410:0:0:0:0:
42,192,63410,1,0,0:0:0:100:02_clap_snare - Part_1.wav
128,192,63410,1,0,0:0:0:0:
298,192,63410,128,0,63527:0:0:0:0:
213,192,63527,128,0,63644:0:0:0:0:
128,192,63644,128,0,63879:0:0:0:0:
42,192,63879,128,0,64582:0:0:0:100:02_clap_snare - Part_1.wav
384,192,63879,1,0,0:0:0:0:
469,192,63879,1,0,0:0:0:0:
213,192,64113,128,0,64582:0:0:0:0:
298,192,64347,128,0,64582:0:0:0:100:02_clap_snare - Part_1.wav
384,192,64347,1,0,0:0:0:0:
469,192,64347,1,0,0:0:0:0:
128,192,64816,128,0,65402:0:0:0:100:02_clap_snare - Part_1.wav
384,192,64816,1,0,0:0:0:0:
469,192,64816,1,0,0:0:0:0:
213,192,65050,128,0,65402:0:0:0:0:
298,192,65285,128,0,65402:0:0:0:100:02_clap_snare - Part_1.wav
384,192,65285,1,0,0:0:0:0:
469,192,65285,1,0,0:0:0:0:
213,192,65519,128,0,66339:0:0:0:0:
42,192,65754,1,0,0:0:0:100:02_clap_snare - Part_1.wav
128,192,65754,1,0,0:0:0:0:
298,192,65988,128,0,66339:0:0:0:0:
42,192,66222,1,0,0:0:0:100:02_clap_snare - Part_1.wav
128,192,66222,1,0,0:0:0:0:
384,192,66222,128,0,66339:0:0:0:0:
384,192,66457,1,0,0:0:0:0:
469,192,66486,128,0,66925:0:0:0:0:
42,192,66691,1,0,0:0:0:100:02_clap_snare - Part_1.wav
128,192,66691,1,0,0:0:0:0:
213,192,66808,1,0,0:0:0:0:
298,192,66925,1,0,0:0:0:100:02_clap_snare - Part_1.wav
384,192,66925,1,0,0:0:0:0:
213,192,66984,1,0,0:0:0:0:
128,192,67043,1,0,0:0:0:100:02_clap_snare - Part_1.wav
42,192,67101,1,0,0:0:0:0:
298,192,67160,1,0,0:0:0:50:12_snareroll_040.wav
384,192,67160,1,0,0:0:0:0:
469,192,67160,1,0,0:0:0:0:
213,192,67277,1,0,0:0:0:0:
128,192,67394,1,0,0:0:0:50:13_perc_002.wav
298,192,67394,1,0,0:0:0:0:
42,192,67629,1,4,0:0:0:0:
213,192,67629,1,0,0:0:0:100:02_clap_snare - Part_1.wav
384,192,67629,1,0,0:0:0:0:
469,192,67746,1,0,0:0:0:0:
42,192,67863,1,0,0:0:0:100:02_clap_snare - Part_1.wav
128,192,67863,1,0,0:0:0:0:
298,192,67863,1,0,0:0:0:0:
384,192,67980,1,0,0:0:0:0:
42,192,68097,1,0,0:0:0:100:02_clap_snare - Part_1.wav
213,192,68097,1,0,0:0:0:0:
469,192,68097,1,0,0:0:0:0:
298,192,68214,1,0,0:0:0:0:
42,192,68332,1,0,0:0:0:100:02_clap_snare - Part_1.wav
128,192,68332,1,0,0:0:0:0:
384,192,68332,1,0,0:0:0:0:
213,192,68449,1,0,0:0:0:0:
128,192,68566,1,0,0:0:0:100:02_clap_snare - Part_1.wav
298,192,68566,1,0,0:0:0:0:
469,192,68566,1,0,0:0:0:0:
384,192,68683,1,0,0:0:0:0:
42,192,68800,1,0,0:0:0:100:02_clap_snare - Part_1.wav
213,192,68800,1,0,0:0:0:0:
469,192,68800,1,0,0:0:0:0:
298,192,68918,1,0,0:0:0:0:
128,192,69035,1,0,0:0:0:100:02_clap_snare - Part_1.wav
384,192,69035,1,0,0:0:0:0:
469,192,69035,1,0,0:0:0:0:
213,192,69152,1,0,0:0:0:0:
42,192,69269,1,0,0:0:0:100:02_clap_snare - Part_1.wav
298,192,69269,1,0,0:0:0:0:
469,192,69269,1,0,0:0:0:0:
128,192,69386,1,0,0:0:0:0:
213,192,69504,1,0,0:0:0:100:02_clap_snare - Part_1.wav
384,192,69504,1,0,0:0:0:0:
469,192,69504,1,0,0:0:0:0:
128,192,69621,1,0,0:0:0:0:
42,192,69738,1,0,0:0:0:100:02_clap_snare - Part_1.wav
298,192,69738,1,0,0:0:0:0:
469,192,69738,1,0,0:0:0:0:
213,192,69855,1,0,0:0:0:0:
128,192,69972,1,0,0:0:0:100:02_clap_snare - Part_1.wav
384,192,69972,1,0,0:0:0:0:
469,192,69972,1,0,0:0:0:0:
298,192,70089,1,0,0:0:0:0:
42,192,70207,1,0,0:0:0:100:02_clap_snare - Part_1.wav
213,192,70207,1,0,0:0:0:0:
469,192,70207,1,0,0:0:0:0:
384,192,70324,1,0,0:0:0:0:
42,192,70441,1,0,0:0:0:100:02_clap_snare - Part_1.wav
128,192,70441,1,0,0:0:0:0:
298,192,70441,1,0,0:0:0:0:
213,192,70558,1,0,0:0:0:0:
42,192,70675,1,0,0:0:0:100:02_clap_snare - Part_1.wav
128,192,70675,1,0,0:0:0:0:
384,192,70675,1,0,0:0:0:0:
298,192,70793,1,0,0:0:0:0:
42,192,70910,1,0,0:0:0:100:02_clap_snare - Part_1.wav
213,192,70910,1,0,0:0:0:0:
469,192,70910,1,0,0:0:0:0:
384,192,71027,1,0,0:0:0:0:
42,192,71144,1,0,0:0:0:100:02_clap_snare - Part_1.wav
128,192,71144,1,0,0:0:0:0:
298,192,71144,1,0,0:0:0:0:
469,192,71261,1,0,0:0:0:0:
213,192,71379,1,0,0:0:0:100:02_clap_snare - Part_1.wav
298,192,71379,1,0,0:0:0:0:
384,192,71379,1,0,0:0:0:0:
42,192,71496,1,0,0:0:0:100:02_clap_snare - Part_1.wav
128,192,71496,1,0,0:0:0:0:
298,192,71613,1,0,0:0:0:100:02_clap_snare - Part_1.wav
384,192,71613,1,0,0:0:0:0:
469,192,71613,1,0,0:0:0:0:
128,192,71730,1,0,0:0:0:100:02_clap_snare - Part_1.wav
213,192,71730,1,0,0:0:0:0:
42,192,71847,1,0,0:0:0:100:02_clap_snare - Part_1.wav
384,192,71847,1,0,0:0:0:0:
469,192,71847,1,0,0:0:0:0:
213,192,71964,1,0,0:0:0:100:02_clap_snare - Part_1.wav
298,192,71964,1,0,0:0:0:0:
42,192,72082,1,0,0:0:0:100:02_clap_snare - Part_1.wav
128,192,72082,1,0,0:0:0:0:
469,192,72082,1,0,0:0:0:0:
298,192,72199,1,0,0:0:0:100:02_clap_snare - Part_1.wav
384,192,72199,1,0,0:0:0:0:
42,192,72316,1,0,0:0:0:100:02_clap_snare - Part_1.wav
128,192,72316,1,0,0:0:0:0:
213,192,72316,1,0,0:0:0:0:
128,192,72433,1,0,0:0:0:100:02_clap_snare - Part_1.wav
213,192,72433,1,0,0:0:0:0:
298,192,72550,1,0,0:0:0:100:02_clap_snare - Part_1.wav
384,192,72550,1,0,0:0:0:0:
469,192,72550,1,0,0:0:0:0:
298,192,72668,1,0,0:0:0:100:02_clap_snare - Part_1.wav
384,192,72668,1,0,0:0:0:0:
42,192,72785,1,0,0:0:0:100:02_clap_snare - Part_1.wav
128,192,72785,1,0,0:0:0:0:
213,192,72785,1,0,0:0:0:0:
42,192,72902,1,0,0:0:0:100:02_clap_snare - Part_1.wav
128,192,72902,1,0,0:0:0:0:
213,192,72902,1,0,0:0:0:0:
298,192,73019,1,0,0:0:0:100:02_clap_snare - Part_1.wav
384,192,73019,1,0,0:0:0:0:
469,192,73019,1,0,0:0:0:0:
298,192,73136,1,0,0:0:0:100:02_clap_snare - Part_1.wav
384,192,73136,1,0,0:0:0:0:
469,192,73136,1,0,0:0:0:0:
42,192,73254,128,0,73957:0:0:0:100:25_explode_008.wav
128,192,73254,128,0,73722:0:0:0:0:
213,192,73254,128,0,73488:0:0:0:0:
298,192,73488,128,0,73957:0:0:0:0:
213,192,73722,128,0,74191:0:0:0:0:
128,192,73957,128,0,74191:0:0:0:100:12_snareroll_186.wav
384,192,73957,1,0,0:0:0:0:
469,192,73957,1,0,0:0:0:0:
298,192,74191,1,0,0:0:0:100:12_bigsnare_000.wav
384,192,74191,1,0,0:0:0:0:
469,192,74191,1,0,0:0:0:0:
128,192,74308,1,0,0:0:0:100:06_tom - Part_1.wav
213,192,74308,1,0,0:0:0:0:
298,192,74425,1,0,0:0:0:100:06_tom - Part_2.wav
384,192,74425,1,0,0:0:0:0:
42,192,74660,1,0,0:0:0:100:13_perc_002.wav
213,192,74660,1,0,0:0:0:0:
298,192,74660,1,0,0:0:0:0:
469,192,74660,1,0,0:0:0:0:
42,192,75129,1,2,0:0:0:0:
128,192,75129,1,4,0:0:0:0:
213,192,75129,128,0,75421:0:0:0:0:
384,192,75129,128,0,75421:0:0:0:0:
469,192,75129,128,0,75421:0:0:0:0:
42,192,75597,128,2,75714:0:0:0:0:
128,192,75597,128,0,75714:0:0:0:0:
213,192,75597,128,0,75714:0:0:0:0:
298,192,75597,128,0,75714:0:0:0:0:
469,192,75597,1,0,0:0:0:0:
128,192,75832,128,0,75949:0:0:0:0:
213,192,75832,128,0,75949:0:0:0:0:
298,192,75832,128,0,75949:0:0:0:0:
384,192,75832,128,0,75949:0:0:0:0:
42,192,76066,1,2,0:0:0:0:
213,192,76066,128,0,76300:0:0:0:0:
298,192,76066,128,0,76300:0:0:0:0:
384,192,76066,128,0,76300:0:0:0:0:
469,192,76066,128,0,76300:0:0:0:0:
42,192,76535,128,2,76711:0:0:0:0:
128,192,76535,128,0,76711:0:0:0:0:
298,192,76535,128,0,76711:0:0:0:0:
384,192,76535,128,0,76711:0:0:0:0:
469,192,76535,1,0,0:0:0:0:
42,192,76886,128,2,77004:0:0:0:0:
213,192,76886,128,0,77004:0:0:0:0:
298,192,76886,128,0,77004:0:0:0:0:
469,192,76886,128,0,77004:0:0:0:0:
128,192,77004,1,2,0:0:0:0:
384,192,77004,1,0,0:0:0:100:04_crash - Part_2.wav
213,192,77238,1,0,0:0:0:0:
384,192,77238,1,0,0:0:0:0:
42,192,77472,1,2,0:0:0:0:
213,192,77472,1,0,0:0:0:100:04_crash - Part_2.wav
298,192,77472,1,0,0:0:0:0:
469,192,77472,1,0,0:0:0:0:
384,192,77589,1,0,0:0:0:0:
128,192,77707,1,0,0:0:0:0:
469,192,77824,1,0,0:0:0:0:
42,192,77941,1,2,0:0:0:0:
128,192,77941,1,0,0:0:0:100:04_crash - Part_2.wav
213,192,77941,1,0,0:0:0:0:
384,192,78058,1,0,0:0:0:0:
213,192,78175,1,0,0:0:0:0:
298,192,78175,1,0,0:0:0:0:
42,192,78410,1,2,0:0:0:0:
128,192,78410,1,0,0:0:0:100:04_crash - Part_2.wav
298,192,78410,1,0,0:0:0:0:
384,192,78410,1,0,0:0:0:0:
213,192,78644,1,0,0:0:0:0:
469,192,78644,1,0,0:0:0:0:
128,192,78761,1,0,0:0:0:0:
42,192,78879,128,2,79171:0:0:0:0:
213,192,78879,128,0,79171:0:0:0:100:04_crash - Part_5.wav
298,192,78879,1,0,0:0:0:0:
384,192,78879,128,0,79171:0:0:0:0:
42,192,79347,128,2,79464:0:0:0:0:
128,192,79347,128,0,79464:0:0:0:0:
213,192,79347,128,0,79464:0:0:0:0:
298,192,79347,128,0,79464:0:0:0:0:
469,192,79347,1,0,0:0:0:0:
128,192,79582,128,0,79699:0:0:0:0:
213,192,79582,128,0,79699:0:0:0:0:
298,192,79582,128,0,79699:0:0:0:0:
384,192,79582,128,0,79699:0:0:0:0:
42,192,79816,1,2,0:0:0:0:
128,192,79816,128,0,80050:0:0:0:0:
213,192,79816,128,0,80050:0:0:0:0:
384,192,79816,128,0,80050:0:0:0:0:
469,192,79816,128,0,80050:0:0:0:0:
42,192,80285,128,2,80461:0:0:0:0:
128,192,80285,128,0,80461:0:0:0:0:
298,192,80285,128,0,80461:0:0:0:0:
384,192,80285,128,0,80461:0:0:0:0:
469,192,80285,1,0,0:0:0:0:
42,192,80636,128,2,80754:0:0:0:0:
128,192,80636,128,0,80754:0:0:0:0:
384,192,80636,128,0,80754:0:0:0:0:
469,192,80636,128,0,80754:0:0:0:0:
213,192,80754,1,2,0:0:0:0:
298,192,80754,1,0,0:0:0:100:04_crash - Part_2.wav
213,192,80988,1,0,0:0:0:0:
384,192,80988,1,0,0:0:0:0:
42,192,81222,1,2,0:0:0:0:
128,192,81222,1,0,0:0:0:100:04_crash - Part_2.wav
298,192,81222,1,0,0:0:0:0:
469,192,81222,1,0,0:0:0:0:
384,192,81339,1,0,0:0:0:0:
128,192,81457,1,0,0:0:0:0:
213,192,81457,1,0,0:0:0:0:
298,192,81574,1,0,0:0:0:0:
42,192,81691,128,2,81925:0:0:0:0:
213,192,81691,128,0,81925:0:0:0:100:04_crash - Part_2.wav
384,192,81691,128,0,81925:0:0:0:0:
469,192,81691,1,0,0:0:0:0:
128,192,81925,1,0,0:0:0:0:
298,192,81925,1,0,0:0:0:0:
42,192,82160,128,2,82336:0:0:0:0:
213,192,82160,128,0,82336:0:0:0:100:04_crash - Part_2.wav
298,192,82160,128,0,82336:0:0:0:0:
469,192,82160,1,0,0:0:0:0:
42,192,82511,1,2,0:0:0:0:
128,192,82511,128,0,82921:0:0:0:100:04_crash - Part_5.wav
213,192,82511,1,0,0:0:0:0:
298,192,82511,128,0,82921:0:0:0:0:
469,192,82511,128,0,82921:0:0:0:0:
42,192,83097,128,2,83214:0:0:0:0:
128,192,83097,128,0,83214:0:0:0:0:
213,192,83097,128,0,83214:0:0:0:0:
298,192,83097,128,0,83214:0:0:0:0:
469,192,83097,1,0,0:0:0:0:
128,192,83332,128,0,83449:0:0:0:0:
213,192,83332,128,0,83449:0:0:0:0:
298,192,83332,128,0,83449:0:0:0:0:
384,192,83332,128,0,83449:0:0:0:0:
42,192,83566,1,2,0:0:0:0:
213,192,83566,128,0,83800:0:0:0:0:
298,192,83566,128,0,83800:0:0:0:0:
384,192,83566,128,0,83800:0:0:0:0:
469,192,83566,128,0,83800:0:0:0:0:
42,192,84035,128,2,84211:0:0:0:0:
128,192,84035,128,0,84211:0:0:0:0:
213,192,84035,128,0,84211:0:0:0:0:
384,192,84035,128,0,84211:0:0:0:0:
469,192,84035,1,0,0:0:0:0:
128,192,84386,128,2,84504:0:0:0:0:
213,192,84386,128,0,84504:0:0:0:0:
298,192,84386,128,0,84504:0:0:0:0:
469,192,84386,128,0,84504:0:0:0:0:
42,192,84504,1,2,0:0:0:0:
384,192,84504,1,0,0:0:0:100:04_crash - Part_2.wav
213,192,84738,1,0,0:0:0:0:
384,192,84738,1,0,0:0:0:0:
42,192,84972,1,2,0:0:0:0:
213,192,84972,1,0,0:0:0:100:04_crash - Part_2.wav
298,192,84972,1,0,0:0:0:0:
469,192,84972,1,0,0:0:0:0:
384,192,85089,1,0,0:0:0:0:
128,192,85207,1,0,0:0:0:0:
469,192,85324,1,0,0:0:0:0:
42,192,85441,1,2,0:0:0:0:
128,192,85441,1,0,0:0:0:100:04_crash - Part_2.wav
213,192,85441,1,0,0:0:0:0:
384,192,85558,1,0,0:0:0:0:
213,192,85675,1,0,0:0:0:0:
298,192,85675,1,0,0:0:0:0:
42,192,85910,1,2,0:0:0:0:
128,192,85910,1,0,0:0:0:100:04_crash - Part_2.wav
298,192,85910,1,0,0:0:0:0:
384,192,85910,1,0,0:0:0:0:
213,192,86027,1,0,0:0:0:0:
128,192,86144,1,0,0:0:0:0:
469,192,86144,1,0,0:0:0:0:
384,192,86261,1,0,0:0:0:0:
42,192,86379,1,2,0:0:0:0:
213,192,86379,128,0,86671:0:0:0:100:04_crash - Part_5.wav
298,192,86379,128,0,86671:0:0:0:0:
469,192,86379,128,0,86671:0:0:0:0:
42,192,86847,128,2,86964:0:0:0:0:
128,192,86847,128,0,86964:0:0:0:0:
213,192,86847,128,0,86964:0:0:0:0:
298,192,86847,128,0,86964:0:0:0:0:
469,192,86847,1,0,0:0:0:0:
128,192,87082,128,0,87199:0:0:0:0:
213,192,87082,128,0,87199:0:0:0:0:
298,192,87082,128,0,87199:0:0:0:0:
384,192,87082,128,0,87199:0:0:0:0:
42,192,87316,128,2,87550:0:0:0:0:
128,192,87316,1,0,0:0:0:100:04_crash - Part_5.wav
298,192,87316,128,0,87550:0:0:0:0:
384,192,87316,128,0,87550:0:0:0:0:
469,192,87316,128,0,87550:0:0:0:0:
42,192,87785,128,2,87961:0:0:0:0:
128,192,87785,128,0,87961:0:0:0:100:04_crash - Part_5.wav
213,192,87785,128,0,87961:0:0:0:0:
384,192,87785,1,0,0:0:0:0:
469,192,87785,128,0,87961:0:0:0:0:
42,192,88136,128,2,88371:0:0:0:0:
128,192,88136,128,0,88371:0:0:0:100:04_crash - Part_5.wav
298,192,88136,1,0,0:0:0:0:
384,192,88136,128,0,88371:0:0:0:0:
469,192,88136,128,0,88371:0:0:0:0:
298,192,88488,1,0,0:0:0:100:11_fillin_000.wav
384,192,88488,128,0,88605:0:0:0:0:
469,192,88488,128,0,88605:0:0:0:0:
128,192,88605,1,0,0:0:0:0:
213,192,88664,1,0,0:0:0:0:
298,192,88722,1,0,0:0:0:100:11_fillin_001.wav
384,192,88722,128,0,88839:0:0:0:0:
469,192,88722,128,0,88839:0:0:0:0:
128,192,88839,1,0,0:0:0:0:
213,192,88898,1,0,0:0:0:0:
298,192,88957,1,0,0:0:0:100:11_fillin_000.wav
384,192,88957,128,0,89074:0:0:0:0:
469,192,88957,128,0,89074:0:0:0:0:
128,192,89074,1,0,0:0:0:0:
384,192,89191,1,0,0:0:0:100:11_fillin_002.wav
469,192,89191,1,0,0:0:0:0:
213,192,89250,1,0,0:0:0:0:
384,192,89308,1,0,0:0:0:100:02_clap_snare - Part_4.wav
469,192,89308,1,0,0:0:0:0:
42,192,89425,1,0,0:0:0:100:02_clap_snare - Part_4.wav
128,192,89425,1,0,0:0:0:0:
298,192,89425,1,0,0:0:0:0:
42,192,89543,1,0,0:0:0:100:02_clap_snare - Part_4.wav
128,192,89543,1,0,0:0:0:0:
213,192,89660,1,0,0:0:0:100:13_perc_002.wav
298,192,89660,1,0,0:0:0:0:
384,192,89660,1,0,0:0:0:0:
469,192,89660,1,0,0:0:0:0:
128,192,89894,1,0,0:0:0:0:
42,192,90129,128,2,90421:0:0:0:0:
128,192,90129,128,4,90421:0:0:0:0:
213,192,90129,1,0,0:0:0:0:
298,192,90129,1,0,0:0:0:0:
469,192,90129,1,0,0:0:0:0:
384,192,90363,1,0,0:0:0:100:06_tom - Part_1.wav
298,192,90480,1,0,0:0:0:100:02_clap_snare - Part_1.wav
42,192,90597,128,2,90714:0:0:0:0:
128,192,90597,128,0,90714:0:0:0:0:
213,192,90597,128,0,90714:0:0:0:0:
469,192,90597,1,0,0:0:0:0:
128,192,90832,128,0,90949:0:0:0:100:06_tom - Part_1.wav
213,192,90832,128,0,90949:0:0:0:0:
384,192,90832,128,0,90949:0:0:0:0:
42,192,91066,1,2,0:0:0:0:
213,192,91066,128,0,91300:0:0:0:0:
384,192,91066,128,0,91300:0:0:0:0:
469,192,91066,128,0,91300:0:0:0:0:
128,192,91300,1,0,0:0:0:100:06_tom - Part_1.wav
213,192,91418,1,0,0:0:0:100:02_clap_snare - Part_1.wav
42,192,91535,1,2,0:0:0:0:
298,192,91535,128,0,91711:0:0:0:0:
384,192,91535,128,0,91711:0:0:0:0:
469,192,91535,128,0,91711:0:0:0:0:
128,192,91769,1,0,0:0:0:100:02_clap_snare - Part_1.wav
213,192,91886,128,2,92004:0:0:0:0:
298,192,91886,128,0,92004:0:0:0:0:
384,192,91886,128,0,92004:0:0:0:0:
42,192,92004,1,2,0:0:0:0:
128,192,92004,1,0,0:0:0:100:04_crash - Part_2.wav
469,192,92004,1,0,0:0:0:0:
128,192,92238,1,0,0:0:0:100:06_tom - Part_1.wav
384,192,92238,1,0,0:0:0:0:
298,192,92355,1,0,0:0:0:100:02_clap_snare - Part_1.wav
42,192,92472,1,2,0:0:0:0:
213,192,92472,1,0,0:0:0:100:04_crash - Part_2.wav
384,192,92472,1,0,0:0:0:0:
213,192,92589,1,0,0:0:0:0:
469,192,92589,1,0,0:0:0:0:
128,192,92707,1,0,0:0:0:100:06_tom - Part_1.wav
384,192,92824,1,0,0:0:0:0:
469,192,92824,1,0,0:0:0:0:
42,192,92941,1,2,0:0:0:0:
128,192,92941,1,0,0:0:0:100:04_crash - Part_2.wav
213,192,92941,1,0,0:0:0:0:
298,192,93058,1,0,0:0:0:0:
469,192,93058,1,0,0:0:0:0:
42,192,93175,1,0,0:0:0:100:06_tom - Part_1.wav
298,192,93175,1,0,0:0:0:0:
128,192,93410,1,2,0:0:0:0:
384,192,93410,1,0,0:0:0:100:04_crash - Part_2.wav
469,192,93410,1,0,0:0:0:0:
298,192,93527,1,0,0:0:0:100:02_clap_snare - Part_1.wav
213,192,93644,1,0,0:0:0:100:06_tom - Part_1.wav
384,192,93644,1,0,0:0:0:0:
128,192,93761,1,0,0:0:0:100:02_clap_snare - Part_1.wav
42,192,93879,128,2,94171:0:0:0:0:
213,192,93879,128,0,94171:0:0:0:100:04_crash - Part_5.wav
298,192,93879,1,0,0:0:0:0:
469,192,93879,1,0,0:0:0:0:
384,192,94113,1,0,0:0:0:100:06_tom - Part_1.wav
469,192,94230,1,0,0:0:0:100:02_clap_snare - Part_1.wav
42,192,94347,128,2,94464:0:0:0:0:
128,192,94347,128,0,94464:0:0:0:0:
213,192,94347,128,0,94464:0:0:0:0:
298,192,94347,1,0,0:0:0:0:
128,192,94582,128,0,94699:0:0:0:100:06_tom - Part_1.wav
213,192,94582,128,0,94699:0:0:0:0:
298,192,94582,128,0,94699:0:0:0:0:
42,192,94816,1,2,0:0:0:0:
213,192,94816,128,0,95050:0:0:0:0:
298,192,94816,128,0,95050:0:0:0:0:
469,192,94816,128,0,95050:0:0:0:0:
128,192,95050,1,0,0:0:0:100:06_tom - Part_1.wav
213,192,95168,1,0,0:0:0:100:02_clap_snare - Part_1.wav
42,192,95285,1,2,0:0:0:0:
298,192,95285,128,0,95461:0:0:0:0:
384,192,95285,128,0,95461:0:0:0:0:
469,192,95285,128,0,95461:0:0:0:0:
128,192,95519,1,0,0:0:0:100:02_clap_snare - Part_1.wav
213,192,95636,128,2,95754:0:0:0:0:
384,192,95636,128,0,95754:0:0:0:0:
469,192,95636,128,0,95754:0:0:0:0:
42,192,95754,1,2,0:0:0:0:
128,192,95754,1,0,0:0:0:100:04_crash - Part_2.wav
298,192,95754,1,0,0:0:0:0:
213,192,95988,1,0,0:0:0:100:06_tom - Part_1.wav
384,192,95988,1,0,0:0:0:0:
128,192,96105,1,0,0:0:0:100:02_clap_snare - Part_1.wav
42,192,96222,1,2,0:0:0:0:
298,192,96222,1,0,0:0:0:100:04_crash - Part_2.wav
469,192,96222,1,0,0:0:0:0:
128,192,96457,1,0,0:0:0:100:06_tom - Part_1.wav
298,192,96457,1,0,0:0:0:0:
384,192,96574,1,0,0:0:0:0:
42,192,96691,128,2,96925:0:0:0:0:
128,192,96691,128,0,96925:0:0:0:100:04_crash - Part_2.wav
213,192,96691,1,0,0:0:0:0:
469,192,96691,1,0,0:0:0:0:
298,192,96925,1,0,0:0:0:100:06_tom - Part_1.wav
384,192,96925,1,0,0:0:0:0:
42,192,97160,128,2,97336:0:0:0:0:
128,192,97160,128,0,97336:0:0:0:100:04_crash - Part_2.wav
213,192,97160,1,0,0:0:0:0:
384,192,97160,1,0,0:0:0:0:
298,192,97394,1,0,0:0:0:100:06_tom - Part_1.wav
42,192,97511,1,2,0:0:0:0:
128,192,97511,1,0,0:0:0:100:04_crash - Part_5.wav
213,192,97511,1,0,0:0:0:0:
384,192,97511,128,0,97921:0:0:0:0:
469,192,97511,128,0,97921:0:0:0:0:
128,192,97863,1,0,0:0:0:100:06_tom - Part_1.wav
213,192,97980,1,0,0:0:0:100:02_clap_snare - Part_1.wav
42,192,98097,128,2,98214:0:0:0:0:
128,192,98097,128,0,98214:0:0:0:0:
298,192,98097,128,0,98214:0:0:0:0:
469,192,98097,1,0,0:0:0:0:
128,192,98332,128,0,98449:0:0:0:100:06_tom - Part_1.wav
213,192,98332,128,0,98449:0:0:0:0:
384,192,98332,128,0,98449:0:0:0:0:
42,192,98566,1,2,0:0:0:0:
213,192,98566,128,0,98800:0:0:0:0:
298,192,98566,128,0,98800:0:0:0:0:
469,192,98566,128,0,98800:0:0:0:0:
128,192,98800,1,0,0:0:0:100:06_tom - Part_1.wav
213,192,98918,1,0,0:0:0:100:02_clap_snare - Part_1.wav
42,192,99035,1,2,0:0:0:0:
298,192,99035,128,0,99211:0:0:0:0:
384,192,99035,128,0,99211:0:0:0:0:
469,192,99035,128,0,99211:0:0:0:0:
128,192,99269,1,0,0:0:0:100:02_clap_snare - Part_1.wav
213,192,99386,128,2,99504:0:0:0:0:
298,192,99386,128,0,99504:0:0:0:0:
384,192,99386,128,0,99504:0:0:0:0:
42,192,99504,1,2,0:0:0:0:
128,192,99504,1,0,0:0:0:100:04_crash - Part_2.wav
469,192,99504,1,0,0:0:0:0:
42,192,99738,1,0,0:0:0:100:06_tom - Part_1.wav
384,192,99738,1,0,0:0:0:0:
298,192,99855,1,0,0:0:0:100:02_clap_snare - Part_1.wav
128,192,99972,1,2,0:0:0:0:
213,192,99972,1,0,0:0:0:100:04_crash - Part_2.wav
384,192,99972,1,0,0:0:0:0:
213,192,100089,1,0,0:0:0:0:
469,192,100089,1,0,0:0:0:0:
42,192,100207,1,0,0:0:0:100:06_tom - Part_1.wav
384,192,100324,1,0,0:0:0:0:
469,192,100324,1,0,0:0:0:0:
42,192,100441,1,2,0:0:0:0:
128,192,100441,1,0,0:0:0:100:04_crash - Part_2.wav
213,192,100441,1,0,0:0:0:0:
298,192,100558,1,0,0:0:0:0:
384,192,100558,1,0,0:0:0:0:
128,192,100675,1,0,0:0:0:100:06_tom - Part_1.wav
298,192,100675,1,0,0:0:0:0:
42,192,100910,1,2,0:0:0:0:
384,192,100910,1,0,0:0:0:100:04_crash - Part_2.wav
469,192,100910,1,0,0:0:0:0:
298,192,101027,1,0,0:0:0:100:02_clap_snare - Part_1.wav
213,192,101144,1,0,0:0:0:100:06_tom - Part_1.wav
384,192,101144,1,0,0:0:0:0:
128,192,101261,1,0,0:0:0:100:02_clap_snare - Part_1.wav
42,192,101379,128,2,101671:0:0:0:0:
213,192,101379,128,0,101671:0:0:0:100:04_crash - Part_5.wav
298,192,101379,1,0,0:0:0:0:
469,192,101379,1,0,0:0:0:0:
384,192,101613,1,0,0:0:0:100:06_tom - Part_1.wav
469,192,101730,1,0,0:0:0:100:02_clap_snare - Part_1.wav
42,192,101847,128,2,101964:0:0:0:0:
128,192,101847,1,0,0:0:0:0:
213,192,101847,128,0,101964:0:0:0:0:
298,192,101847,128,0,101964:0:0:0:0:
128,192,102082,128,0,102199:0:0:0:100:06_tom - Part_1.wav
298,192,102082,128,0,102199:0:0:0:0:
384,192,102082,128,0,102199:0:0:0:0:
42,192,102316,128,2,102550:0:0:0:0:
213,192,102316,128,0,102550:0:0:0:100:04_crash - Part_5.wav
298,192,102316,1,0,0:0:0:0:
384,192,102316,128,0,102550:0:0:0:0:
469,192,102316,128,0,102550:0:0:0:0:
42,192,102785,128,2,102961:0:0:0:0:
128,192,102785,128,0,102961:0:0:0:100:04_crash - Part_5.wav
213,192,102785,1,0,0:0:0:0:
298,192,102785,128,0,102961:0:0:0:0:
469,192,102785,128,0,102961:0:0:0:0:
42,192,103136,128,2,103371:0:0:0:0:
128,192,103136,128,0,103371:0:0:0:100:04_crash - Part_5.wav
213,192,103136,1,0,0:0:0:0:
384,192,103136,128,0,103371:0:0:0:0:
469,192,103136,128,0,103371:0:0:0:0:
42,192,103488,128,0,103605:0:0:0:100:11_fillin_000.wav
128,192,103488,128,0,103605:0:0:0:0:
213,192,103488,1,0,0:0:0:0:
384,192,103605,1,0,0:0:0:0:
298,192,103664,1,0,0:0:0:0:
42,192,103722,128,0,103839:0:0:0:100:11_fillin_001.wav
128,192,103722,128,0,103839:0:0:0:0:
213,192,103722,1,0,0:0:0:0:
384,192,103839,1,0,0:0:0:0:
298,192,103898,1,0,0:0:0:0:
42,192,103957,128,0,104074:0:0:0:100:11_fillin_000.wav
128,192,103957,128,0,104074:0:0:0:0:
213,192,103957,1,0,0:0:0:0:
384,192,104074,1,0,0:0:0:0:
42,192,104191,1,0,0:0:0:100:11_fillin_002.wav
128,192,104191,1,0,0:0:0:0:
298,192,104250,1,0,0:0:0:0:
42,192,104308,1,0,0:0:0:100:02_clap_snare - Part_4.wav
128,192,104308,1,0,0:0:0:0:
213,192,104425,1,0,0:0:0:100:02_clap_snare - Part_4.wav
384,192,104425,1,0,0:0:0:0:
469,192,104425,1,0,0:0:0:0:
384,192,104543,1,0,0:0:0:100:02_clap_snare - Part_4.wav
469,192,104543,1,0,0:0:0:0:
42,192,104660,1,0,0:0:0:100:13_perc_002.wav
128,192,104660,1,0,0:0:0:100:25_explode_005.wav
213,192,104660,1,0,0:0:0:0:
298,192,104660,1,0,0:0:0:0:
