osu file format v14

[General]
AudioFilename: audio.mp3
AudioLeadIn: 0
PreviewTime: 67454
Countdown: 0
SampleSet: None
StackLeniency: 0.7
Mode: 3
LetterboxInBreaks: 0
SpecialStyle: 0
WidescreenStoryboard: 0

[Editor]
DistanceSpacing: 2
BeatDivisor: 8
GridSize: 16
TimelineZoom: 1.7

[Metadata]
Title:B612
TitleUnicode:B612
Artist:litmus*
ArtistUnicode:litmus*
Creator:Dreamwalker
Version:Le Petit Prince
Source:BMS
Tags:G2R2018 go back to your roots dump jack LN
BeatmapID:1853574
BeatmapSetID:885961

[Difficulty]
HPDrainRate:9.1
CircleSize:4
OverallDifficulty:7.6
ApproachRate:0
SliderMultiplier:1.4
SliderTickRate:1

[Events]
//Background and Video events
0,0,"__stagefile.png",0,0
//Break Periods
//Storyboard Layer 0 (Background)
//Storyboard Layer 1 (Fail)
//Storyboard Layer 2 (Pass)
//Storyboard Layer 3 (Foreground)
//Storyboard Sound Samples

[TimingPoints]
5518,329.67032967033,4,1,0,20,1,0

[HitObjects]
448,192,5518,128,0,5765:0:0:0:0:
320,192,5518,128,0,5765:0:0:0:0:
64,192,5518,128,0,7990:0:0:0:0:
192,192,5682,128,0,5765:0:0:0:0:
320,192,5847,128,0,5930:0:0:0:0:
320,192,6012,128,0,6259:0:0:0:0:
192,192,6012,128,0,6259:0:0:0:0:
448,192,6177,128,0,6259:0:0:0:0:
192,192,6342,128,0,6589:0:0:0:0:
448,192,6342,128,0,6754:0:0:0:0:
320,192,6507,128,0,6589:0:0:0:0:
320,192,6671,128,0,6754:0:0:0:0:
320,192,6836,128,0,7083:0:0:0:0:
192,192,6836,128,0,7248:0:0:0:0:
448,192,7001,128,0,7083:0:0:0:0:
320,192,7166,128,0,7248:0:0:0:0:
192,192,7331,128,0,7578:0:0:0:0:
448,192,7331,128,0,7578:0:0:0:0:
320,192,7496,128,0,7578:0:0:0:0:
448,192,7660,128,0,7908:0:0:0:0:
320,192,7660,128,0,7908:0:0:0:0:
192,192,7825,128,0,7908:0:0:0:0:
320,192,7990,128,0,8155:0:0:0:0:
192,192,7990,128,0,8402:0:0:0:0:
64,192,8155,128,0,8237:0:0:0:0:
448,192,8155,128,0,10627:0:0:0:0:
64,192,8320,128,0,8402:0:0:0:0:
192,192,8485,128,0,8567:0:0:0:0:
64,192,8649,128,0,8897:0:0:0:0:
192,192,8649,128,0,8897:0:0:0:0:
320,192,8814,128,0,8897:0:0:0:0:
320,192,8979,128,0,9226:0:0:0:0:
64,192,8979,128,0,9226:0:0:0:0:
192,192,9144,128,0,9226:0:0:0:0:
192,192,9309,128,0,9721:0:0:0:0:
64,192,9309,128,0,9474:0:0:0:0:
320,192,9474,128,0,9886:0:0:0:0:
64,192,9638,128,0,9721:0:0:0:0:
192,192,9803,128,0,9886:0:0:0:0:
320,192,9968,128,0,10215:0:0:0:0:
192,192,9968,128,0,10215:0:0:0:0:
64,192,10133,128,0,10215:0:0:0:0:
64,192,10298,128,0,10545:0:0:0:0:
192,192,10298,128,0,10545:0:0:0:0:
320,192,10463,128,0,10545:0:0:0:0:
320,192,10627,128,0,11039:0:0:0:0:
64,192,10627,128,0,10792:0:0:0:0:
192,192,10792,128,0,12935:0:0:0:0:
448,192,10792,128,0,10875:0:0:0:0:
448,192,10957,128,0,11039:0:0:0:0:
320,192,11122,128,0,11204:0:0:0:0:
448,192,11287,128,0,11534:0:0:0:0:
320,192,11287,128,0,11534:0:0:0:0:
64,192,11452,128,0,11534:0:0:0:0:
320,192,11616,128,0,11781:0:0:0:0:
64,192,11616,128,0,11781:0:0:0:0:
448,192,11781,1,0,0:0:0:0:
448,192,11864,1,0,0:0:0:0:
320,192,11946,1,0,0:0:0:0:
64,192,12028,1,0,0:0:0:0:
448,192,12111,128,0,12358:0:0:0:0:
64,192,12111,128,0,12358:0:0:0:0:
320,192,12276,128,0,12358:0:0:0:0:
448,192,12441,128,0,12605:0:0:0:0:
320,192,12441,128,0,12605:0:0:0:0:
64,192,12605,128,0,12770:0:0:0:0:
448,192,12688,1,0,0:0:0:0:
320,192,12688,1,0,0:0:0:0:
320,192,12770,128,0,12935:0:0:0:0:
64,192,12935,1,0,0:0:0:0:
448,192,12935,1,0,0:0:0:0:
320,192,13100,1,0,0:0:0:0:
64,192,13100,1,0,0:0:0:0:
320,192,13182,1,0,0:0:0:0:
448,192,13265,128,0,13430:0:0:0:0:
192,192,13265,1,0,0:0:0:0:
64,192,13347,1,0,0:0:0:0:
320,192,13430,1,0,0:0:0:0:
192,192,13430,1,0,0:0:0:0:
320,192,13594,1,0,0:0:0:0:
64,192,13594,1,0,0:0:0:0:
192,192,13677,1,0,0:0:0:0:
320,192,13759,1,0,0:0:0:0:
64,192,13759,1,0,0:0:0:0:
448,192,13842,1,0,0:0:0:0:
320,192,13924,1,0,0:0:0:0:
192,192,13924,1,0,0:0:0:0:
320,192,14089,1,0,0:0:0:0:
192,192,14089,1,0,0:0:0:0:
192,192,14171,1,0,0:0:0:0:
64,192,14171,1,0,0:0:0:0:
448,192,14254,1,0,0:0:0:0:
320,192,14254,1,0,0:0:0:0:
192,192,14419,1,0,0:0:0:0:
64,192,14419,1,0,0:0:0:0:
448,192,14501,1,0,0:0:0:0:
320,192,14501,1,0,0:0:0:0:
192,192,14583,1,0,0:0:0:0:
448,192,14666,1,0,0:0:0:0:
64,192,14666,1,0,0:0:0:0:
320,192,14748,1,0,0:0:0:0:
192,192,14748,1,0,0:0:0:0:
320,192,14831,1,0,0:0:0:0:
192,192,14913,1,0,0:0:0:0:
64,192,14913,1,0,0:0:0:0:
64,192,14996,1,0,0:0:0:0:
320,192,15078,1,0,0:0:0:0:
448,192,15078,1,0,0:0:0:0:
448,192,15160,1,0,0:0:0:0:
192,192,15243,1,0,0:0:0:0:
64,192,15243,1,0,0:0:0:0:
192,192,15325,1,0,0:0:0:0:
320,192,15325,1,0,0:0:0:0:
320,192,15408,1,0,0:0:0:0:
448,192,15408,1,0,0:0:0:0:
192,192,15490,1,0,0:0:0:0:
64,192,15490,1,0,0:0:0:0:
192,192,15572,1,0,0:0:0:0:
320,192,15572,1,0,0:0:0:0:
320,192,15655,1,0,0:0:0:0:
448,192,15655,1,0,0:0:0:0:
448,192,15737,128,0,15820:0:0:0:0:
320,192,15737,128,0,15820:0:0:0:0:
192,192,15737,128,0,15820:0:0:0:0:
64,192,15737,128,0,15820:0:0:0:0:
320,192,16067,128,0,16211:0:0:0:0:
192,192,16067,128,0,16232:0:0:0:0:
64,192,16067,128,0,16252:0:0:0:0:
320,192,16314,128,0,16500:0:0:0:0:
192,192,16314,128,0,16479:0:0:0:0:
64,192,16314,128,0,16458:0:0:0:0:
320,192,16561,128,0,16706:0:0:0:0:
64,192,16561,128,0,16747:0:0:0:0:
192,192,16561,128,0,16726:0:0:0:0:
448,192,16726,1,0,0:0:0:0:
320,192,16781,1,0,0:0:0:0:
448,192,16836,1,0,0:0:0:0:
64,192,16891,1,0,0:0:0:0:
192,192,16891,1,0,0:0:0:0:
448,192,16932,1,0,0:0:0:0:
192,192,16974,1,0,0:0:0:0:
64,192,17015,1,0,0:0:0:0:
192,192,17056,128,0,17200:0:0:0:0:
320,192,17056,128,0,17221:0:0:0:0:
448,192,17056,128,0,17241:0:0:0:0:
320,192,17303,128,0,17468:0:0:0:0:
448,192,17303,128,0,17447:0:0:0:0:
192,192,17303,128,0,17489:0:0:0:0:
192,192,17550,128,0,17695:0:0:0:0:
320,192,17550,128,0,17715:0:0:0:0:
448,192,17550,128,0,17736:0:0:0:0:
64,192,17715,1,0,0:0:0:0:
192,192,17757,1,0,0:0:0:0:
448,192,17798,1,0,0:0:0:0:
192,192,17839,1,0,0:0:0:0:
64,192,17880,128,0,17935:0:0:0:0:
320,192,17880,1,0,0:0:0:0:
448,192,17963,128,0,18018:0:0:0:0:
320,192,17963,1,0,0:0:0:0:
64,192,18045,1,0,0:0:0:0:
192,192,18127,1,0,0:0:0:0:
320,192,18127,1,0,0:0:0:0:
192,192,18210,128,0,18292:0:0:0:0:
320,192,18237,128,0,18320:0:0:0:0:
64,192,18292,1,0,0:0:0:0:
448,192,18375,1,0,0:0:0:0:
192,192,18375,1,0,0:0:0:0:
64,192,18375,1,0,0:0:0:0:
320,192,18375,1,0,0:0:0:0:
64,192,18704,128,0,18849:0:0:0:0:
192,192,18704,128,0,18869:0:0:0:0:
320,192,18704,128,0,18890:0:0:0:0:
320,192,18952,128,0,19137:0:0:0:0:
192,192,18952,128,0,19116:0:0:0:0:
64,192,18952,128,0,19096:0:0:0:0:
64,192,19199,128,0,19343:0:0:0:0:
320,192,19199,128,0,19384:0:0:0:0:
192,192,19199,128,0,19364:0:0:0:0:
448,192,19364,1,0,0:0:0:0:
64,192,19425,1,0,0:0:0:0:
192,192,19446,1,0,0:0:0:0:
64,192,19528,1,0,0:0:0:0:
192,192,19528,1,0,0:0:0:0:
448,192,19590,1,0,0:0:0:0:
320,192,19611,1,0,0:0:0:0:
64,192,19652,1,0,0:0:0:0:
448,192,19693,128,0,19838:0:0:0:0:
320,192,19693,128,0,19858:0:0:0:0:
192,192,19693,128,0,19879:0:0:0:0:
320,192,19941,128,0,20105:0:0:0:0:
448,192,19941,128,0,20085:0:0:0:0:
192,192,19941,128,0,20126:0:0:0:0:
448,192,20188,128,0,20332:0:0:0:0:
320,192,20188,128,0,20353:0:0:0:0:
192,192,20188,128,0,20373:0:0:0:0:
64,192,20353,1,0,0:0:0:0:
448,192,20435,128,0,20490:0:0:0:0:
320,192,20435,1,0,0:0:0:0:
320,192,20518,128,0,20572:0:0:0:0:
192,192,20518,1,0,0:0:0:0:
192,192,20600,128,0,20655:0:0:0:0:
64,192,20600,1,0,0:0:0:0:
448,192,20682,128,0,20765:0:0:0:0:
320,192,20724,128,0,20785:0:0:0:0:
192,192,20737,128,0,20785:0:0:0:0:
448,192,20847,128,0,20909:0:0:0:0:
320,192,20888,128,0,20930:0:0:0:0:
192,192,20902,128,0,20930:0:0:0:0:
64,192,20930,1,0,0:0:0:0:
320,192,21012,1,0,0:0:0:0:
192,192,21012,1,0,0:0:0:0:
64,192,21012,1,0,0:0:0:0:
448,192,21012,1,0,0:0:0:0:
448,192,21342,128,0,21589:0:0:0:0:
192,192,21342,1,0,0:0:0:0:
64,192,21342,1,0,0:0:0:0:
320,192,21342,128,0,21589:0:0:0:0:
448,192,21671,128,0,21919:0:0:0:0:
64,192,21671,1,0,0:0:0:0:
320,192,21671,128,0,21919:0:0:0:0:
64,192,21836,1,0,0:0:0:0:
192,192,21919,1,0,0:0:0:0:
448,192,22001,128,0,22248:0:0:0:0:
64,192,22001,1,0,0:0:0:0:
320,192,22001,128,0,22248:0:0:0:0:
192,192,22166,1,0,0:0:0:0:
64,192,22248,1,0,0:0:0:0:
448,192,22331,128,0,22578:0:0:0:0:
320,192,22331,1,0,0:0:0:0:
320,192,22496,1,0,0:0:0:0:
448,192,22660,128,0,22908:0:0:0:0:
192,192,22660,1,0,0:0:0:0:
320,192,22660,128,0,22908:0:0:0:0:
192,192,22825,1,0,0:0:0:0:
448,192,22990,128,0,23237:0:0:0:0:
64,192,22990,1,0,0:0:0:0:
320,192,22990,128,0,23237:0:0:0:0:
192,192,23155,1,0,0:0:0:0:
64,192,23237,1,0,0:0:0:0:
192,192,23320,1,0,0:0:0:0:
448,192,23320,128,0,23567:0:0:0:0:
320,192,23320,128,0,23567:0:0:0:0:
192,192,23485,1,0,0:0:0:0:
64,192,23567,1,0,0:0:0:0:
448,192,23649,128,0,23897:0:0:0:0:
320,192,23649,1,0,0:0:0:0:
320,192,23814,1,0,0:0:0:0:
448,192,23979,1,0,0:0:0:0:
64,192,23979,1,0,0:0:0:0:
64,192,24061,1,0,0:0:0:0:
320,192,24144,1,0,0:0:0:0:
448,192,24226,1,0,0:0:0:0:
64,192,24226,1,0,0:0:0:0:
320,192,24309,1,0,0:0:0:0:
192,192,24309,1,0,0:0:0:0:
320,192,24391,1,0,0:0:0:0:
64,192,24474,1,0,0:0:0:0:
320,192,24556,1,0,0:0:0:0:
448,192,24556,1,0,0:0:0:0:
64,192,24638,1,0,0:0:0:0:
192,192,24638,1,0,0:0:0:0:
192,192,24721,1,0,0:0:0:0:
448,192,24803,1,0,0:0:0:0:
192,192,24886,1,0,0:0:0:0:
320,192,24886,1,0,0:0:0:0:
64,192,24968,1,0,0:0:0:0:
448,192,24968,1,0,0:0:0:0:
448,192,25050,1,0,0:0:0:0:
64,192,25133,1,0,0:0:0:0:
320,192,25215,1,0,0:0:0:0:
192,192,25215,1,0,0:0:0:0:
64,192,25298,128,0,25380:0:0:0:0:
448,192,25298,128,0,25380:0:0:0:0:
320,192,25298,128,0,25380:0:0:0:0:
192,192,25463,128,0,25545:0:0:0:0:
320,192,25545,128,0,25627:0:0:0:0:
448,192,25545,128,0,25627:0:0:0:0:
192,192,25710,128,0,25792:0:0:0:0:
320,192,25792,128,0,25875:0:0:0:0:
64,192,25792,128,0,25875:0:0:0:0:
320,192,25957,128,0,26039:0:0:0:0:
192,192,25957,128,0,26039:0:0:0:0:
448,192,26122,128,0,26204:0:0:0:0:
64,192,26122,128,0,26204:0:0:0:0:
320,192,26204,1,0,0:0:0:0:
192,192,26204,1,0,0:0:0:0:
64,192,26287,1,0,0:0:0:0:
192,192,26287,1,0,0:0:0:0:
320,192,26287,1,0,0:0:0:0:
448,192,26287,1,0,0:0:0:0:
64,192,26616,128,0,26671:0:0:0:0:
192,192,26616,1,0,0:0:0:0:
192,192,26781,1,0,0:0:0:0:
64,192,26946,128,0,27001:0:0:0:0:
320,192,26946,1,0,0:0:0:0:
448,192,26946,1,0,0:0:0:0:
192,192,27111,128,0,27166:0:0:0:0:
64,192,27111,1,0,0:0:0:0:
192,192,27276,1,0,0:0:0:0:
64,192,27441,1,0,0:0:0:0:
192,192,27441,128,0,27496:0:0:0:0:
320,192,27468,128,0,27523:0:0:0:0:
320,192,27605,128,0,27660:0:0:0:0:
448,192,27605,1,0,0:0:0:0:
64,192,27605,1,0,0:0:0:0:
448,192,27770,128,0,27825:0:0:0:0:
320,192,27770,1,0,0:0:0:0:
448,192,27935,1,0,0:0:0:0:
320,192,28100,1,0,0:0:0:0:
448,192,28100,1,0,0:0:0:0:
320,192,28265,128,0,28320:0:0:0:0:
64,192,28265,1,0,0:0:0:0:
192,192,28265,1,0,0:0:0:0:
448,192,28292,128,0,28347:0:0:0:0:
320,192,28430,128,0,28485:0:0:0:0:
64,192,28430,1,0,0:0:0:0:
192,192,28512,1,0,0:0:0:0:
64,192,28512,1,0,0:0:0:0:
448,192,28512,1,0,0:0:0:0:
320,192,28594,1,0,0:0:0:0:
64,192,28759,1,0,0:0:0:0:
192,192,28759,128,0,28814:0:0:0:0:
448,192,28924,1,0,0:0:0:0:
320,192,28924,1,0,0:0:0:0:
64,192,28924,1,0,0:0:0:0:
448,192,29089,128,0,29254:0:0:0:0:
320,192,29089,128,0,29144:0:0:0:0:
192,192,29254,128,0,29309:0:0:0:0:
64,192,29254,1,0,0:0:0:0:
192,192,29419,1,0,0:0:0:0:
64,192,29583,128,0,29638:0:0:0:0:
320,192,29583,1,0,0:0:0:0:
448,192,29583,1,0,0:0:0:0:
192,192,29748,128,0,29803:0:0:0:0:
64,192,29748,1,0,0:0:0:0:
192,192,29913,1,0,0:0:0:0:
192,192,30078,128,0,30133:0:0:0:0:
64,192,30078,1,0,0:0:0:0:
320,192,30105,128,0,30160:0:0:0:0:
448,192,30243,1,0,0:0:0:0:
192,192,30243,1,0,0:0:0:0:
320,192,30243,1,0,0:0:0:0:
448,192,30408,128,0,30463:0:0:0:0:
192,192,30408,1,0,0:0:0:0:
320,192,30490,1,0,0:0:0:0:
192,192,30490,1,0,0:0:0:0:
64,192,30490,1,0,0:0:0:0:
448,192,30572,1,0,0:0:0:0:
320,192,30737,1,0,0:0:0:0:
448,192,30737,1,0,0:0:0:0:
192,192,30902,1,0,0:0:0:0:
64,192,30902,1,0,0:0:0:0:
320,192,30902,128,0,30957:0:0:0:0:
448,192,30930,128,0,30985:0:0:0:0:
192,192,31067,1,0,0:0:0:0:
320,192,31067,128,0,31122:0:0:0:0:
64,192,31149,1,0,0:0:0:0:
448,192,31149,1,0,0:0:0:0:
192,192,31149,1,0,0:0:0:0:
320,192,31232,1,0,0:0:0:0:
448,192,31397,1,0,0:0:0:0:
320,192,31397,128,0,31452:0:0:0:0:
192,192,31561,1,0,0:0:0:0:
64,192,31561,128,0,31616:0:0:0:0:
320,192,31726,1,0,0:0:0:0:
192,192,31726,128,0,31781:0:0:0:0:
448,192,31726,128,0,31891:0:0:0:0:
192,192,31891,1,0,0:0:0:0:
64,192,31891,128,0,31946:0:0:0:0:
192,192,32056,1,0,0:0:0:0:
448,192,32221,1,0,0:0:0:0:
64,192,32221,1,0,0:0:0:0:
192,192,32221,128,0,32276:0:0:0:0:
448,192,32386,1,0,0:0:0:0:
320,192,32386,128,0,32441:0:0:0:0:
320,192,32550,1,0,0:0:0:0:
448,192,32715,1,0,0:0:0:0:
320,192,32715,128,0,32770:0:0:0:0:
448,192,32880,1,0,0:0:0:0:
192,192,32880,1,0,0:0:0:0:
64,192,32880,1,0,0:0:0:0:
64,192,33045,1,0,0:0:0:0:
192,192,33045,128,0,33100:0:0:0:0:
192,192,33210,1,0,0:0:0:0:
64,192,33375,1,0,0:0:0:0:
192,192,33375,128,0,33430:0:0:0:0:
64,192,33539,1,0,0:0:0:0:
320,192,33539,1,0,0:0:0:0:
448,192,33539,128,0,33594:0:0:0:0:
448,192,33704,1,0,0:0:0:0:
320,192,33704,128,0,33759:0:0:0:0:
448,192,33787,1,0,0:0:0:0:
64,192,33787,1,0,0:0:0:0:
192,192,33787,1,0,0:0:0:0:
192,192,33869,128,0,33924:0:0:0:0:
448,192,34034,1,0,0:0:0:0:
320,192,34034,128,0,34089:0:0:0:0:
448,192,34199,1,0,0:0:0:0:
192,192,34199,1,0,0:0:0:0:
64,192,34199,1,0,0:0:0:0:
64,192,34364,128,0,34419:0:0:0:0:
192,192,34364,1,0,0:0:0:0:
320,192,34446,1,0,0:0:0:0:
448,192,34446,1,0,0:0:0:0:
448,192,34528,1,0,0:0:0:0:
320,192,34528,1,0,0:0:0:0:
448,192,34693,128,0,34748:0:0:0:0:
320,192,34858,1,0,0:0:0:0:
64,192,34858,1,0,0:0:0:0:
448,192,34858,128,0,34913:0:0:0:0:
192,192,35023,1,0,0:0:0:0:
64,192,35023,128,0,35078:0:0:0:0:
192,192,35188,128,0,35243:0:0:0:0:
448,192,35353,1,0,0:0:0:0:
64,192,35353,1,0,0:0:0:0:
320,192,35353,128,0,35408:0:0:0:0:
320,192,35518,1,0,0:0:0:0:
64,192,35518,1,0,0:0:0:0:
192,192,35518,1,0,0:0:0:0:
320,192,35682,1,0,0:0:0:0:
448,192,35682,1,0,0:0:0:0:
320,192,35765,1,0,0:0:0:0:
192,192,35765,1,0,0:0:0:0:
64,192,35765,1,0,0:0:0:0:
192,192,35930,1,0,0:0:0:0:
320,192,35930,1,0,0:0:0:0:
64,192,35930,1,0,0:0:0:0:
320,192,36012,1,0,0:0:0:0:
448,192,36012,1,0,0:0:0:0:
192,192,36177,1,0,0:0:0:0:
320,192,36177,1,0,0:0:0:0:
448,192,36177,1,0,0:0:0:0:
192,192,36342,1,0,0:0:0:0:
64,192,36342,1,0,0:0:0:0:
192,192,36424,1,0,0:0:0:0:
320,192,36424,1,0,0:0:0:0:
448,192,36424,1,0,0:0:0:0:
448,192,36589,1,0,0:0:0:0:
320,192,36589,1,0,0:0:0:0:
192,192,36589,1,0,0:0:0:0:
192,192,36671,1,0,0:0:0:0:
64,192,36671,1,0,0:0:0:0:
320,192,36836,1,0,0:0:0:0:
192,192,36836,1,0,0:0:0:0:
64,192,36836,1,0,0:0:0:0:
192,192,36919,1,0,0:0:0:0:
64,192,36919,1,0,0:0:0:0:
320,192,37001,1,0,0:0:0:0:
448,192,37001,1,0,0:0:0:0:
192,192,37083,1,0,0:0:0:0:
320,192,37083,1,0,0:0:0:0:
192,192,37166,1,0,0:0:0:0:
448,192,37166,1,0,0:0:0:0:
64,192,37166,1,0,0:0:0:0:
192,192,37331,1,0,0:0:0:0:
320,192,37496,1,0,0:0:0:0:
448,192,37496,1,0,0:0:0:0:
64,192,37496,1,0,0:0:0:0:
64,192,37660,1,0,0:0:0:0:
192,192,37660,1,0,0:0:0:0:
192,192,37825,1,0,0:0:0:0:
64,192,37990,1,0,0:0:0:0:
192,192,37990,1,0,0:0:0:0:
320,192,38018,1,0,0:0:0:0:
448,192,38155,1,0,0:0:0:0:
64,192,38155,1,0,0:0:0:0:
320,192,38155,1,0,0:0:0:0:
320,192,38320,1,0,0:0:0:0:
448,192,38320,1,0,0:0:0:0:
448,192,38485,1,0,0:0:0:0:
192,192,38485,1,0,0:0:0:0:
64,192,38567,1,0,0:0:0:0:
320,192,38649,1,0,0:0:0:0:
448,192,38649,1,0,0:0:0:0:
64,192,38814,1,0,0:0:0:0:
192,192,38814,1,0,0:0:0:0:
320,192,38814,1,0,0:0:0:0:
448,192,38842,1,0,0:0:0:0:
64,192,38979,1,0,0:0:0:0:
320,192,38979,1,0,0:0:0:0:
192,192,39061,1,0,0:0:0:0:
64,192,39061,1,0,0:0:0:0:
448,192,39061,1,0,0:0:0:0:
320,192,39144,1,0,0:0:0:0:
64,192,39309,1,0,0:0:0:0:
192,192,39309,1,0,0:0:0:0:
448,192,39474,1,0,0:0:0:0:
320,192,39474,1,0,0:0:0:0:
64,192,39474,1,0,0:0:0:0:
448,192,39638,128,0,39803:0:0:0:0:
320,192,39638,1,0,0:0:0:0:
64,192,39803,1,0,0:0:0:0:
192,192,39803,1,0,0:0:0:0:
192,192,39968,1,0,0:0:0:0:
320,192,40133,1,0,0:0:0:0:
448,192,40133,1,0,0:0:0:0:
64,192,40133,1,0,0:0:0:0:
64,192,40298,1,0,0:0:0:0:
192,192,40298,1,0,0:0:0:0:
320,192,40380,1,0,0:0:0:0:
192,192,40463,1,0,0:0:0:0:
448,192,40545,1,0,0:0:0:0:
64,192,40627,1,0,0:0:0:0:
192,192,40627,1,0,0:0:0:0:
320,192,40655,1,0,0:0:0:0:
448,192,40792,1,0,0:0:0:0:
192,192,40792,1,0,0:0:0:0:
320,192,40792,1,0,0:0:0:0:
192,192,40957,1,0,0:0:0:0:
448,192,40957,1,0,0:0:0:0:
320,192,41039,1,0,0:0:0:0:
192,192,41039,1,0,0:0:0:0:
64,192,41039,1,0,0:0:0:0:
448,192,41122,1,0,0:0:0:0:
192,192,41204,1,0,0:0:0:0:
320,192,41287,1,0,0:0:0:0:
448,192,41287,1,0,0:0:0:0:
192,192,41452,1,0,0:0:0:0:
64,192,41452,1,0,0:0:0:0:
320,192,41452,1,0,0:0:0:0:
448,192,41479,1,0,0:0:0:0:
192,192,41616,1,0,0:0:0:0:
320,192,41616,1,0,0:0:0:0:
64,192,41699,1,0,0:0:0:0:
448,192,41699,1,0,0:0:0:0:
192,192,41699,1,0,0:0:0:0:
320,192,41781,1,0,0:0:0:0:
64,192,41864,1,0,0:0:0:0:
448,192,41946,1,0,0:0:0:0:
320,192,41946,1,0,0:0:0:0:
192,192,42111,1,0,0:0:0:0:
64,192,42111,1,0,0:0:0:0:
448,192,42111,1,0,0:0:0:0:
320,192,42276,1,0,0:0:0:0:
448,192,42276,128,0,42441:0:0:0:0:
192,192,42276,1,0,0:0:0:0:
192,192,42441,1,0,0:0:0:0:
64,192,42441,1,0,0:0:0:0:
320,192,42523,1,0,0:0:0:0:
64,192,42605,1,0,0:0:0:0:
448,192,42770,1,0,0:0:0:0:
64,192,42770,1,0,0:0:0:0:
192,192,42770,1,0,0:0:0:0:
320,192,42853,1,0,0:0:0:0:
64,192,42935,1,0,0:0:0:0:
192,192,42935,1,0,0:0:0:0:
448,192,43018,1,0,0:0:0:0:
64,192,43100,1,0,0:0:0:0:
192,192,43100,1,0,0:0:0:0:
448,192,43182,1,0,0:0:0:0:
192,192,43265,1,0,0:0:0:0:
320,192,43265,1,0,0:0:0:0:
448,192,43347,1,0,0:0:0:0:
64,192,43430,1,0,0:0:0:0:
192,192,43430,1,0,0:0:0:0:
320,192,43430,1,0,0:0:0:0:
448,192,43512,1,0,0:0:0:0:
64,192,43594,1,0,0:0:0:0:
192,192,43594,1,0,0:0:0:0:
448,192,43677,1,0,0:0:0:0:
192,192,43759,1,0,0:0:0:0:
320,192,43759,1,0,0:0:0:0:
64,192,43842,1,0,0:0:0:0:
320,192,43924,1,0,0:0:0:0:
448,192,43924,1,0,0:0:0:0:
64,192,44007,1,0,0:0:0:0:
320,192,44089,1,0,0:0:0:0:
448,192,44089,1,0,0:0:0:0:
192,192,44089,1,0,0:0:0:0:
64,192,44171,1,0,0:0:0:0:
448,192,44254,1,0,0:0:0:0:
320,192,44254,1,0,0:0:0:0:
448,192,44336,1,0,0:0:0:0:
64,192,44336,1,0,0:0:0:0:
192,192,44336,1,0,0:0:0:0:
192,192,44419,1,0,0:0:0:0:
64,192,44501,1,0,0:0:0:0:
448,192,44583,1,0,0:0:0:0:
320,192,44583,1,0,0:0:0:0:
192,192,44666,1,0,0:0:0:0:
448,192,44748,1,0,0:0:0:0:
320,192,44748,1,0,0:0:0:0:
64,192,44748,1,0,0:0:0:0:
320,192,44831,1,0,0:0:0:0:
192,192,44831,1,0,0:0:0:0:
192,192,44913,1,0,0:0:0:0:
64,192,44913,1,0,0:0:0:0:
320,192,44996,1,0,0:0:0:0:
448,192,44996,1,0,0:0:0:0:
448,192,45078,1,0,0:0:0:0:
320,192,45078,1,0,0:0:0:0:
64,192,45078,1,0,0:0:0:0:
192,192,45160,1,0,0:0:0:0:
448,192,45243,1,0,0:0:0:0:
320,192,45243,1,0,0:0:0:0:
64,192,45325,1,0,0:0:0:0:
320,192,45408,1,0,0:0:0:0:
192,192,45408,1,0,0:0:0:0:
448,192,45408,1,0,0:0:0:0:
192,192,45490,1,0,0:0:0:0:
320,192,45572,1,0,0:0:0:0:
64,192,45572,1,0,0:0:0:0:
448,192,45655,1,0,0:0:0:0:
192,192,45737,1,0,0:0:0:0:
320,192,45737,1,0,0:0:0:0:
320,192,45820,1,0,0:0:0:0:
448,192,45902,1,0,0:0:0:0:
64,192,45902,1,0,0:0:0:0:
192,192,45902,1,0,0:0:0:0:
448,192,45985,1,0,0:0:0:0:
320,192,46067,1,0,0:0:0:0:
64,192,46067,1,0,0:0:0:0:
192,192,46067,1,0,0:0:0:0:
64,192,46149,1,0,0:0:0:0:
320,192,46232,1,0,0:0:0:0:
448,192,46232,1,0,0:0:0:0:
320,192,46314,1,0,0:0:0:0:
192,192,46314,1,0,0:0:0:0:
64,192,46314,1,0,0:0:0:0:
192,192,46479,1,0,0:0:0:0:
320,192,46479,1,0,0:0:0:0:
64,192,46479,1,0,0:0:0:0:
320,192,46561,1,0,0:0:0:0:
448,192,46561,1,0,0:0:0:0:
64,192,46644,1,0,0:0:0:0:
192,192,46726,1,0,0:0:0:0:
320,192,46726,1,0,0:0:0:0:
64,192,46726,1,0,0:0:0:0:
448,192,46809,1,0,0:0:0:0:
192,192,46891,1,0,0:0:0:0:
64,192,46891,1,0,0:0:0:0:
192,192,46974,1,0,0:0:0:0:
64,192,46974,1,0,0:0:0:0:
448,192,46974,1,0,0:0:0:0:
448,192,47056,1,0,0:0:0:0:
320,192,47056,1,0,0:0:0:0:
320,192,47138,1,0,0:0:0:0:
192,192,47138,1,0,0:0:0:0:
192,192,47221,1,0,0:0:0:0:
64,192,47221,1,0,0:0:0:0:
448,192,47303,1,0,0:0:0:0:
320,192,47303,1,0,0:0:0:0:
448,192,47386,128,0,47523:0:0:0:0:
320,192,47386,128,0,47550:0:0:0:0:
192,192,47386,128,0,47578:0:0:0:0:
64,192,47386,128,0,47605:0:0:0:0:
192,192,47715,128,0,48169:0:0:0:0:
64,192,47715,128,0,48169:0:0:0:0:
448,192,47715,128,0,48169:0:0:0:0:
64,192,48210,1,0,0:0:0:0:
192,192,48210,1,0,0:0:0:0:
448,192,48210,1,0,0:0:0:0:
192,192,48292,1,0,0:0:0:0:
64,192,48292,1,0,0:0:0:0:
448,192,48375,1,0,0:0:0:0:
320,192,48375,1,0,0:0:0:0:
64,192,48375,1,0,0:0:0:0:
192,192,48457,1,0,0:0:0:0:
320,192,48478,1,0,0:0:0:0:
192,192,48539,1,0,0:0:0:0:
320,192,48560,1,0,0:0:0:0:
64,192,48622,1,0,0:0:0:0:
192,192,48643,1,0,0:0:0:0:
448,192,48704,128,0,48766:0:0:0:0:
320,192,48725,128,0,48766:0:0:0:0:
192,192,48746,128,0,48766:0:0:0:0:
448,192,48869,128,0,49158:0:0:0:0:
192,192,48869,128,0,49158:0:0:0:0:
64,192,48869,128,0,49158:0:0:0:0:
448,192,49199,1,0,0:0:0:0:
192,192,49199,1,0,0:0:0:0:
64,192,49199,1,0,0:0:0:0:
448,192,49364,128,0,49652:0:0:0:0:
192,192,49364,128,0,49652:0:0:0:0:
64,192,49364,128,0,49652:0:0:0:0:
448,192,49693,1,0,0:0:0:0:
192,192,49693,1,0,0:0:0:0:
64,192,49693,1,0,0:0:0:0:
448,192,49776,1,0,0:0:0:0:
64,192,49776,1,0,0:0:0:0:
192,192,49858,1,0,0:0:0:0:
320,192,49858,128,0,49941:0:0:0:0:
64,192,49941,1,0,0:0:0:0:
448,192,49941,128,0,50023:0:0:0:0:
192,192,50023,1,0,0:0:0:0:
448,192,50105,128,0,50188:0:0:0:0:
320,192,50188,128,0,50270:0:0:0:0:
192,192,50188,1,0,0:0:0:0:
64,192,50188,1,0,0:0:0:0:
64,192,50270,128,0,50353:0:0:0:0:
192,192,50353,128,0,50806:0:0:0:0:
320,192,50353,128,0,50806:0:0:0:0:
448,192,50353,128,0,50806:0:0:0:0:
320,192,50847,1,0,0:0:0:0:
192,192,50847,1,0,0:0:0:0:
448,192,50847,1,0,0:0:0:0:
320,192,50930,1,0,0:0:0:0:
64,192,50930,1,0,0:0:0:0:
64,192,51012,1,0,0:0:0:0:
192,192,51012,1,0,0:0:0:0:
448,192,51012,1,0,0:0:0:0:
320,192,51067,1,0,0:0:0:0:
64,192,51115,1,0,0:0:0:0:
192,192,51136,1,0,0:0:0:0:
448,192,51177,1,0,0:0:0:0:
320,192,51218,1,0,0:0:0:0:
192,192,51259,1,0,0:0:0:0:
64,192,51300,1,0,0:0:0:0:
320,192,51342,128,0,51383:0:0:0:0:
320,192,51424,128,0,51465:0:0:0:0:
448,192,51507,128,0,51795:0:0:0:0:
192,192,51507,128,0,51795:0:0:0:0:
64,192,51507,128,0,51795:0:0:0:0:
448,192,51836,1,0,0:0:0:0:
192,192,51836,1,0,0:0:0:0:
64,192,51836,1,0,0:0:0:0:
448,192,52001,128,0,52289:0:0:0:0:
192,192,52001,128,0,52289:0:0:0:0:
64,192,52001,128,0,52289:0:0:0:0:
448,192,52331,1,0,0:0:0:0:
192,192,52331,1,0,0:0:0:0:
64,192,52331,1,0,0:0:0:0:
192,192,52413,1,0,0:0:0:0:
320,192,52413,1,0,0:0:0:0:
64,192,52496,1,0,0:0:0:0:
320,192,52496,128,0,52578:0:0:0:0:
448,192,52578,1,0,0:0:0:0:
64,192,52578,128,0,52660:0:0:0:0:
320,192,52660,1,0,0:0:0:0:
448,192,52743,128,0,52825:0:0:0:0:
320,192,52825,128,0,52908:0:0:0:0:
192,192,52825,1,0,0:0:0:0:
64,192,52825,1,0,0:0:0:0:
192,192,52908,128,0,52990:0:0:0:0:
320,192,52990,128,0,53443:0:0:0:0:
448,192,52990,128,0,53443:0:0:0:0:
64,192,52990,128,0,53443:0:0:0:0:
448,192,53485,1,0,0:0:0:0:
320,192,53485,1,0,0:0:0:0:
64,192,53485,1,0,0:0:0:0:
320,192,53567,1,0,0:0:0:0:
448,192,53567,1,0,0:0:0:0:
448,192,53649,1,0,0:0:0:0:
64,192,53649,1,0,0:0:0:0:
192,192,53649,1,0,0:0:0:0:
320,192,53732,1,0,0:0:0:0:
192,192,53752,1,0,0:0:0:0:
320,192,53814,1,0,0:0:0:0:
192,192,53835,1,0,0:0:0:0:
448,192,53897,1,0,0:0:0:0:
320,192,53917,1,0,0:0:0:0:
64,192,53979,128,0,54041:0:0:0:0:
192,192,54000,128,0,54041:0:0:0:0:
320,192,54020,128,0,54041:0:0:0:0:
320,192,54144,128,0,54391:0:0:0:0:
448,192,54144,128,0,54391:0:0:0:0:
64,192,54144,128,0,54391:0:0:0:0:
448,192,54474,128,0,54638:0:0:0:0:
320,192,54474,128,0,54638:0:0:0:0:
64,192,54474,128,0,54638:0:0:0:0:
320,192,54721,128,0,54927:0:0:0:0:
448,192,54721,128,0,54927:0:0:0:0:
64,192,54721,128,0,54927:0:0:0:0:
64,192,54968,1,0,0:0:0:0:
320,192,54968,1,0,0:0:0:0:
448,192,54968,1,0,0:0:0:0:
64,192,55050,1,0,0:0:0:0:
320,192,55050,1,0,0:0:0:0:
448,192,55133,128,0,55215:0:0:0:0:
192,192,55133,1,0,0:0:0:0:
192,192,55215,128,0,55298:0:0:0:0:
64,192,55215,1,0,0:0:0:0:
448,192,55298,1,0,0:0:0:0:
64,192,55380,128,0,55463:0:0:0:0:
320,192,55463,1,0,0:0:0:0:
192,192,55463,128,0,55545:0:0:0:0:
448,192,55463,1,0,0:0:0:0:
448,192,55545,128,0,55627:0:0:0:0:
320,192,55627,128,0,56081:0:0:0:0:
192,192,55627,128,0,56081:0:0:0:0:
64,192,55627,128,0,56081:0:0:0:0:
192,192,56122,1,0,0:0:0:0:
320,192,56122,1,0,0:0:0:0:
64,192,56122,1,0,0:0:0:0:
192,192,56204,1,0,0:0:0:0:
448,192,56204,1,0,0:0:0:0:
448,192,56287,1,0,0:0:0:0:
320,192,56287,1,0,0:0:0:0:
64,192,56287,1,0,0:0:0:0:
192,192,56342,1,0,0:0:0:0:
448,192,56390,1,0,0:0:0:0:
320,192,56410,1,0,0:0:0:0:
64,192,56452,1,0,0:0:0:0:
192,192,56493,1,0,0:0:0:0:
320,192,56534,1,0,0:0:0:0:
448,192,56575,1,0,0:0:0:0:
192,192,56616,128,0,56658:0:0:0:0:
192,192,56699,128,0,56740:0:0:0:0:
64,192,56781,128,0,57070:0:0:0:0:
320,192,56781,128,0,57070:0:0:0:0:
448,192,56781,128,0,57070:0:0:0:0:
64,192,57111,1,0,0:0:0:0:
320,192,57111,1,0,0:0:0:0:
448,192,57111,1,0,0:0:0:0:
64,192,57276,128,0,57564:0:0:0:0:
320,192,57276,128,0,57564:0:0:0:0:
448,192,57276,128,0,57564:0:0:0:0:
64,192,57605,1,0,0:0:0:0:
448,192,57605,1,0,0:0:0:0:
192,192,57633,1,0,0:0:0:0:
320,192,57647,1,0,0:0:0:0:
192,192,57715,1,0,0:0:0:0:
448,192,57729,1,0,0:0:0:0:
320,192,57770,1,0,0:0:0:0:
64,192,57770,1,0,0:0:0:0:
320,192,57853,1,0,0:0:0:0:
64,192,57873,1,0,0:0:0:0:
448,192,57935,1,0,0:0:0:0:
192,192,57935,1,0,0:0:0:0:
192,192,58018,1,0,0:0:0:0:
448,192,58100,1,0,0:0:0:0:
320,192,58100,1,0,0:0:0:0:
64,192,58100,1,0,0:0:0:0:
320,192,58182,1,0,0:0:0:0:
448,192,58182,1,0,0:0:0:0:
448,192,58265,128,0,58409:0:0:0:0:
64,192,58265,128,0,58450:0:0:0:0:
192,192,58265,128,0,58430:0:0:0:0:
64,192,58512,128,0,58697:0:0:0:0:
192,192,58512,128,0,58677:0:0:0:0:
448,192,58512,128,0,58649:0:0:0:0:
64,192,58759,128,0,58945:0:0:0:0:
192,192,58759,128,0,58924:0:0:0:0:
448,192,58759,128,0,58883:0:0:0:0:
320,192,58924,1,0,0:0:0:0:
448,192,58924,1,0,0:0:0:0:
192,192,58979,1,0,0:0:0:0:
448,192,59007,1,0,0:0:0:0:
320,192,59034,1,0,0:0:0:0:
64,192,59089,1,0,0:0:0:0:
192,192,59116,1,0,0:0:0:0:
320,192,59151,1,0,0:0:0:0:
448,192,59171,1,0,0:0:0:0:
192,192,59213,1,0,0:0:0:0:
64,192,59254,128,0,59398:0:0:0:0:
448,192,59254,128,0,59439:0:0:0:0:
320,192,59254,128,0,59419:0:0:0:0:
64,192,59501,128,0,59638:0:0:0:0:
448,192,59501,128,0,59686:0:0:0:0:
320,192,59501,128,0,59666:0:0:0:0:
320,192,59748,128,0,59913:0:0:0:0:
448,192,59748,128,0,59934:0:0:0:0:
64,192,59748,128,0,59872:0:0:0:0:
192,192,59913,1,0,0:0:0:0:
64,192,59913,1,0,0:0:0:0:
192,192,59996,1,0,0:0:0:0:
320,192,59996,1,0,0:0:0:0:
64,192,60078,1,0,0:0:0:0:
320,192,60078,128,0,60160:0:0:0:0:
64,192,60160,128,0,60243:0:0:0:0:
448,192,60160,1,0,0:0:0:0:
320,192,60243,1,0,0:0:0:0:
448,192,60325,128,0,60408:0:0:0:0:
192,192,60408,1,0,0:0:0:0:
64,192,60408,1,0,0:0:0:0:
320,192,60408,128,0,60490:0:0:0:0:
192,192,60490,128,0,60572:0:0:0:0:
64,192,60572,128,0,60737:0:0:0:0:
448,192,60572,128,0,60820:0:0:0:0:
320,192,60572,128,0,60778:0:0:0:0:
192,192,60737,1,0,0:0:0:0:
192,192,60820,1,0,0:0:0:0:
320,192,60902,128,0,61046:0:0:0:0:
192,192,60902,128,0,61067:0:0:0:0:
64,192,60902,128,0,61088:0:0:0:0:
320,192,61149,128,0,61335:0:0:0:0:
192,192,61149,128,0,61314:0:0:0:0:
64,192,61149,128,0,61287:0:0:0:0:
320,192,61397,128,0,61520:0:0:0:0:
64,192,61397,128,0,61582:0:0:0:0:
192,192,61397,128,0,61561:0:0:0:0:
448,192,61561,1,0,0:0:0:0:
320,192,61561,1,0,0:0:0:0:
192,192,61623,1,0,0:0:0:0:
320,192,61644,1,0,0:0:0:0:
448,192,61685,1,0,0:0:0:0:
192,192,61726,1,0,0:0:0:0:
64,192,61747,1,0,0:0:0:0:
320,192,61809,1,0,0:0:0:0:
448,192,61829,1,0,0:0:0:0:
64,192,61850,1,0,0:0:0:0:
192,192,61891,128,0,62035:0:0:0:0:
320,192,61891,128,0,62056:0:0:0:0:
448,192,61891,128,0,62077:0:0:0:0:
320,192,62138,128,0,62303:0:0:0:0:
448,192,62138,128,0,62276:0:0:0:0:
192,192,62138,128,0,62324:0:0:0:0:
192,192,62386,128,0,62509:0:0:0:0:
320,192,62386,128,0,62550:0:0:0:0:
448,192,62386,128,0,62571:0:0:0:0:
64,192,62550,128,0,62715:0:0:0:0:
192,192,62571,1,0,0:0:0:0:
320,192,62612,1,0,0:0:0:0:
192,192,62653,1,0,0:0:0:0:
448,192,62715,1,0,0:0:0:0:
320,192,62715,1,0,0:0:0:0:
448,192,62798,1,0,0:0:0:0:
192,192,62880,1,0,0:0:0:0:
64,192,62880,1,0,0:0:0:0:
192,192,62963,1,0,0:0:0:0:
320,192,62963,1,0,0:0:0:0:
448,192,62963,1,0,0:0:0:0:
448,192,63127,1,0,0:0:0:0:
320,192,63127,1,0,0:0:0:0:
192,192,63127,1,0,0:0:0:0:
192,192,63210,1,0,0:0:0:0:
64,192,63210,1,0,0:0:0:0:
320,192,63375,1,0,0:0:0:0:
448,192,63375,1,0,0:0:0:0:
64,192,63375,1,0,0:0:0:0:
448,192,63457,1,0,0:0:0:0:
320,192,63457,1,0,0:0:0:0:
192,192,63457,1,0,0:0:0:0:
448,192,63539,128,0,63787:0:0:0:0:
192,192,63539,1,0,0:0:0:0:
64,192,63539,1,0,0:0:0:0:
320,192,63539,128,0,63787:0:0:0:0:
448,192,63869,128,0,64116:0:0:0:0:
64,192,63869,1,0,0:0:0:0:
320,192,63869,128,0,64116:0:0:0:0:
64,192,64034,1,0,0:0:0:0:
192,192,64116,1,0,0:0:0:0:
448,192,64199,128,0,64446:0:0:0:0:
64,192,64199,1,0,0:0:0:0:
320,192,64199,128,0,64446:0:0:0:0:
192,192,64364,1,0,0:0:0:0:
64,192,64446,1,0,0:0:0:0:
448,192,64528,128,0,64776:0:0:0:0:
320,192,64528,1,0,0:0:0:0:
320,192,64693,1,0,0:0:0:0:
448,192,64858,128,0,65105:0:0:0:0:
192,192,64858,1,0,0:0:0:0:
320,192,64858,128,0,65105:0:0:0:0:
192,192,65023,1,0,0:0:0:0:
448,192,65188,128,0,65435:0:0:0:0:
64,192,65188,1,0,0:0:0:0:
320,192,65188,128,0,65435:0:0:0:0:
192,192,65353,1,0,0:0:0:0:
64,192,65435,1,0,0:0:0:0:
192,192,65518,1,0,0:0:0:0:
448,192,65518,128,0,65765:0:0:0:0:
320,192,65518,128,0,65765:0:0:0:0:
192,192,65682,1,0,0:0:0:0:
64,192,65765,1,0,0:0:0:0:
448,192,65847,128,0,66094:0:0:0:0:
320,192,65847,1,0,0:0:0:0:
320,192,66012,1,0,0:0:0:0:
448,192,66177,1,0,0:0:0:0:
64,192,66177,1,0,0:0:0:0:
64,192,66259,1,0,0:0:0:0:
320,192,66342,1,0,0:0:0:0:
448,192,66424,1,0,0:0:0:0:
64,192,66424,1,0,0:0:0:0:
320,192,66507,1,0,0:0:0:0:
192,192,66507,1,0,0:0:0:0:
320,192,66589,1,0,0:0:0:0:
64,192,66671,1,0,0:0:0:0:
320,192,66754,1,0,0:0:0:0:
448,192,66754,1,0,0:0:0:0:
64,192,66836,1,0,0:0:0:0:
192,192,66836,1,0,0:0:0:0:
192,192,66919,1,0,0:0:0:0:
448,192,67001,1,0,0:0:0:0:
192,192,67083,1,0,0:0:0:0:
320,192,67083,1,0,0:0:0:0:
64,192,67166,1,0,0:0:0:0:
448,192,67166,1,0,0:0:0:0:
448,192,67248,1,0,0:0:0:0:
64,192,67331,1,0,0:0:0:0:
320,192,67413,1,0,0:0:0:0:
192,192,67413,1,0,0:0:0:0:
64,192,67496,128,0,67578:0:0:0:0:
448,192,67496,128,0,67578:0:0:0:0:
320,192,67496,128,0,67578:0:0:0:0:
192,192,67660,128,0,67743:0:0:0:0:
320,192,67743,128,0,67825:0:0:0:0:
448,192,67743,128,0,67825:0:0:0:0:
192,192,67908,128,0,67990:0:0:0:0:
320,192,67990,128,0,68072:0:0:0:0:
64,192,67990,128,0,68072:0:0:0:0:
320,192,68155,128,0,68237:0:0:0:0:
192,192,68155,128,0,68237:0:0:0:0:
448,192,68320,128,0,68402:0:0:0:0:
64,192,68320,128,0,68402:0:0:0:0:
320,192,68402,1,0,0:0:0:0:
192,192,68402,1,0,0:0:0:0:
64,192,68485,1,0,0:0:0:0:
192,192,68485,1,0,0:0:0:0:
320,192,68485,1,0,0:0:0:0:
448,192,68485,1,0,0:0:0:0:
64,192,68814,128,0,68938:0:0:0:0:
192,192,68835,128,0,68958:0:0:0:0:
448,192,68835,128,0,68958:0:0:0:0:
320,192,68855,128,0,68979:0:0:0:0:
448,192,69144,128,0,69721:0:0:0:0:
320,192,69144,128,0,69721:0:0:0:0:
192,192,69144,128,0,69556:0:0:0:0:
64,192,69144,128,0,69556:0:0:0:0:
192,192,69638,1,0,0:0:0:0:
64,192,69638,1,0,0:0:0:0:
448,192,69803,128,0,70050:0:0:0:0:
320,192,69803,128,0,70050:0:0:0:0:
64,192,69803,128,0,70380:0:0:0:0:
192,192,69968,128,0,70298:0:0:0:0:
320,192,70133,128,0,70298:0:0:0:0:
448,192,70133,128,0,70710:0:0:0:0:
320,192,70380,1,0,0:0:0:0:
192,192,70380,1,0,0:0:0:0:
320,192,70463,1,0,0:0:0:0:
192,192,70463,1,0,0:0:0:0:
64,192,70463,1,0,0:0:0:0:
64,192,70627,128,0,70957:0:0:0:0:
192,192,70627,128,0,70957:0:0:0:0:
448,192,70792,128,0,71452:0:0:0:0:
320,192,70792,128,0,71039:0:0:0:0:
64,192,71039,1,0,0:0:0:0:
192,192,71039,1,0,0:0:0:0:
192,192,71122,1,0,0:0:0:0:
320,192,71122,1,0,0:0:0:0:
64,192,71122,1,0,0:0:0:0:
320,192,71287,128,0,71452:0:0:0:0:
192,192,71452,1,0,0:0:0:0:
64,192,71452,1,0,0:0:0:0:
448,192,71507,1,0,0:0:0:0:
192,192,71534,1,0,0:0:0:0:
448,192,71575,1,0,0:0:0:0:
64,192,71616,1,0,0:0:0:0:
320,192,71616,1,0,0:0:0:0:
192,192,71671,1,0,0:0:0:0:
448,192,71699,1,0,0:0:0:0:
320,192,71726,1,0,0:0:0:0:
64,192,71781,128,0,72358:0:0:0:0:
192,192,71781,128,0,72358:0:0:0:0:
320,192,71781,128,0,72193:0:0:0:0:
448,192,71781,128,0,72193:0:0:0:0:
320,192,72276,1,0,0:0:0:0:
448,192,72276,1,0,0:0:0:0:
448,192,72441,128,0,72688:0:0:0:0:
320,192,72441,128,0,72688:0:0:0:0:
192,192,72441,128,0,72935:0:0:0:0:
64,192,72605,128,0,73347:0:0:0:0:
320,192,72770,128,0,72935:0:0:0:0:
448,192,72770,128,0,73018:0:0:0:0:
320,192,73018,1,0,0:0:0:0:
192,192,73018,1,0,0:0:0:0:
320,192,73100,1,0,0:0:0:0:
192,192,73100,1,0,0:0:0:0:
448,192,73100,1,0,0:0:0:0:
448,192,73265,128,0,73594:0:0:0:0:
320,192,73265,128,0,73594:0:0:0:0:
64,192,73430,128,0,74007:0:0:0:0:
192,192,73430,128,0,73677:0:0:0:0:
448,192,73677,1,0,0:0:0:0:
320,192,73677,1,0,0:0:0:0:
320,192,73759,1,0,0:0:0:0:
192,192,73759,1,0,0:0:0:0:
448,192,73759,1,0,0:0:0:0:
192,192,73924,128,0,74336:0:0:0:0:
448,192,74089,128,0,74336:0:0:0:0:
320,192,74089,128,0,74336:0:0:0:0:
64,192,74089,128,0,74336:0:0:0:0:
64,192,74419,128,0,74996:0:0:0:0:
192,192,74419,128,0,74996:0:0:0:0:
320,192,74419,128,0,74831:0:0:0:0:
448,192,74419,128,0,74831:0:0:0:0:
320,192,74913,1,0,0:0:0:0:
448,192,74913,1,0,0:0:0:0:
448,192,75078,128,0,75325:0:0:0:0:
320,192,75078,128,0,75325:0:0:0:0:
64,192,75078,128,0,75655:0:0:0:0:
192,192,75243,128,0,75572:0:0:0:0:
320,192,75408,128,0,75572:0:0:0:0:
448,192,75408,128,0,75985:0:0:0:0:
320,192,75655,1,0,0:0:0:0:
192,192,75655,1,0,0:0:0:0:
320,192,75737,1,0,0:0:0:0:
192,192,75737,1,0,0:0:0:0:
64,192,75737,1,0,0:0:0:0:
320,192,75902,128,0,76232:0:0:0:0:
192,192,75902,128,0,76232:0:0:0:0:
448,192,76067,128,0,76314:0:0:0:0:
64,192,76067,128,0,76726:0:0:0:0:
192,192,76314,1,0,0:0:0:0:
320,192,76314,1,0,0:0:0:0:
192,192,76397,1,0,0:0:0:0:
448,192,76397,1,0,0:0:0:0:
320,192,76397,1,0,0:0:0:0:
192,192,76561,128,0,76726:0:0:0:0:
320,192,76726,128,0,76864:0:0:0:0:
448,192,76747,128,0,76829:0:0:0:0:
64,192,76891,1,0,0:0:0:0:
192,192,76912,1,0,0:0:0:0:
448,192,76953,1,0,0:0:0:0:
320,192,76974,1,0,0:0:0:0:
64,192,77056,128,0,77633:0:0:0:0:
192,192,77056,128,0,77633:0:0:0:0:
320,192,77056,128,0,77468:0:0:0:0:
448,192,77056,128,0,77468:0:0:0:0:
320,192,77550,1,0,0:0:0:0:
448,192,77550,1,0,0:0:0:0:
448,192,77715,128,0,77963:0:0:0:0:
320,192,77715,128,0,77963:0:0:0:0:
192,192,77715,128,0,78210:0:0:0:0:
64,192,77880,128,0,78622:0:0:0:0:
320,192,78045,128,0,78210:0:0:0:0:
448,192,78045,128,0,78292:0:0:0:0:
320,192,78292,1,0,0:0:0:0:
192,192,78292,1,0,0:0:0:0:
320,192,78375,1,0,0:0:0:0:
192,192,78375,1,0,0:0:0:0:
448,192,78375,1,0,0:0:0:0:
448,192,78539,128,0,78704:0:0:0:0:
320,192,78539,128,0,78704:0:0:0:0:
64,192,78704,1,0,0:0:0:0:
192,192,78704,1,0,0:0:0:0:
448,192,78787,1,0,0:0:0:0:
192,192,78787,128,0,78952:0:0:0:0:
64,192,78787,128,0,78952:0:0:0:0:
448,192,78952,1,0,0:0:0:0:
320,192,78952,1,0,0:0:0:0:
192,192,79034,1,0,0:0:0:0:
64,192,79034,1,0,0:0:0:0:
448,192,79034,128,0,79302:0:0:0:0:
320,192,79199,128,0,79322:0:0:0:0:
64,192,79364,128,0,79487:0:0:0:0:
192,192,79384,128,0,79508:0:0:0:0:
448,192,79384,128,0,79508:0:0:0:0:
320,192,79405,128,0,79528:0:0:0:0:
448,192,79693,128,0,80270:0:0:0:0:
320,192,79693,128,0,80270:0:0:0:0:
192,192,79693,128,0,80105:0:0:0:0:
64,192,79693,128,0,80105:0:0:0:0:
192,192,80188,1,0,0:0:0:0:
64,192,80188,1,0,0:0:0:0:
448,192,80353,128,0,80600:0:0:0:0:
320,192,80353,128,0,80600:0:0:0:0:
64,192,80353,128,0,80930:0:0:0:0:
192,192,80518,128,0,80847:0:0:0:0:
320,192,80682,128,0,80847:0:0:0:0:
448,192,80682,128,0,81259:0:0:0:0:
320,192,80930,1,0,0:0:0:0:
192,192,80930,1,0,0:0:0:0:
320,192,81012,1,0,0:0:0:0:
192,192,81012,1,0,0:0:0:0:
64,192,81012,1,0,0:0:0:0:
64,192,81177,128,0,81507:0:0:0:0:
192,192,81177,128,0,81507:0:0:0:0:
448,192,81342,128,0,82001:0:0:0:0:
320,192,81342,128,0,81589:0:0:0:0:
64,192,81589,1,0,0:0:0:0:
192,192,81589,1,0,0:0:0:0:
192,192,81671,1,0,0:0:0:0:
320,192,81671,1,0,0:0:0:0:
64,192,81671,1,0,0:0:0:0:
320,192,81836,128,0,82001:0:0:0:0:
192,192,82001,1,0,0:0:0:0:
64,192,82001,1,0,0:0:0:0:
448,192,82056,1,0,0:0:0:0:
192,192,82083,1,0,0:0:0:0:
448,192,82125,1,0,0:0:0:0:
64,192,82166,1,0,0:0:0:0:
320,192,82166,1,0,0:0:0:0:
192,192,82221,1,0,0:0:0:0:
448,192,82248,1,0,0:0:0:0:
320,192,82276,1,0,0:0:0:0:
64,192,82331,128,0,82908:0:0:0:0:
192,192,82331,128,0,82908:0:0:0:0:
320,192,82331,128,0,82743:0:0:0:0:
448,192,82331,128,0,82743:0:0:0:0:
320,192,82825,1,0,0:0:0:0:
448,192,82825,1,0,0:0:0:0:
448,192,82990,128,0,83237:0:0:0:0:
320,192,82990,128,0,83237:0:0:0:0:
192,192,82990,128,0,83485:0:0:0:0:
64,192,83155,128,0,83897:0:0:0:0:
320,192,83320,128,0,83485:0:0:0:0:
448,192,83320,128,0,83567:0:0:0:0:
320,192,83567,1,0,0:0:0:0:
192,192,83567,1,0,0:0:0:0:
320,192,83649,1,0,0:0:0:0:
192,192,83649,1,0,0:0:0:0:
448,192,83649,1,0,0:0:0:0:
448,192,83814,128,0,84144:0:0:0:0:
320,192,83814,128,0,84144:0:0:0:0:
64,192,83979,128,0,84556:0:0:0:0:
192,192,83979,128,0,84226:0:0:0:0:
448,192,84226,1,0,0:0:0:0:
320,192,84226,1,0,0:0:0:0:
320,192,84309,1,0,0:0:0:0:
192,192,84309,1,0,0:0:0:0:
448,192,84309,1,0,0:0:0:0:
192,192,84474,128,0,84886:0:0:0:0:
448,192,84638,128,0,84886:0:0:0:0:
320,192,84638,128,0,84886:0:0:0:0:
64,192,84638,128,0,84886:0:0:0:0:
64,192,84968,128,0,85545:0:0:0:0:
192,192,84968,128,0,85545:0:0:0:0:
320,192,84968,128,0,85380:0:0:0:0:
448,192,84968,128,0,85380:0:0:0:0:
320,192,85463,1,0,0:0:0:0:
448,192,85463,1,0,0:0:0:0:
448,192,85627,128,0,85875:0:0:0:0:
320,192,85627,128,0,85875:0:0:0:0:
64,192,85627,128,0,86204:0:0:0:0:
192,192,85792,128,0,86122:0:0:0:0:
320,192,85957,128,0,86122:0:0:0:0:
448,192,85957,128,0,86534:0:0:0:0:
320,192,86204,1,0,0:0:0:0:
192,192,86204,1,0,0:0:0:0:
320,192,86287,1,0,0:0:0:0:
192,192,86287,1,0,0:0:0:0:
64,192,86287,1,0,0:0:0:0:
320,192,86452,128,0,86781:0:0:0:0:
192,192,86452,128,0,86781:0:0:0:0:
64,192,86616,128,0,87276:0:0:0:0:
448,192,86616,128,0,86864:0:0:0:0:
320,192,86864,1,0,0:0:0:0:
192,192,86864,1,0,0:0:0:0:
192,192,86946,1,0,0:0:0:0:
320,192,86946,1,0,0:0:0:0:
448,192,86946,1,0,0:0:0:0:
192,192,87111,128,0,87276:0:0:0:0:
320,192,87276,128,0,87413:0:0:0:0:
448,192,87296,128,0,87379:0:0:0:0:
64,192,87441,1,0,0:0:0:0:
192,192,87461,1,0,0:0:0:0:
448,192,87502,1,0,0:0:0:0:
320,192,87523,1,0,0:0:0:0:
64,192,87605,128,0,88182:0:0:0:0:
192,192,87605,128,0,88182:0:0:0:0:
320,192,87605,128,0,88018:0:0:0:0:
448,192,87605,128,0,88018:0:0:0:0:
320,192,88100,1,0,0:0:0:0:
448,192,88100,1,0,0:0:0:0:
448,192,88265,128,0,88512:0:0:0:0:
320,192,88265,128,0,88512:0:0:0:0:
192,192,88265,128,0,88759:0:0:0:0:
64,192,88430,128,0,89089:0:0:0:0:
320,192,88594,128,0,88759:0:0:0:0:
448,192,88594,128,0,88842:0:0:0:0:
320,192,88842,1,0,0:0:0:0:
192,192,88842,1,0,0:0:0:0:
320,192,88924,1,0,0:0:0:0:
192,192,88924,1,0,0:0:0:0:
448,192,88924,1,0,0:0:0:0:
320,192,89089,1,0,0:0:0:0:
448,192,89089,1,0,0:0:0:0:
448,192,89171,1,0,0:0:0:0:
320,192,89171,1,0,0:0:0:0:
64,192,89171,1,0,0:0:0:0:
64,192,89254,1,0,0:0:0:0:
192,192,89254,1,0,0:0:0:0:
448,192,89336,1,0,0:0:0:0:
192,192,89336,1,0,0:0:0:0:
64,192,89336,1,0,0:0:0:0:
320,192,89419,1,0,0:0:0:0:
448,192,89419,1,0,0:0:0:0:
192,192,89501,1,0,0:0:0:0:
64,192,89501,1,0,0:0:0:0:
192,192,89583,1,0,0:0:0:0:
64,192,89583,1,0,0:0:0:0:
448,192,89583,1,0,0:0:0:0:
320,192,89583,1,0,0:0:0:0:
320,192,89666,1,0,0:0:0:0:
448,192,89666,1,0,0:0:0:0:
192,192,89748,1,0,0:0:0:0:
64,192,89748,1,0,0:0:0:0:
192,192,89831,1,0,0:0:0:0:
448,192,89831,1,0,0:0:0:0:
448,192,89913,128,0,91974:0:0:0:0:
320,192,89913,1,0,0:0:0:0:
64,192,89913,1,0,0:0:0:0:
320,192,90078,128,0,90160:0:0:0:0:
192,192,90078,128,0,90160:0:0:0:0:
320,192,90408,128,0,90490:0:0:0:0:
192,192,90408,128,0,90490:0:0:0:0:
64,192,90408,1,0,0:0:0:0:
64,192,90572,1,0,0:0:0:0:
320,192,90572,1,0,0:0:0:0:
320,192,90737,128,0,90820:0:0:0:0:
192,192,90737,128,0,90820:0:0:0:0:
320,192,91067,128,0,91149:0:0:0:0:
192,192,91067,128,0,91149:0:0:0:0:
64,192,91067,1,0,0:0:0:0:
320,192,91232,1,0,0:0:0:0:
192,192,91232,128,0,91314:0:0:0:0:
64,192,91232,128,0,91314:0:0:0:0:
192,192,91479,128,0,91561:0:0:0:0:
64,192,91479,128,0,91561:0:0:0:0:
320,192,91479,1,0,0:0:0:0:
192,192,91726,1,0,0:0:0:0:
64,192,91726,1,0,0:0:0:0:
192,192,91809,1,0,0:0:0:0:
64,192,91809,1,0,0:0:0:0:
64,192,91891,128,0,91974:0:0:0:0:
192,192,91891,128,0,91974:0:0:0:0:
320,192,91891,1,0,0:0:0:0:
320,192,92138,128,0,92221:0:0:0:0:
64,192,92138,128,0,92221:0:0:0:0:
448,192,92386,128,0,92468:0:0:0:0:
192,192,92386,128,0,92468:0:0:0:0:
320,192,92386,1,0,0:0:0:0:
320,192,92550,128,0,92633:0:0:0:0:
448,192,92550,128,0,92633:0:0:0:0:
64,192,92550,1,0,0:0:0:0:
64,192,92715,128,0,92798:0:0:0:0:
192,192,92880,128,0,92963:0:0:0:0:
448,192,93045,1,0,0:0:0:0:
320,192,93045,1,0,0:0:0:0:
320,192,93127,1,0,0:0:0:0:
448,192,93127,1,0,0:0:0:0:
448,192,93210,128,0,93292:0:0:0:0:
320,192,93210,128,0,93292:0:0:0:0:
64,192,93210,1,0,0:0:0:0:
448,192,93375,128,0,93457:0:0:0:0:
64,192,93457,128,0,93539:0:0:0:0:
320,192,93457,128,0,93539:0:0:0:0:
192,192,93704,128,0,93787:0:0:0:0:
320,192,93704,128,0,93787:0:0:0:0:
64,192,93704,1,0,0:0:0:0:
448,192,93869,128,0,93952:0:0:0:0:
192,192,93869,128,0,93952:0:0:0:0:
64,192,93869,1,0,0:0:0:0:
192,192,94034,128,0,94116:0:0:0:0:
320,192,94116,128,0,94199:0:0:0:0:
64,192,94116,128,0,94199:0:0:0:0:
192,192,94281,128,0,94364:0:0:0:0:
448,192,94364,1,0,0:0:0:0:
320,192,94364,1,0,0:0:0:0:
320,192,94446,1,0,0:0:0:0:
448,192,94446,1,0,0:0:0:0:
448,192,94528,128,0,94611:0:0:0:0:
320,192,94528,128,0,94611:0:0:0:0:
64,192,94528,1,0,0:0:0:0:
64,192,94693,128,0,94776:0:0:0:0:
320,192,94776,128,0,94858:0:0:0:0:
192,192,94776,128,0,94858:0:0:0:0:
448,192,95023,128,0,95105:0:0:0:0:
320,192,95023,1,0,0:0:0:0:
64,192,95023,128,0,95105:0:0:0:0:
192,192,95188,128,0,95270:0:0:0:0:
64,192,95188,128,0,95270:0:0:0:0:
448,192,95188,1,0,0:0:0:0:
448,192,95353,1,0,0:0:0:0:
192,192,95353,1,0,0:0:0:0:
320,192,95435,1,0,0:0:0:0:
192,192,95435,1,0,0:0:0:0:
64,192,95518,1,0,0:0:0:0:
448,192,95518,1,0,0:0:0:0:
192,192,95600,1,0,0:0:0:0:
448,192,95600,1,0,0:0:0:0:
320,192,95682,1,0,0:0:0:0:
64,192,95682,1,0,0:0:0:0:
192,192,95682,1,0,0:0:0:0:
192,192,95847,1,0,0:0:0:0:
64,192,95847,1,0,0:0:0:0:
448,192,95847,1,0,0:0:0:0:
320,192,95930,1,0,0:0:0:0:
64,192,95930,1,0,0:0:0:0:
448,192,96012,1,0,0:0:0:0:
192,192,96012,1,0,0:0:0:0:
64,192,96177,1,0,0:0:0:0:
320,192,96177,128,0,96342:0:0:0:0:
448,192,96204,128,0,96342:0:0:0:0:
192,192,96342,1,0,0:0:0:0:
64,192,96342,1,0,0:0:0:0:
320,192,96507,128,0,96589:0:0:0:0:
192,192,96507,128,0,96589:0:0:0:0:
64,192,96507,1,0,0:0:0:0:
192,192,96754,128,0,96836:0:0:0:0:
64,192,96754,128,0,96836:0:0:0:0:
320,192,96754,1,0,0:0:0:0:
448,192,97001,1,0,0:0:0:0:
320,192,97001,1,0,0:0:0:0:
320,192,97083,1,0,0:0:0:0:
448,192,97083,1,0,0:0:0:0:
320,192,97166,128,0,97248:0:0:0:0:
448,192,97166,128,0,97248:0:0:0:0:
64,192,97166,1,0,0:0:0:0:
192,192,97413,128,0,97496:0:0:0:0:
448,192,97413,128,0,97496:0:0:0:0:
64,192,97660,128,0,97743:0:0:0:0:
320,192,97660,128,0,97743:0:0:0:0:
192,192,97660,1,0,0:0:0:0:
192,192,97825,128,0,97908:0:0:0:0:
64,192,97825,128,0,97908:0:0:0:0:
448,192,97825,1,0,0:0:0:0:
448,192,97990,128,0,98072:0:0:0:0:
320,192,98155,128,0,98237:0:0:0:0:
64,192,98320,1,0,0:0:0:0:
192,192,98320,1,0,0:0:0:0:
192,192,98402,1,0,0:0:0:0:
64,192,98402,1,0,0:0:0:0:
64,192,98485,128,0,98567:0:0:0:0:
192,192,98485,128,0,98567:0:0:0:0:
448,192,98485,1,0,0:0:0:0:
64,192,98649,128,0,98732:0:0:0:0:
448,192,98732,128,0,98814:0:0:0:0:
192,192,98732,128,0,98814:0:0:0:0:
320,192,98979,128,0,99061:0:0:0:0:
192,192,98979,128,0,99061:0:0:0:0:
448,192,98979,1,0,0:0:0:0:
64,192,99144,128,0,99226:0:0:0:0:
192,192,99144,128,0,99226:0:0:0:0:
448,192,99144,1,0,0:0:0:0:
192,192,99309,128,0,99391:0:0:0:0:
320,192,99391,128,0,99474:0:0:0:0:
448,192,99391,128,0,99474:0:0:0:0:
320,192,99556,128,0,99638:0:0:0:0:
64,192,99638,1,0,0:0:0:0:
192,192,99638,1,0,0:0:0:0:
192,192,99721,1,0,0:0:0:0:
64,192,99721,1,0,0:0:0:0:
64,192,99803,128,0,99886:0:0:0:0:
192,192,99803,128,0,99886:0:0:0:0:
448,192,99803,1,0,0:0:0:0:
64,192,99968,128,0,100050:0:0:0:0:
448,192,99968,1,0,0:0:0:0:
192,192,100050,128,0,100133:0:0:0:0:
448,192,100050,128,0,100133:0:0:0:0:
448,192,100215,128,0,100298:0:0:0:0:
64,192,100215,1,0,0:0:0:0:
320,192,100298,128,0,100380:0:0:0:0:
64,192,100298,128,0,100380:0:0:0:0:
192,192,100463,128,0,100545:0:0:0:0:
64,192,100463,128,0,100545:0:0:0:0:
448,192,100463,1,0,0:0:0:0:
448,192,100627,1,0,0:0:0:0:
64,192,100627,1,0,0:0:0:0:
320,192,100710,1,0,0:0:0:0:
192,192,100710,1,0,0:0:0:0:
64,192,100792,1,0,0:0:0:0:
320,192,100792,1,0,0:0:0:0:
192,192,100875,1,0,0:0:0:0:
448,192,100875,1,0,0:0:0:0:
320,192,100957,1,0,0:0:0:0:
64,192,100957,1,0,0:0:0:0:
192,192,100957,1,0,0:0:0:0:
448,192,101122,1,0,0:0:0:0:
192,192,101122,1,0,0:0:0:0:
64,192,101122,1,0,0:0:0:0:
320,192,101204,1,0,0:0:0:0:
192,192,101204,1,0,0:0:0:0:
448,192,101287,1,0,0:0:0:0:
320,192,101287,1,0,0:0:0:0:
320,192,101452,128,0,101616:0:0:0:0:
64,192,101452,1,0,0:0:0:0:
448,192,101479,128,0,101616:0:0:0:0:
64,192,101616,1,0,0:0:0:0:
192,192,101616,1,0,0:0:0:0:
320,192,101781,128,0,101864:0:0:0:0:
192,192,101781,128,0,101864:0:0:0:0:
64,192,101781,1,0,0:0:0:0:
448,192,102028,128,0,102111:0:0:0:0:
64,192,102028,128,0,102111:0:0:0:0:
320,192,102028,1,0,0:0:0:0:
320,192,102276,1,0,0:0:0:0:
192,192,102276,1,0,0:0:0:0:
192,192,102358,1,0,0:0:0:0:
320,192,102358,1,0,0:0:0:0:
192,192,102441,128,0,102523:0:0:0:0:
64,192,102441,128,0,102523:0:0:0:0:
320,192,102441,1,0,0:0:0:0:
192,192,102688,128,0,102770:0:0:0:0:
448,192,102688,128,0,102770:0:0:0:0:
64,192,102935,128,0,103018:0:0:0:0:
320,192,102935,128,0,103018:0:0:0:0:
192,192,102935,1,0,0:0:0:0:
320,192,103100,128,0,103182:0:0:0:0:
448,192,103100,128,0,103182:0:0:0:0:
64,192,103100,1,0,0:0:0:0:
64,192,103265,128,0,103347:0:0:0:0:
192,192,103430,128,0,103512:0:0:0:0:
448,192,103594,1,0,0:0:0:0:
320,192,103594,1,0,0:0:0:0:
320,192,103677,1,0,0:0:0:0:
448,192,103677,1,0,0:0:0:0:
448,192,103759,128,0,103842:0:0:0:0:
320,192,103759,128,0,103842:0:0:0:0:
64,192,103759,1,0,0:0:0:0:
448,192,103924,128,0,104007:0:0:0:0:
64,192,104007,128,0,104089:0:0:0:0:
320,192,104007,128,0,104089:0:0:0:0:
192,192,104254,128,0,104336:0:0:0:0:
320,192,104254,128,0,104336:0:0:0:0:
64,192,104254,1,0,0:0:0:0:
448,192,104419,128,0,104501:0:0:0:0:
192,192,104419,128,0,104501:0:0:0:0:
64,192,104419,1,0,0:0:0:0:
192,192,104583,128,0,104666:0:0:0:0:
320,192,104666,128,0,104748:0:0:0:0:
64,192,104666,128,0,104748:0:0:0:0:
192,192,104831,128,0,104913:0:0:0:0:
448,192,104913,1,0,0:0:0:0:
320,192,104913,1,0,0:0:0:0:
320,192,104996,1,0,0:0:0:0:
448,192,104996,1,0,0:0:0:0:
448,192,105078,128,0,105160:0:0:0:0:
320,192,105078,128,0,105160:0:0:0:0:
64,192,105078,1,0,0:0:0:0:
64,192,105243,128,0,105325:0:0:0:0:
320,192,105325,128,0,105408:0:0:0:0:
192,192,105325,128,0,105408:0:0:0:0:
448,192,105572,128,0,105655:0:0:0:0:
320,192,105572,1,0,0:0:0:0:
64,192,105572,128,0,105655:0:0:0:0:
192,192,105737,128,0,105820:0:0:0:0:
64,192,105737,128,0,105820:0:0:0:0:
448,192,105737,1,0,0:0:0:0:
448,192,105902,1,0,0:0:0:0:
192,192,105902,1,0,0:0:0:0:
320,192,105985,1,0,0:0:0:0:
192,192,105985,1,0,0:0:0:0:
64,192,106067,1,0,0:0:0:0:
448,192,106067,1,0,0:0:0:0:
192,192,106149,1,0,0:0:0:0:
448,192,106149,1,0,0:0:0:0:
320,192,106232,1,0,0:0:0:0:
64,192,106232,1,0,0:0:0:0:
192,192,106232,1,0,0:0:0:0:
192,192,106397,1,0,0:0:0:0:
64,192,106397,1,0,0:0:0:0:
448,192,106397,1,0,0:0:0:0:
320,192,106479,1,0,0:0:0:0:
64,192,106479,1,0,0:0:0:0:
448,192,106561,1,0,0:0:0:0:
192,192,106561,1,0,0:0:0:0:
64,192,106726,1,0,0:0:0:0:
320,192,106726,128,0,106891:0:0:0:0:
448,192,106754,128,0,106891:0:0:0:0:
192,192,106891,1,0,0:0:0:0:
64,192,106891,1,0,0:0:0:0:
448,192,106974,1,0,0:0:0:0:
320,192,107056,128,0,107138:0:0:0:0:
192,192,107056,128,0,107138:0:0:0:0:
64,192,107056,1,0,0:0:0:0:
448,192,107138,1,0,0:0:0:0:
448,192,107221,1,0,0:0:0:0:
192,192,107303,128,0,107386:0:0:0:0:
64,192,107303,128,0,107386:0:0:0:0:
320,192,107303,1,0,0:0:0:0:
448,192,107386,1,0,0:0:0:0:
192,192,107468,1,0,0:0:0:0:
448,192,107550,1,0,0:0:0:0:
320,192,107550,1,0,0:0:0:0:
320,192,107633,1,0,0:0:0:0:
448,192,107633,1,0,0:0:0:0:
320,192,107715,128,0,107798:0:0:0:0:
448,192,107715,128,0,107798:0:0:0:0:
64,192,107715,1,0,0:0:0:0:
64,192,107798,1,0,0:0:0:0:
192,192,107880,1,0,0:0:0:0:
320,192,107880,1,0,0:0:0:0:
192,192,107963,128,0,108045:0:0:0:0:
448,192,107963,128,0,108045:0:0:0:0:
64,192,108045,1,0,0:0:0:0:
448,192,108127,1,0,0:0:0:0:
320,192,108210,1,0,0:0:0:0:
64,192,108210,1,0,0:0:0:0:
64,192,108292,1,0,0:0:0:0:
320,192,108292,1,0,0:0:0:0:
192,192,108375,128,0,108457:0:0:0:0:
64,192,108375,128,0,108457:0:0:0:0:
448,192,108375,1,0,0:0:0:0:
320,192,108457,1,0,0:0:0:0:
448,192,108539,128,0,108622:0:0:0:0:
64,192,108539,1,0,0:0:0:0:
192,192,108622,1,0,0:0:0:0:
320,192,108704,128,0,108787:0:0:0:0:
192,192,108704,1,0,0:0:0:0:
448,192,108787,1,0,0:0:0:0:
64,192,108869,1,0,0:0:0:0:
192,192,108869,1,0,0:0:0:0:
192,192,108952,1,0,0:0:0:0:
64,192,108952,1,0,0:0:0:0:
64,192,109034,128,0,109116:0:0:0:0:
192,192,109034,128,0,109116:0:0:0:0:
448,192,109034,1,0,0:0:0:0:
320,192,109199,1,0,0:0:0:0:
64,192,109199,128,0,109281:0:0:0:0:
448,192,109281,128,0,109364:0:0:0:0:
192,192,109281,128,0,109364:0:0:0:0:
320,192,109281,1,0,0:0:0:0:
64,192,109364,1,0,0:0:0:0:
64,192,109446,1,0,0:0:0:0:
320,192,109528,1,0,0:0:0:0:
192,192,109528,1,0,0:0:0:0:
448,192,109528,1,0,0:0:0:0:
320,192,109611,1,0,0:0:0:0:
448,192,109693,1,0,0:0:0:0:
192,192,109693,128,0,109776:0:0:0:0:
64,192,109693,1,0,0:0:0:0:
320,192,109776,128,0,109858:0:0:0:0:
64,192,109858,128,0,109941:0:0:0:0:
192,192,109858,1,0,0:0:0:0:
320,192,109941,1,0,0:0:0:0:
448,192,109941,1,0,0:0:0:0:
320,192,110023,128,0,110105:0:0:0:0:
64,192,110023,1,0,0:0:0:0:
192,192,110105,128,0,110188:0:0:0:0:
448,192,110188,128,0,110270:0:0:0:0:
64,192,110188,1,0,0:0:0:0:
320,192,110270,1,0,0:0:0:0:
192,192,110270,1,0,0:0:0:0:
320,192,110353,1,0,0:0:0:0:
448,192,110353,1,0,0:0:0:0:
64,192,110353,1,0,0:0:0:0:
192,192,110435,1,0,0:0:0:0:
448,192,110518,1,0,0:0:0:0:
64,192,110518,1,0,0:0:0:0:
192,192,110518,1,0,0:0:0:0:
320,192,110600,1,0,0:0:0:0:
448,192,110600,1,0,0:0:0:0:
192,192,110682,1,0,0:0:0:0:
64,192,110682,1,0,0:0:0:0:
192,192,110765,1,0,0:0:0:0:
320,192,110765,1,0,0:0:0:0:
320,192,110847,1,0,0:0:0:0:
64,192,110847,1,0,0:0:0:0:
448,192,110847,1,0,0:0:0:0:
320,192,110930,128,0,111012:0:0:0:0:
448,192,110930,128,0,111012:0:0:0:0:
64,192,110930,128,0,111012:0:0:0:0:
