osu file format v14

[General]
AudioFilename: audio95.mp3
AudioLeadIn: 0
PreviewTime: 71004
Countdown: 0
SampleSet: Normal
StackLeniency: 0.7
Mode: 3
LetterboxInBreaks: 0
SpecialStyle: 0
WidescreenStoryboard: 0

[Editor]
DistanceSpacing: 2
BeatDivisor: 4
GridSize: 16
TimelineZoom: 1.7

[Metadata]
Title:B612
TitleUnicode:B612
Artist:litmus*
ArtistUnicode:litmus*
Creator:Dreamwalker
Version:Le Petit Prince [0.95x]
Source:BMS
Tags:G2R2018 go back to your roots dump jack LN
BeatmapID:1853149
BeatmapSetID:885961

[Difficulty]
HPDrainRate:9
CircleSize:4
OverallDifficulty:7.7
ApproachRate:0
SliderMultiplier:1.4
SliderTickRate:1

[Events]
//Background and Video events
0,0,"__stagefile.png",0,0
//Break Periods
//Storyboard Layer 0 (Background)
//Storyboard Layer 1 (Fail)
//Storyboard Layer 2 (Pass)
//Storyboard Layer 3 (Foreground)
//Storyboard Sound Samples

[TimingPoints]
5848,347.021399652979,4,1,0,20,1,0

[HitObjects]
448,192,5848,128,0,6108:0:0:0:0:
320,192,5848,128,0,6108:0:0:0:0:
64,192,5848,128,0,8451:0:0:0:0:
192,192,6021,128,0,6108:0:0:0:0:
320,192,6195,128,0,6282:0:0:0:0:
320,192,6368,128,0,6628:0:0:0:0:
192,192,6368,128,0,6628:0:0:0:0:
448,192,6542,128,0,6628:0:0:0:0:
192,192,6716,128,0,6976:0:0:0:0:
448,192,6716,128,0,7149:0:0:0:0:
320,192,6889,128,0,6976:0:0:0:0:
320,192,7062,128,0,7149:0:0:0:0:
320,192,7236,128,0,7496:0:0:0:0:
192,192,7236,128,0,7669:0:0:0:0:
448,192,7409,128,0,7496:0:0:0:0:
320,192,7583,128,0,7669:0:0:0:0:
192,192,7757,128,0,8017:0:0:0:0:
448,192,7757,128,0,8017:0:0:0:0:
320,192,7931,128,0,8017:0:0:0:0:
448,192,8103,128,0,8364:0:0:0:0:
320,192,8103,128,0,8364:0:0:0:0:
192,192,8277,128,0,8364:0:0:0:0:
320,192,8451,128,0,8624:0:0:0:0:
192,192,8451,128,0,8884:0:0:0:0:
64,192,8624,128,0,8711:0:0:0:0:
448,192,8624,128,0,11226:0:0:0:0:
64,192,8798,128,0,8884:0:0:0:0:
192,192,8972,128,0,9058:0:0:0:0:
64,192,9144,128,0,9405:0:0:0:0:
192,192,9144,128,0,9405:0:0:0:0:
320,192,9318,128,0,9405:0:0:0:0:
320,192,9492,128,0,9752:0:0:0:0:
64,192,9492,128,0,9752:0:0:0:0:
192,192,9665,128,0,9752:0:0:0:0:
192,192,9839,128,0,10273:0:0:0:0:
64,192,9839,128,0,10013:0:0:0:0:
320,192,10013,128,0,10446:0:0:0:0:
64,192,10185,128,0,10273:0:0:0:0:
192,192,10359,128,0,10446:0:0:0:0:
320,192,10533,128,0,10793:0:0:0:0:
192,192,10533,128,0,10793:0:0:0:0:
64,192,10706,128,0,10793:0:0:0:0:
64,192,10880,128,0,11140:0:0:0:0:
192,192,10880,128,0,11140:0:0:0:0:
320,192,11054,128,0,11140:0:0:0:0:
320,192,11226,128,0,11660:0:0:0:0:
64,192,11226,128,0,11400:0:0:0:0:
192,192,11400,128,0,13656:0:0:0:0:
448,192,11400,128,0,11487:0:0:0:0:
448,192,11574,128,0,11660:0:0:0:0:
320,192,11747,128,0,11834:0:0:0:0:
448,192,11921,128,0,12181:0:0:0:0:
320,192,11921,128,0,12181:0:0:0:0:
64,192,12095,128,0,12181:0:0:0:0:
320,192,12267,128,0,12441:0:0:0:0:
64,192,12267,128,0,12441:0:0:0:0:
448,192,12441,1,0,0:0:0:0:
448,192,12528,1,0,0:0:0:0:
320,192,12615,1,0,0:0:0:0:
64,192,12701,1,0,0:0:0:0:
448,192,12788,128,0,13048:0:0:0:0:
64,192,12788,128,0,13048:0:0:0:0:
320,192,12962,128,0,13048:0:0:0:0:
448,192,13136,128,0,13308:0:0:0:0:
320,192,13136,128,0,13308:0:0:0:0:
64,192,13308,128,0,13482:0:0:0:0:
448,192,13396,1,0,0:0:0:0:
320,192,13396,1,0,0:0:0:0:
320,192,13482,128,0,13656:0:0:0:0:
64,192,13656,1,0,0:0:0:0:
448,192,13656,1,0,0:0:0:0:
320,192,13829,1,0,0:0:0:0:
64,192,13829,1,0,0:0:0:0:
320,192,13916,1,0,0:0:0:0:
448,192,14003,128,0,14177:0:0:0:0:
192,192,14003,1,0,0:0:0:0:
64,192,14089,1,0,0:0:0:0:
320,192,14177,1,0,0:0:0:0:
192,192,14177,1,0,0:0:0:0:
320,192,14349,1,0,0:0:0:0:
64,192,14349,1,0,0:0:0:0:
192,192,14437,1,0,0:0:0:0:
320,192,14523,1,0,0:0:0:0:
64,192,14523,1,0,0:0:0:0:
448,192,14611,1,0,0:0:0:0:
320,192,14697,1,0,0:0:0:0:
192,192,14697,1,0,0:0:0:0:
320,192,14871,1,0,0:0:0:0:
192,192,14871,1,0,0:0:0:0:
192,192,14957,1,0,0:0:0:0:
64,192,14957,1,0,0:0:0:0:
448,192,15044,1,0,0:0:0:0:
320,192,15044,1,0,0:0:0:0:
192,192,15218,1,0,0:0:0:0:
64,192,15218,1,0,0:0:0:0:
448,192,15304,1,0,0:0:0:0:
320,192,15304,1,0,0:0:0:0:
192,192,15391,1,0,0:0:0:0:
448,192,15478,1,0,0:0:0:0:
64,192,15478,1,0,0:0:0:0:
320,192,15564,1,0,0:0:0:0:
192,192,15564,1,0,0:0:0:0:
320,192,15652,1,0,0:0:0:0:
192,192,15738,1,0,0:0:0:0:
64,192,15738,1,0,0:0:0:0:
64,192,15825,1,0,0:0:0:0:
320,192,15912,1,0,0:0:0:0:
448,192,15912,1,0,0:0:0:0:
448,192,15998,1,0,0:0:0:0:
192,192,16085,1,0,0:0:0:0:
64,192,16085,1,0,0:0:0:0:
192,192,16172,1,0,0:0:0:0:
320,192,16172,1,0,0:0:0:0:
320,192,16259,1,0,0:0:0:0:
448,192,16259,1,0,0:0:0:0:
192,192,16345,1,0,0:0:0:0:
64,192,16345,1,0,0:0:0:0:
192,192,16432,1,0,0:0:0:0:
320,192,16432,1,0,0:0:0:0:
320,192,16519,1,0,0:0:0:0:
448,192,16519,1,0,0:0:0:0:
448,192,16605,128,0,16693:0:0:0:0:
320,192,16605,128,0,16693:0:0:0:0:
192,192,16605,128,0,16693:0:0:0:0:
64,192,16605,128,0,16693:0:0:0:0:
320,192,16953,128,0,17104:0:0:0:0:
192,192,16953,128,0,17126:0:0:0:0:
64,192,16953,128,0,17147:0:0:0:0:
320,192,17213,128,0,17408:0:0:0:0:
192,192,17213,128,0,17386:0:0:0:0:
64,192,17213,128,0,17364:0:0:0:0:
320,192,17473,128,0,17625:0:0:0:0:
64,192,17473,128,0,17668:0:0:0:0:
192,192,17473,128,0,17646:0:0:0:0:
448,192,17646,1,0,0:0:0:0:
320,192,17704,1,0,0:0:0:0:
448,192,17762,1,0,0:0:0:0:
64,192,17820,1,0,0:0:0:0:
192,192,17820,1,0,0:0:0:0:
448,192,17863,1,0,0:0:0:0:
192,192,17907,1,0,0:0:0:0:
64,192,17951,1,0,0:0:0:0:
192,192,17994,128,0,18145:0:0:0:0:
320,192,17994,128,0,18167:0:0:0:0:
448,192,17994,128,0,18188:0:0:0:0:
320,192,18254,128,0,18427:0:0:0:0:
448,192,18254,128,0,18405:0:0:0:0:
192,192,18254,128,0,18449:0:0:0:0:
192,192,18514,128,0,18666:0:0:0:0:
320,192,18514,128,0,18687:0:0:0:0:
448,192,18514,128,0,18709:0:0:0:0:
64,192,18687,1,0,0:0:0:0:
192,192,18732,1,0,0:0:0:0:
448,192,18775,1,0,0:0:0:0:
192,192,18818,1,0,0:0:0:0:
64,192,18861,128,0,18919:0:0:0:0:
320,192,18861,1,0,0:0:0:0:
448,192,18948,128,0,19006:0:0:0:0:
320,192,18948,1,0,0:0:0:0:
64,192,19035,1,0,0:0:0:0:
192,192,19121,1,0,0:0:0:0:
320,192,19121,1,0,0:0:0:0:
192,192,19208,128,0,19295:0:0:0:0:
320,192,19237,128,0,19324:0:0:0:0:
64,192,19295,1,0,0:0:0:0:
448,192,19382,1,0,0:0:0:0:
192,192,19382,1,0,0:0:0:0:
64,192,19382,1,0,0:0:0:0:
320,192,19382,1,0,0:0:0:0:
64,192,19728,128,0,19881:0:0:0:0:
192,192,19728,128,0,19902:0:0:0:0:
320,192,19728,128,0,19924:0:0:0:0:
320,192,19989,128,0,20184:0:0:0:0:
192,192,19989,128,0,20162:0:0:0:0:
64,192,19989,128,0,20141:0:0:0:0:
64,192,20249,128,0,20401:0:0:0:0:
320,192,20249,128,0,20444:0:0:0:0:
192,192,20249,128,0,20423:0:0:0:0:
448,192,20423,1,0,0:0:0:0:
64,192,20487,1,0,0:0:0:0:
192,192,20509,1,0,0:0:0:0:
64,192,20596,1,0,0:0:0:0:
192,192,20596,1,0,0:0:0:0:
448,192,20661,1,0,0:0:0:0:
320,192,20683,1,0,0:0:0:0:
64,192,20726,1,0,0:0:0:0:
448,192,20769,128,0,20922:0:0:0:0:
320,192,20769,128,0,20943:0:0:0:0:
192,192,20769,128,0,20965:0:0:0:0:
320,192,21031,128,0,21203:0:0:0:0:
448,192,21031,128,0,21182:0:0:0:0:
192,192,21031,128,0,21225:0:0:0:0:
448,192,21291,128,0,21442:0:0:0:0:
320,192,21291,128,0,21464:0:0:0:0:
192,192,21291,128,0,21485:0:0:0:0:
64,192,21464,1,0,0:0:0:0:
448,192,21551,128,0,21608:0:0:0:0:
320,192,21551,1,0,0:0:0:0:
320,192,21638,128,0,21695:0:0:0:0:
192,192,21638,1,0,0:0:0:0:
192,192,21724,128,0,21782:0:0:0:0:
64,192,21724,1,0,0:0:0:0:
448,192,21811,128,0,21898:0:0:0:0:
320,192,21855,128,0,21919:0:0:0:0:
192,192,21868,128,0,21919:0:0:0:0:
448,192,21984,128,0,22049:0:0:0:0:
320,192,22027,128,0,22072:0:0:0:0:
192,192,22042,128,0,22072:0:0:0:0:
64,192,22072,1,0,0:0:0:0:
320,192,22158,1,0,0:0:0:0:
192,192,22158,1,0,0:0:0:0:
64,192,22158,1,0,0:0:0:0:
448,192,22158,1,0,0:0:0:0:
448,192,22505,128,0,22765:0:0:0:0:
192,192,22505,1,0,0:0:0:0:
64,192,22505,1,0,0:0:0:0:
320,192,22505,128,0,22765:0:0:0:0:
448,192,22852,128,0,23113:0:0:0:0:
64,192,22852,1,0,0:0:0:0:
320,192,22852,128,0,23113:0:0:0:0:
64,192,23025,1,0,0:0:0:0:
192,192,23113,1,0,0:0:0:0:
448,192,23199,128,0,23459:0:0:0:0:
64,192,23199,1,0,0:0:0:0:
320,192,23199,128,0,23459:0:0:0:0:
192,192,23373,1,0,0:0:0:0:
64,192,23459,1,0,0:0:0:0:
448,192,23546,128,0,23806:0:0:0:0:
320,192,23546,1,0,0:0:0:0:
320,192,23720,1,0,0:0:0:0:
448,192,23893,128,0,24154:0:0:0:0:
192,192,23893,1,0,0:0:0:0:
320,192,23893,128,0,24154:0:0:0:0:
192,192,24066,1,0,0:0:0:0:
448,192,24240,128,0,24500:0:0:0:0:
64,192,24240,1,0,0:0:0:0:
320,192,24240,128,0,24500:0:0:0:0:
192,192,24414,1,0,0:0:0:0:
64,192,24500,1,0,0:0:0:0:
192,192,24587,1,0,0:0:0:0:
448,192,24587,128,0,24847:0:0:0:0:
320,192,24587,128,0,24847:0:0:0:0:
192,192,24761,1,0,0:0:0:0:
64,192,24847,1,0,0:0:0:0:
448,192,24934,128,0,25195:0:0:0:0:
320,192,24934,1,0,0:0:0:0:
320,192,25107,1,0,0:0:0:0:
448,192,25281,1,0,0:0:0:0:
64,192,25281,1,0,0:0:0:0:
64,192,25367,1,0,0:0:0:0:
320,192,25455,1,0,0:0:0:0:
448,192,25541,1,0,0:0:0:0:
64,192,25541,1,0,0:0:0:0:
320,192,25628,1,0,0:0:0:0:
192,192,25628,1,0,0:0:0:0:
320,192,25715,1,0,0:0:0:0:
64,192,25802,1,0,0:0:0:0:
320,192,25888,1,0,0:0:0:0:
448,192,25888,1,0,0:0:0:0:
64,192,25975,1,0,0:0:0:0:
192,192,25975,1,0,0:0:0:0:
192,192,26062,1,0,0:0:0:0:
448,192,26148,1,0,0:0:0:0:
192,192,26236,1,0,0:0:0:0:
320,192,26236,1,0,0:0:0:0:
64,192,26322,1,0,0:0:0:0:
448,192,26322,1,0,0:0:0:0:
448,192,26408,1,0,0:0:0:0:
64,192,26496,1,0,0:0:0:0:
320,192,26582,1,0,0:0:0:0:
192,192,26582,1,0,0:0:0:0:
64,192,26669,128,0,26756:0:0:0:0:
448,192,26669,128,0,26756:0:0:0:0:
320,192,26669,128,0,26756:0:0:0:0:
192,192,26843,128,0,26929:0:0:0:0:
320,192,26929,128,0,27016:0:0:0:0:
448,192,26929,128,0,27016:0:0:0:0:
192,192,27103,128,0,27189:0:0:0:0:
320,192,27189,128,0,27277:0:0:0:0:
64,192,27189,128,0,27277:0:0:0:0:
320,192,27363,128,0,27449:0:0:0:0:
192,192,27363,128,0,27449:0:0:0:0:
448,192,27537,128,0,27623:0:0:0:0:
64,192,27537,128,0,27623:0:0:0:0:
320,192,27623,1,0,0:0:0:0:
192,192,27623,1,0,0:0:0:0:
64,192,27711,1,0,0:0:0:0:
192,192,27711,1,0,0:0:0:0:
320,192,27711,1,0,0:0:0:0:
448,192,27711,1,0,0:0:0:0:
64,192,28057,128,0,28115:0:0:0:0:
192,192,28057,1,0,0:0:0:0:
192,192,28231,1,0,0:0:0:0:
64,192,28404,128,0,28462:0:0:0:0:
320,192,28404,1,0,0:0:0:0:
448,192,28404,1,0,0:0:0:0:
192,192,28578,128,0,28636:0:0:0:0:
64,192,28578,1,0,0:0:0:0:
192,192,28752,1,0,0:0:0:0:
64,192,28925,1,0,0:0:0:0:
192,192,28925,128,0,28983:0:0:0:0:
320,192,28954,128,0,29012:0:0:0:0:
320,192,29098,128,0,29156:0:0:0:0:
448,192,29098,1,0,0:0:0:0:
64,192,29098,1,0,0:0:0:0:
448,192,29272,128,0,29329:0:0:0:0:
320,192,29272,1,0,0:0:0:0:
448,192,29445,1,0,0:0:0:0:
320,192,29619,1,0,0:0:0:0:
448,192,29619,1,0,0:0:0:0:
320,192,29793,128,0,29851:0:0:0:0:
64,192,29793,1,0,0:0:0:0:
192,192,29793,1,0,0:0:0:0:
448,192,29821,128,0,29879:0:0:0:0:
320,192,29966,128,0,30024:0:0:0:0:
64,192,29966,1,0,0:0:0:0:
192,192,30053,1,0,0:0:0:0:
64,192,30053,1,0,0:0:0:0:
448,192,30053,1,0,0:0:0:0:
320,192,30139,1,0,0:0:0:0:
64,192,30313,1,0,0:0:0:0:
192,192,30313,128,0,30371:0:0:0:0:
448,192,30486,1,0,0:0:0:0:
320,192,30486,1,0,0:0:0:0:
64,192,30486,1,0,0:0:0:0:
448,192,30660,128,0,30834:0:0:0:0:
320,192,30660,128,0,30718:0:0:0:0:
192,192,30834,128,0,30892:0:0:0:0:
64,192,30834,1,0,0:0:0:0:
192,192,31007,1,0,0:0:0:0:
64,192,31180,128,0,31238:0:0:0:0:
320,192,31180,1,0,0:0:0:0:
448,192,31180,1,0,0:0:0:0:
192,192,31354,128,0,31412:0:0:0:0:
64,192,31354,1,0,0:0:0:0:
192,192,31527,1,0,0:0:0:0:
192,192,31701,128,0,31759:0:0:0:0:
64,192,31701,1,0,0:0:0:0:
320,192,31729,128,0,31787:0:0:0:0:
448,192,31875,1,0,0:0:0:0:
192,192,31875,1,0,0:0:0:0:
320,192,31875,1,0,0:0:0:0:
448,192,32048,128,0,32106:0:0:0:0:
192,192,32048,1,0,0:0:0:0:
320,192,32135,1,0,0:0:0:0:
192,192,32135,1,0,0:0:0:0:
64,192,32135,1,0,0:0:0:0:
448,192,32221,1,0,0:0:0:0:
320,192,32395,1,0,0:0:0:0:
448,192,32395,1,0,0:0:0:0:
192,192,32568,1,0,0:0:0:0:
64,192,32568,1,0,0:0:0:0:
320,192,32568,128,0,32626:0:0:0:0:
448,192,32598,128,0,32656:0:0:0:0:
192,192,32742,1,0,0:0:0:0:
320,192,32742,128,0,32800:0:0:0:0:
64,192,32828,1,0,0:0:0:0:
448,192,32828,1,0,0:0:0:0:
192,192,32828,1,0,0:0:0:0:
320,192,32916,1,0,0:0:0:0:
448,192,33089,1,0,0:0:0:0:
320,192,33089,128,0,33147:0:0:0:0:
192,192,33262,1,0,0:0:0:0:
64,192,33262,128,0,33320:0:0:0:0:
320,192,33436,1,0,0:0:0:0:
192,192,33436,128,0,33494:0:0:0:0:
448,192,33436,128,0,33609:0:0:0:0:
192,192,33609,1,0,0:0:0:0:
64,192,33609,128,0,33667:0:0:0:0:
192,192,33783,1,0,0:0:0:0:
448,192,33957,1,0,0:0:0:0:
64,192,33957,1,0,0:0:0:0:
192,192,33957,128,0,34015:0:0:0:0:
448,192,34131,1,0,0:0:0:0:
320,192,34131,128,0,34188:0:0:0:0:
320,192,34303,1,0,0:0:0:0:
448,192,34477,1,0,0:0:0:0:
320,192,34477,128,0,34535:0:0:0:0:
448,192,34651,1,0,0:0:0:0:
192,192,34651,1,0,0:0:0:0:
64,192,34651,1,0,0:0:0:0:
64,192,34824,1,0,0:0:0:0:
192,192,34824,128,0,34882:0:0:0:0:
192,192,34998,1,0,0:0:0:0:
64,192,35172,1,0,0:0:0:0:
192,192,35172,128,0,35229:0:0:0:0:
64,192,35344,1,0,0:0:0:0:
320,192,35344,1,0,0:0:0:0:
448,192,35344,128,0,35402:0:0:0:0:
448,192,35518,1,0,0:0:0:0:
320,192,35518,128,0,35576:0:0:0:0:
448,192,35605,1,0,0:0:0:0:
64,192,35605,1,0,0:0:0:0:
192,192,35605,1,0,0:0:0:0:
192,192,35692,128,0,35749:0:0:0:0:
448,192,35865,1,0,0:0:0:0:
320,192,35865,128,0,35923:0:0:0:0:
448,192,36039,1,0,0:0:0:0:
192,192,36039,1,0,0:0:0:0:
64,192,36039,1,0,0:0:0:0:
64,192,36213,128,0,36271:0:0:0:0:
192,192,36213,1,0,0:0:0:0:
320,192,36299,1,0,0:0:0:0:
448,192,36299,1,0,0:0:0:0:
448,192,36385,1,0,0:0:0:0:
320,192,36385,1,0,0:0:0:0:
448,192,36559,128,0,36617:0:0:0:0:
320,192,36733,1,0,0:0:0:0:
64,192,36733,1,0,0:0:0:0:
448,192,36733,128,0,36791:0:0:0:0:
192,192,36906,1,0,0:0:0:0:
64,192,36906,128,0,36964:0:0:0:0:
192,192,37080,128,0,37138:0:0:0:0:
448,192,37254,1,0,0:0:0:0:
64,192,37254,1,0,0:0:0:0:
320,192,37254,128,0,37312:0:0:0:0:
320,192,37427,1,0,0:0:0:0:
64,192,37427,1,0,0:0:0:0:
192,192,37427,1,0,0:0:0:0:
320,192,37600,1,0,0:0:0:0:
448,192,37600,1,0,0:0:0:0:
320,192,37687,1,0,0:0:0:0:
192,192,37687,1,0,0:0:0:0:
64,192,37687,1,0,0:0:0:0:
192,192,37861,1,0,0:0:0:0:
320,192,37861,1,0,0:0:0:0:
64,192,37861,1,0,0:0:0:0:
320,192,37947,1,0,0:0:0:0:
448,192,37947,1,0,0:0:0:0:
192,192,38121,1,0,0:0:0:0:
320,192,38121,1,0,0:0:0:0:
448,192,38121,1,0,0:0:0:0:
192,192,38295,1,0,0:0:0:0:
64,192,38295,1,0,0:0:0:0:
192,192,38381,1,0,0:0:0:0:
320,192,38381,1,0,0:0:0:0:
448,192,38381,1,0,0:0:0:0:
448,192,38555,1,0,0:0:0:0:
320,192,38555,1,0,0:0:0:0:
192,192,38555,1,0,0:0:0:0:
192,192,38641,1,0,0:0:0:0:
64,192,38641,1,0,0:0:0:0:
320,192,38815,1,0,0:0:0:0:
192,192,38815,1,0,0:0:0:0:
64,192,38815,1,0,0:0:0:0:
192,192,38902,1,0,0:0:0:0:
64,192,38902,1,0,0:0:0:0:
320,192,38988,1,0,0:0:0:0:
448,192,38988,1,0,0:0:0:0:
192,192,39075,1,0,0:0:0:0:
320,192,39075,1,0,0:0:0:0:
192,192,39162,1,0,0:0:0:0:
448,192,39162,1,0,0:0:0:0:
64,192,39162,1,0,0:0:0:0:
192,192,39336,1,0,0:0:0:0:
320,192,39509,1,0,0:0:0:0:
448,192,39509,1,0,0:0:0:0:
64,192,39509,1,0,0:0:0:0:
64,192,39682,1,0,0:0:0:0:
192,192,39682,1,0,0:0:0:0:
192,192,39856,1,0,0:0:0:0:
64,192,40029,1,0,0:0:0:0:
192,192,40029,1,0,0:0:0:0:
320,192,40059,1,0,0:0:0:0:
448,192,40203,1,0,0:0:0:0:
64,192,40203,1,0,0:0:0:0:
320,192,40203,1,0,0:0:0:0:
320,192,40377,1,0,0:0:0:0:
448,192,40377,1,0,0:0:0:0:
448,192,40551,1,0,0:0:0:0:
192,192,40551,1,0,0:0:0:0:
64,192,40637,1,0,0:0:0:0:
320,192,40723,1,0,0:0:0:0:
448,192,40723,1,0,0:0:0:0:
64,192,40897,1,0,0:0:0:0:
192,192,40897,1,0,0:0:0:0:
320,192,40897,1,0,0:0:0:0:
448,192,40926,1,0,0:0:0:0:
64,192,41071,1,0,0:0:0:0:
320,192,41071,1,0,0:0:0:0:
192,192,41157,1,0,0:0:0:0:
64,192,41157,1,0,0:0:0:0:
448,192,41157,1,0,0:0:0:0:
320,192,41244,1,0,0:0:0:0:
64,192,41418,1,0,0:0:0:0:
192,192,41418,1,0,0:0:0:0:
448,192,41592,1,0,0:0:0:0:
320,192,41592,1,0,0:0:0:0:
64,192,41592,1,0,0:0:0:0:
448,192,41764,128,0,41938:0:0:0:0:
320,192,41764,1,0,0:0:0:0:
64,192,41938,1,0,0:0:0:0:
192,192,41938,1,0,0:0:0:0:
192,192,42112,1,0,0:0:0:0:
320,192,42285,1,0,0:0:0:0:
448,192,42285,1,0,0:0:0:0:
64,192,42285,1,0,0:0:0:0:
64,192,42459,1,0,0:0:0:0:
192,192,42459,1,0,0:0:0:0:
320,192,42545,1,0,0:0:0:0:
192,192,42633,1,0,0:0:0:0:
448,192,42719,1,0,0:0:0:0:
64,192,42805,1,0,0:0:0:0:
192,192,42805,1,0,0:0:0:0:
320,192,42835,1,0,0:0:0:0:
448,192,42979,1,0,0:0:0:0:
192,192,42979,1,0,0:0:0:0:
320,192,42979,1,0,0:0:0:0:
192,192,43153,1,0,0:0:0:0:
448,192,43153,1,0,0:0:0:0:
320,192,43239,1,0,0:0:0:0:
192,192,43239,1,0,0:0:0:0:
64,192,43239,1,0,0:0:0:0:
448,192,43326,1,0,0:0:0:0:
192,192,43413,1,0,0:0:0:0:
320,192,43500,1,0,0:0:0:0:
448,192,43500,1,0,0:0:0:0:
192,192,43674,1,0,0:0:0:0:
64,192,43674,1,0,0:0:0:0:
320,192,43674,1,0,0:0:0:0:
448,192,43702,1,0,0:0:0:0:
192,192,43846,1,0,0:0:0:0:
320,192,43846,1,0,0:0:0:0:
64,192,43934,1,0,0:0:0:0:
448,192,43934,1,0,0:0:0:0:
192,192,43934,1,0,0:0:0:0:
320,192,44020,1,0,0:0:0:0:
64,192,44107,1,0,0:0:0:0:
448,192,44194,1,0,0:0:0:0:
320,192,44194,1,0,0:0:0:0:
192,192,44367,1,0,0:0:0:0:
64,192,44367,1,0,0:0:0:0:
448,192,44367,1,0,0:0:0:0:
320,192,44541,1,0,0:0:0:0:
448,192,44541,128,0,44715:0:0:0:0:
192,192,44541,1,0,0:0:0:0:
192,192,44715,1,0,0:0:0:0:
64,192,44715,1,0,0:0:0:0:
320,192,44801,1,0,0:0:0:0:
64,192,44887,1,0,0:0:0:0:
448,192,45061,1,0,0:0:0:0:
64,192,45061,1,0,0:0:0:0:
192,192,45061,1,0,0:0:0:0:
320,192,45148,1,0,0:0:0:0:
64,192,45235,1,0,0:0:0:0:
192,192,45235,1,0,0:0:0:0:
448,192,45322,1,0,0:0:0:0:
64,192,45408,1,0,0:0:0:0:
192,192,45408,1,0,0:0:0:0:
448,192,45495,1,0,0:0:0:0:
192,192,45582,1,0,0:0:0:0:
320,192,45582,1,0,0:0:0:0:
448,192,45668,1,0,0:0:0:0:
64,192,45756,1,0,0:0:0:0:
192,192,45756,1,0,0:0:0:0:
320,192,45756,1,0,0:0:0:0:
448,192,45842,1,0,0:0:0:0:
64,192,45928,1,0,0:0:0:0:
192,192,45928,1,0,0:0:0:0:
448,192,46016,1,0,0:0:0:0:
192,192,46102,1,0,0:0:0:0:
320,192,46102,1,0,0:0:0:0:
64,192,46189,1,0,0:0:0:0:
320,192,46276,1,0,0:0:0:0:
448,192,46276,1,0,0:0:0:0:
64,192,46363,1,0,0:0:0:0:
320,192,46449,1,0,0:0:0:0:
448,192,46449,1,0,0:0:0:0:
192,192,46449,1,0,0:0:0:0:
64,192,46536,1,0,0:0:0:0:
448,192,46623,1,0,0:0:0:0:
320,192,46623,1,0,0:0:0:0:
448,192,46709,1,0,0:0:0:0:
64,192,46709,1,0,0:0:0:0:
192,192,46709,1,0,0:0:0:0:
192,192,46797,1,0,0:0:0:0:
64,192,46883,1,0,0:0:0:0:
448,192,46969,1,0,0:0:0:0:
320,192,46969,1,0,0:0:0:0:
192,192,47057,1,0,0:0:0:0:
448,192,47143,1,0,0:0:0:0:
320,192,47143,1,0,0:0:0:0:
64,192,47143,1,0,0:0:0:0:
320,192,47231,1,0,0:0:0:0:
192,192,47231,1,0,0:0:0:0:
192,192,47317,1,0,0:0:0:0:
64,192,47317,1,0,0:0:0:0:
320,192,47404,1,0,0:0:0:0:
448,192,47404,1,0,0:0:0:0:
448,192,47491,1,0,0:0:0:0:
320,192,47491,1,0,0:0:0:0:
64,192,47491,1,0,0:0:0:0:
192,192,47577,1,0,0:0:0:0:
448,192,47664,1,0,0:0:0:0:
320,192,47664,1,0,0:0:0:0:
64,192,47751,1,0,0:0:0:0:
320,192,47838,1,0,0:0:0:0:
192,192,47838,1,0,0:0:0:0:
448,192,47838,1,0,0:0:0:0:
192,192,47924,1,0,0:0:0:0:
320,192,48011,1,0,0:0:0:0:
64,192,48011,1,0,0:0:0:0:
448,192,48098,1,0,0:0:0:0:
192,192,48184,1,0,0:0:0:0:
320,192,48184,1,0,0:0:0:0:
320,192,48272,1,0,0:0:0:0:
448,192,48358,1,0,0:0:0:0:
64,192,48358,1,0,0:0:0:0:
192,192,48358,1,0,0:0:0:0:
448,192,48445,1,0,0:0:0:0:
320,192,48532,1,0,0:0:0:0:
64,192,48532,1,0,0:0:0:0:
192,192,48532,1,0,0:0:0:0:
64,192,48618,1,0,0:0:0:0:
320,192,48705,1,0,0:0:0:0:
448,192,48705,1,0,0:0:0:0:
320,192,48792,1,0,0:0:0:0:
192,192,48792,1,0,0:0:0:0:
64,192,48792,1,0,0:0:0:0:
192,192,48965,1,0,0:0:0:0:
320,192,48965,1,0,0:0:0:0:
64,192,48965,1,0,0:0:0:0:
320,192,49052,1,0,0:0:0:0:
448,192,49052,1,0,0:0:0:0:
64,192,49139,1,0,0:0:0:0:
192,192,49225,1,0,0:0:0:0:
320,192,49225,1,0,0:0:0:0:
64,192,49225,1,0,0:0:0:0:
448,192,49313,1,0,0:0:0:0:
192,192,49399,1,0,0:0:0:0:
64,192,49399,1,0,0:0:0:0:
192,192,49486,1,0,0:0:0:0:
64,192,49486,1,0,0:0:0:0:
448,192,49486,1,0,0:0:0:0:
448,192,49573,1,0,0:0:0:0:
320,192,49573,1,0,0:0:0:0:
320,192,49659,1,0,0:0:0:0:
192,192,49659,1,0,0:0:0:0:
192,192,49746,1,0,0:0:0:0:
64,192,49746,1,0,0:0:0:0:
448,192,49833,1,0,0:0:0:0:
320,192,49833,1,0,0:0:0:0:
448,192,49920,128,0,50064:0:0:0:0:
320,192,49920,128,0,50093:0:0:0:0:
192,192,49920,128,0,50122:0:0:0:0:
64,192,49920,128,0,50151:0:0:0:0:
192,192,50266,128,0,50744:0:0:0:0:
64,192,50266,128,0,50744:0:0:0:0:
448,192,50266,128,0,50744:0:0:0:0:
64,192,50787,1,0,0:0:0:0:
192,192,50787,1,0,0:0:0:0:
448,192,50787,1,0,0:0:0:0:
192,192,50874,1,0,0:0:0:0:
64,192,50874,1,0,0:0:0:0:
448,192,50961,1,0,0:0:0:0:
320,192,50961,1,0,0:0:0:0:
64,192,50961,1,0,0:0:0:0:
192,192,51047,1,0,0:0:0:0:
320,192,51069,1,0,0:0:0:0:
192,192,51134,1,0,0:0:0:0:
320,192,51156,1,0,0:0:0:0:
64,192,51221,1,0,0:0:0:0:
192,192,51243,1,0,0:0:0:0:
448,192,51307,128,0,51373:0:0:0:0:
320,192,51329,128,0,51373:0:0:0:0:
192,192,51352,128,0,51373:0:0:0:0:
448,192,51481,128,0,51785:0:0:0:0:
192,192,51481,128,0,51785:0:0:0:0:
64,192,51481,128,0,51785:0:0:0:0:
448,192,51828,1,0,0:0:0:0:
192,192,51828,1,0,0:0:0:0:
64,192,51828,1,0,0:0:0:0:
448,192,52002,128,0,52305:0:0:0:0:
192,192,52002,128,0,52305:0:0:0:0:
64,192,52002,128,0,52305:0:0:0:0:
448,192,52348,1,0,0:0:0:0:
192,192,52348,1,0,0:0:0:0:
64,192,52348,1,0,0:0:0:0:
448,192,52436,1,0,0:0:0:0:
64,192,52436,1,0,0:0:0:0:
192,192,52522,1,0,0:0:0:0:
320,192,52522,128,0,52609:0:0:0:0:
64,192,52609,1,0,0:0:0:0:
448,192,52609,128,0,52696:0:0:0:0:
192,192,52696,1,0,0:0:0:0:
448,192,52782,128,0,52869:0:0:0:0:
320,192,52869,128,0,52956:0:0:0:0:
192,192,52869,1,0,0:0:0:0:
64,192,52869,1,0,0:0:0:0:
64,192,52956,128,0,53043:0:0:0:0:
192,192,53043,128,0,53520:0:0:0:0:
320,192,53043,128,0,53520:0:0:0:0:
448,192,53043,128,0,53520:0:0:0:0:
320,192,53563,1,0,0:0:0:0:
192,192,53563,1,0,0:0:0:0:
448,192,53563,1,0,0:0:0:0:
320,192,53651,1,0,0:0:0:0:
64,192,53651,1,0,0:0:0:0:
64,192,53737,1,0,0:0:0:0:
192,192,53737,1,0,0:0:0:0:
448,192,53737,1,0,0:0:0:0:
320,192,53795,1,0,0:0:0:0:
64,192,53845,1,0,0:0:0:0:
192,192,53867,1,0,0:0:0:0:
448,192,53911,1,0,0:0:0:0:
320,192,53954,1,0,0:0:0:0:
192,192,53997,1,0,0:0:0:0:
64,192,54040,1,0,0:0:0:0:
320,192,54084,128,0,54127:0:0:0:0:
320,192,54171,128,0,54214:0:0:0:0:
448,192,54258,128,0,54561:0:0:0:0:
192,192,54258,128,0,54561:0:0:0:0:
64,192,54258,128,0,54561:0:0:0:0:
448,192,54604,1,0,0:0:0:0:
192,192,54604,1,0,0:0:0:0:
64,192,54604,1,0,0:0:0:0:
448,192,54778,128,0,55081:0:0:0:0:
192,192,54778,128,0,55081:0:0:0:0:
64,192,54778,128,0,55081:0:0:0:0:
448,192,55125,1,0,0:0:0:0:
192,192,55125,1,0,0:0:0:0:
64,192,55125,1,0,0:0:0:0:
192,192,55212,1,0,0:0:0:0:
320,192,55212,1,0,0:0:0:0:
64,192,55299,1,0,0:0:0:0:
320,192,55299,128,0,55385:0:0:0:0:
448,192,55385,1,0,0:0:0:0:
64,192,55385,128,0,55472:0:0:0:0:
320,192,55472,1,0,0:0:0:0:
448,192,55559,128,0,55645:0:0:0:0:
320,192,55645,128,0,55733:0:0:0:0:
192,192,55645,1,0,0:0:0:0:
64,192,55645,1,0,0:0:0:0:
192,192,55733,128,0,55819:0:0:0:0:
320,192,55819,128,0,56296:0:0:0:0:
448,192,55819,128,0,56296:0:0:0:0:
64,192,55819,128,0,56296:0:0:0:0:
448,192,56340,1,0,0:0:0:0:
320,192,56340,1,0,0:0:0:0:
64,192,56340,1,0,0:0:0:0:
320,192,56426,1,0,0:0:0:0:
448,192,56426,1,0,0:0:0:0:
448,192,56513,1,0,0:0:0:0:
64,192,56513,1,0,0:0:0:0:
192,192,56513,1,0,0:0:0:0:
320,192,56600,1,0,0:0:0:0:
192,192,56621,1,0,0:0:0:0:
320,192,56686,1,0,0:0:0:0:
192,192,56708,1,0,0:0:0:0:
448,192,56774,1,0,0:0:0:0:
320,192,56795,1,0,0:0:0:0:
64,192,56860,128,0,56925:0:0:0:0:
192,192,56882,128,0,56925:0:0:0:0:
320,192,56903,128,0,56925:0:0:0:0:
320,192,57034,128,0,57294:0:0:0:0:
448,192,57034,128,0,57294:0:0:0:0:
64,192,57034,128,0,57294:0:0:0:0:
448,192,57381,128,0,57554:0:0:0:0:
320,192,57381,128,0,57554:0:0:0:0:
64,192,57381,128,0,57554:0:0:0:0:
320,192,57641,128,0,57858:0:0:0:0:
448,192,57641,128,0,57858:0:0:0:0:
64,192,57641,128,0,57858:0:0:0:0:
64,192,57901,1,0,0:0:0:0:
320,192,57901,1,0,0:0:0:0:
448,192,57901,1,0,0:0:0:0:
64,192,57987,1,0,0:0:0:0:
320,192,57987,1,0,0:0:0:0:
448,192,58075,128,0,58161:0:0:0:0:
192,192,58075,1,0,0:0:0:0:
192,192,58161,128,0,58248:0:0:0:0:
64,192,58161,1,0,0:0:0:0:
448,192,58248,1,0,0:0:0:0:
64,192,58335,128,0,58422:0:0:0:0:
320,192,58422,1,0,0:0:0:0:
192,192,58422,128,0,58508:0:0:0:0:
448,192,58422,1,0,0:0:0:0:
448,192,58508,128,0,58595:0:0:0:0:
320,192,58595,128,0,59073:0:0:0:0:
192,192,58595,128,0,59073:0:0:0:0:
64,192,58595,128,0,59073:0:0:0:0:
192,192,59116,1,0,0:0:0:0:
320,192,59116,1,0,0:0:0:0:
64,192,59116,1,0,0:0:0:0:
192,192,59202,1,0,0:0:0:0:
448,192,59202,1,0,0:0:0:0:
448,192,59289,1,0,0:0:0:0:
320,192,59289,1,0,0:0:0:0:
64,192,59289,1,0,0:0:0:0:
192,192,59347,1,0,0:0:0:0:
448,192,59398,1,0,0:0:0:0:
320,192,59419,1,0,0:0:0:0:
64,192,59463,1,0,0:0:0:0:
192,192,59506,1,0,0:0:0:0:
320,192,59549,1,0,0:0:0:0:
448,192,59593,1,0,0:0:0:0:
192,192,59636,128,0,59680:0:0:0:0:
192,192,59723,128,0,59766:0:0:0:0:
64,192,59809,128,0,60114:0:0:0:0:
320,192,59809,128,0,60114:0:0:0:0:
448,192,59809,128,0,60114:0:0:0:0:
64,192,60157,1,0,0:0:0:0:
320,192,60157,1,0,0:0:0:0:
448,192,60157,1,0,0:0:0:0:
64,192,60331,128,0,60634:0:0:0:0:
320,192,60331,128,0,60634:0:0:0:0:
448,192,60331,128,0,60634:0:0:0:0:
64,192,60677,1,0,0:0:0:0:
448,192,60677,1,0,0:0:0:0:
192,192,60706,1,0,0:0:0:0:
320,192,60721,1,0,0:0:0:0:
192,192,60793,1,0,0:0:0:0:
448,192,60807,1,0,0:0:0:0:
320,192,60851,1,0,0:0:0:0:
64,192,60851,1,0,0:0:0:0:
320,192,60938,1,0,0:0:0:0:
64,192,60959,1,0,0:0:0:0:
448,192,61024,1,0,0:0:0:0:
192,192,61024,1,0,0:0:0:0:
192,192,61112,1,0,0:0:0:0:
448,192,61198,1,0,0:0:0:0:
320,192,61198,1,0,0:0:0:0:
64,192,61198,1,0,0:0:0:0:
320,192,61284,1,0,0:0:0:0:
448,192,61284,1,0,0:0:0:0:
448,192,61372,128,0,61523:0:0:0:0:
64,192,61372,128,0,61566:0:0:0:0:
192,192,61372,128,0,61545:0:0:0:0:
64,192,61632,128,0,61826:0:0:0:0:
192,192,61632,128,0,61805:0:0:0:0:
448,192,61632,128,0,61776:0:0:0:0:
64,192,61892,128,0,62087:0:0:0:0:
192,192,61892,128,0,62065:0:0:0:0:
448,192,61892,128,0,62022:0:0:0:0:
320,192,62065,1,0,0:0:0:0:
448,192,62065,1,0,0:0:0:0:
192,192,62123,1,0,0:0:0:0:
448,192,62153,1,0,0:0:0:0:
320,192,62181,1,0,0:0:0:0:
64,192,62239,1,0,0:0:0:0:
192,192,62267,1,0,0:0:0:0:
320,192,62304,1,0,0:0:0:0:
448,192,62325,1,0,0:0:0:0:
192,192,62369,1,0,0:0:0:0:
64,192,62413,128,0,62564:0:0:0:0:
448,192,62413,128,0,62607:0:0:0:0:
320,192,62413,128,0,62586:0:0:0:0:
64,192,62673,128,0,62817:0:0:0:0:
448,192,62673,128,0,62867:0:0:0:0:
320,192,62673,128,0,62846:0:0:0:0:
320,192,62933,128,0,63106:0:0:0:0:
448,192,62933,128,0,63128:0:0:0:0:
64,192,62933,128,0,63063:0:0:0:0:
192,192,63106,1,0,0:0:0:0:
64,192,63106,1,0,0:0:0:0:
192,192,63194,1,0,0:0:0:0:
320,192,63194,1,0,0:0:0:0:
64,192,63280,1,0,0:0:0:0:
320,192,63280,128,0,63366:0:0:0:0:
64,192,63366,128,0,63454:0:0:0:0:
448,192,63366,1,0,0:0:0:0:
320,192,63454,1,0,0:0:0:0:
448,192,63540,128,0,63627:0:0:0:0:
192,192,63627,1,0,0:0:0:0:
64,192,63627,1,0,0:0:0:0:
320,192,63627,128,0,63714:0:0:0:0:
192,192,63714,128,0,63800:0:0:0:0:
64,192,63800,128,0,63974:0:0:0:0:
448,192,63800,128,0,64061:0:0:0:0:
320,192,63800,128,0,64017:0:0:0:0:
192,192,63974,1,0,0:0:0:0:
192,192,64061,1,0,0:0:0:0:
320,192,64147,128,0,64299:0:0:0:0:
192,192,64147,128,0,64321:0:0:0:0:
64,192,64147,128,0,64343:0:0:0:0:
320,192,64407,128,0,64603:0:0:0:0:
192,192,64407,128,0,64581:0:0:0:0:
64,192,64407,128,0,64553:0:0:0:0:
320,192,64668,128,0,64798:0:0:0:0:
64,192,64668,128,0,64863:0:0:0:0:
192,192,64668,128,0,64841:0:0:0:0:
448,192,64841,1,0,0:0:0:0:
320,192,64841,1,0,0:0:0:0:
192,192,64906,1,0,0:0:0:0:
320,192,64928,1,0,0:0:0:0:
448,192,64972,1,0,0:0:0:0:
192,192,65015,1,0,0:0:0:0:
64,192,65037,1,0,0:0:0:0:
320,192,65102,1,0,0:0:0:0:
448,192,65123,1,0,0:0:0:0:
64,192,65145,1,0,0:0:0:0:
192,192,65188,128,0,65340:0:0:0:0:
320,192,65188,128,0,65362:0:0:0:0:
448,192,65188,128,0,65384:0:0:0:0:
320,192,65448,128,0,65622:0:0:0:0:
448,192,65448,128,0,65594:0:0:0:0:
192,192,65448,128,0,65644:0:0:0:0:
192,192,65709,128,0,65839:0:0:0:0:
320,192,65709,128,0,65882:0:0:0:0:
448,192,65709,128,0,65904:0:0:0:0:
64,192,65882,128,0,66056:0:0:0:0:
192,192,65904,1,0,0:0:0:0:
320,192,65947,1,0,0:0:0:0:
192,192,65991,1,0,0:0:0:0:
448,192,66056,1,0,0:0:0:0:
320,192,66056,1,0,0:0:0:0:
448,192,66143,1,0,0:0:0:0:
192,192,66229,1,0,0:0:0:0:
64,192,66229,1,0,0:0:0:0:
192,192,66317,1,0,0:0:0:0:
320,192,66317,1,0,0:0:0:0:
448,192,66317,1,0,0:0:0:0:
448,192,66489,1,0,0:0:0:0:
320,192,66489,1,0,0:0:0:0:
192,192,66489,1,0,0:0:0:0:
192,192,66577,1,0,0:0:0:0:
64,192,66577,1,0,0:0:0:0:
320,192,66751,1,0,0:0:0:0:
448,192,66751,1,0,0:0:0:0:
64,192,66751,1,0,0:0:0:0:
448,192,66837,1,0,0:0:0:0:
320,192,66837,1,0,0:0:0:0:
192,192,66837,1,0,0:0:0:0:
448,192,66923,128,0,67184:0:0:0:0:
192,192,66923,1,0,0:0:0:0:
64,192,66923,1,0,0:0:0:0:
320,192,66923,128,0,67184:0:0:0:0:
448,192,67271,128,0,67531:0:0:0:0:
64,192,67271,1,0,0:0:0:0:
320,192,67271,128,0,67531:0:0:0:0:
64,192,67444,1,0,0:0:0:0:
192,192,67531,1,0,0:0:0:0:
448,192,67618,128,0,67878:0:0:0:0:
64,192,67618,1,0,0:0:0:0:
320,192,67618,128,0,67878:0:0:0:0:
192,192,67792,1,0,0:0:0:0:
64,192,67878,1,0,0:0:0:0:
448,192,67964,128,0,68225:0:0:0:0:
320,192,67964,1,0,0:0:0:0:
320,192,68138,1,0,0:0:0:0:
448,192,68312,128,0,68572:0:0:0:0:
192,192,68312,1,0,0:0:0:0:
320,192,68312,128,0,68572:0:0:0:0:
192,192,68485,1,0,0:0:0:0:
448,192,68659,128,0,68919:0:0:0:0:
64,192,68659,1,0,0:0:0:0:
320,192,68659,128,0,68919:0:0:0:0:
192,192,68833,1,0,0:0:0:0:
64,192,68919,1,0,0:0:0:0:
192,192,69006,1,0,0:0:0:0:
448,192,69006,128,0,69266:0:0:0:0:
320,192,69006,128,0,69266:0:0:0:0:
192,192,69179,1,0,0:0:0:0:
64,192,69266,1,0,0:0:0:0:
448,192,69353,128,0,69613:0:0:0:0:
320,192,69353,1,0,0:0:0:0:
320,192,69526,1,0,0:0:0:0:
448,192,69700,1,0,0:0:0:0:
64,192,69700,1,0,0:0:0:0:
64,192,69786,1,0,0:0:0:0:
320,192,69874,1,0,0:0:0:0:
448,192,69960,1,0,0:0:0:0:
64,192,69960,1,0,0:0:0:0:
320,192,70047,1,0,0:0:0:0:
192,192,70047,1,0,0:0:0:0:
320,192,70134,1,0,0:0:0:0:
64,192,70220,1,0,0:0:0:0:
320,192,70307,1,0,0:0:0:0:
448,192,70307,1,0,0:0:0:0:
64,192,70394,1,0,0:0:0:0:
192,192,70394,1,0,0:0:0:0:
192,192,70481,1,0,0:0:0:0:
448,192,70567,1,0,0:0:0:0:
192,192,70654,1,0,0:0:0:0:
320,192,70654,1,0,0:0:0:0:
64,192,70741,1,0,0:0:0:0:
448,192,70741,1,0,0:0:0:0:
448,192,70827,1,0,0:0:0:0:
64,192,70915,1,0,0:0:0:0:
320,192,71001,1,0,0:0:0:0:
192,192,71001,1,0,0:0:0:0:
64,192,71088,128,0,71175:0:0:0:0:
448,192,71088,128,0,71175:0:0:0:0:
320,192,71088,128,0,71175:0:0:0:0:
192,192,71261,128,0,71348:0:0:0:0:
320,192,71348,128,0,71435:0:0:0:0:
448,192,71348,128,0,71435:0:0:0:0:
192,192,71522,128,0,71608:0:0:0:0:
320,192,71608,128,0,71695:0:0:0:0:
64,192,71608,128,0,71695:0:0:0:0:
320,192,71782,128,0,71868:0:0:0:0:
192,192,71782,128,0,71868:0:0:0:0:
448,192,71956,128,0,72042:0:0:0:0:
64,192,71956,128,0,72042:0:0:0:0:
320,192,72042,1,0,0:0:0:0:
192,192,72042,1,0,0:0:0:0:
64,192,72129,1,0,0:0:0:0:
192,192,72129,1,0,0:0:0:0:
320,192,72129,1,0,0:0:0:0:
448,192,72129,1,0,0:0:0:0:
64,192,72476,128,0,72606:0:0:0:0:
192,192,72498,128,0,72627:0:0:0:0:
448,192,72498,128,0,72627:0:0:0:0:
320,192,72519,128,0,72649:0:0:0:0:
448,192,72823,128,0,73431:0:0:0:0:
320,192,72823,128,0,73431:0:0:0:0:
192,192,72823,128,0,73257:0:0:0:0:
64,192,72823,128,0,73257:0:0:0:0:
192,192,73343,1,0,0:0:0:0:
64,192,73343,1,0,0:0:0:0:
448,192,73517,128,0,73777:0:0:0:0:
320,192,73517,128,0,73777:0:0:0:0:
64,192,73517,128,0,74124:0:0:0:0:
192,192,73691,128,0,74038:0:0:0:0:
320,192,73864,128,0,74038:0:0:0:0:
448,192,73864,128,0,74472:0:0:0:0:
320,192,74124,1,0,0:0:0:0:
192,192,74124,1,0,0:0:0:0:
320,192,74212,1,0,0:0:0:0:
192,192,74212,1,0,0:0:0:0:
64,192,74212,1,0,0:0:0:0:
64,192,74384,128,0,74732:0:0:0:0:
192,192,74384,128,0,74732:0:0:0:0:
448,192,74558,128,0,75253:0:0:0:0:
320,192,74558,128,0,74818:0:0:0:0:
64,192,74818,1,0,0:0:0:0:
192,192,74818,1,0,0:0:0:0:
192,192,74905,1,0,0:0:0:0:
320,192,74905,1,0,0:0:0:0:
64,192,74905,1,0,0:0:0:0:
320,192,75079,128,0,75253:0:0:0:0:
192,192,75253,1,0,0:0:0:0:
64,192,75253,1,0,0:0:0:0:
448,192,75311,1,0,0:0:0:0:
192,192,75339,1,0,0:0:0:0:
448,192,75382,1,0,0:0:0:0:
64,192,75425,1,0,0:0:0:0:
320,192,75425,1,0,0:0:0:0:
192,192,75483,1,0,0:0:0:0:
448,192,75513,1,0,0:0:0:0:
320,192,75541,1,0,0:0:0:0:
64,192,75599,128,0,76206:0:0:0:0:
192,192,75599,128,0,76206:0:0:0:0:
320,192,75599,128,0,76033:0:0:0:0:
448,192,75599,128,0,76033:0:0:0:0:
320,192,76120,1,0,0:0:0:0:
448,192,76120,1,0,0:0:0:0:
448,192,76294,128,0,76554:0:0:0:0:
320,192,76294,128,0,76554:0:0:0:0:
192,192,76294,128,0,76814:0:0:0:0:
64,192,76466,128,0,77247:0:0:0:0:
320,192,76640,128,0,76814:0:0:0:0:
448,192,76640,128,0,76901:0:0:0:0:
320,192,76901,1,0,0:0:0:0:
192,192,76901,1,0,0:0:0:0:
320,192,76987,1,0,0:0:0:0:
192,192,76987,1,0,0:0:0:0:
448,192,76987,1,0,0:0:0:0:
448,192,77161,128,0,77507:0:0:0:0:
320,192,77161,128,0,77507:0:0:0:0:
64,192,77335,128,0,77942:0:0:0:0:
192,192,77335,128,0,77595:0:0:0:0:
448,192,77595,1,0,0:0:0:0:
320,192,77595,1,0,0:0:0:0:
320,192,77681,1,0,0:0:0:0:
192,192,77681,1,0,0:0:0:0:
448,192,77681,1,0,0:0:0:0:
192,192,77855,128,0,78288:0:0:0:0:
448,192,78028,128,0,78288:0:0:0:0:
320,192,78028,128,0,78288:0:0:0:0:
64,192,78028,128,0,78288:0:0:0:0:
64,192,78376,128,0,78983:0:0:0:0:
192,192,78376,128,0,78983:0:0:0:0:
320,192,78376,128,0,78809:0:0:0:0:
448,192,78376,128,0,78809:0:0:0:0:
320,192,78896,1,0,0:0:0:0:
448,192,78896,1,0,0:0:0:0:
448,192,79069,128,0,79329:0:0:0:0:
320,192,79069,128,0,79329:0:0:0:0:
64,192,79069,128,0,79677:0:0:0:0:
192,192,79243,128,0,79589:0:0:0:0:
320,192,79417,128,0,79589:0:0:0:0:
448,192,79417,128,0,80024:0:0:0:0:
320,192,79677,1,0,0:0:0:0:
192,192,79677,1,0,0:0:0:0:
320,192,79763,1,0,0:0:0:0:
192,192,79763,1,0,0:0:0:0:
64,192,79763,1,0,0:0:0:0:
320,192,79937,128,0,80284:0:0:0:0:
192,192,79937,128,0,80284:0:0:0:0:
448,192,80111,128,0,80371:0:0:0:0:
64,192,80111,128,0,80804:0:0:0:0:
192,192,80371,1,0,0:0:0:0:
320,192,80371,1,0,0:0:0:0:
192,192,80458,1,0,0:0:0:0:
448,192,80458,1,0,0:0:0:0:
320,192,80458,1,0,0:0:0:0:
192,192,80631,128,0,80804:0:0:0:0:
320,192,80804,128,0,80949:0:0:0:0:
448,192,80826,128,0,80913:0:0:0:0:
64,192,80978,1,0,0:0:0:0:
192,192,81000,1,0,0:0:0:0:
448,192,81043,1,0,0:0:0:0:
320,192,81065,1,0,0:0:0:0:
64,192,81152,128,0,81759:0:0:0:0:
192,192,81152,128,0,81759:0:0:0:0:
320,192,81152,128,0,81585:0:0:0:0:
448,192,81152,128,0,81585:0:0:0:0:
320,192,81672,1,0,0:0:0:0:
448,192,81672,1,0,0:0:0:0:
448,192,81845,128,0,82106:0:0:0:0:
320,192,81845,128,0,82106:0:0:0:0:
192,192,81845,128,0,82366:0:0:0:0:
64,192,82019,128,0,82800:0:0:0:0:
320,192,82193,128,0,82366:0:0:0:0:
448,192,82193,128,0,82453:0:0:0:0:
320,192,82453,1,0,0:0:0:0:
192,192,82453,1,0,0:0:0:0:
320,192,82540,1,0,0:0:0:0:
192,192,82540,1,0,0:0:0:0:
448,192,82540,1,0,0:0:0:0:
448,192,82713,128,0,82886:0:0:0:0:
320,192,82713,128,0,82886:0:0:0:0:
64,192,82886,1,0,0:0:0:0:
192,192,82886,1,0,0:0:0:0:
448,192,82974,1,0,0:0:0:0:
192,192,82974,128,0,83147:0:0:0:0:
64,192,82974,128,0,83147:0:0:0:0:
448,192,83147,1,0,0:0:0:0:
320,192,83147,1,0,0:0:0:0:
192,192,83234,1,0,0:0:0:0:
64,192,83234,1,0,0:0:0:0:
448,192,83234,128,0,83516:0:0:0:0:
320,192,83407,128,0,83537:0:0:0:0:
64,192,83581,128,0,83711:0:0:0:0:
192,192,83602,128,0,83733:0:0:0:0:
448,192,83602,128,0,83733:0:0:0:0:
320,192,83624,128,0,83754:0:0:0:0:
448,192,83927,128,0,84535:0:0:0:0:
320,192,83927,128,0,84535:0:0:0:0:
192,192,83927,128,0,84361:0:0:0:0:
64,192,83927,128,0,84361:0:0:0:0:
192,192,84448,1,0,0:0:0:0:
64,192,84448,1,0,0:0:0:0:
448,192,84622,128,0,84882:0:0:0:0:
320,192,84622,128,0,84882:0:0:0:0:
64,192,84622,128,0,85229:0:0:0:0:
192,192,84796,128,0,85142:0:0:0:0:
320,192,84968,128,0,85142:0:0:0:0:
448,192,84968,128,0,85576:0:0:0:0:
320,192,85229,1,0,0:0:0:0:
192,192,85229,1,0,0:0:0:0:
320,192,85316,1,0,0:0:0:0:
192,192,85316,1,0,0:0:0:0:
64,192,85316,1,0,0:0:0:0:
64,192,85489,128,0,85837:0:0:0:0:
192,192,85489,128,0,85837:0:0:0:0:
448,192,85663,128,0,86357:0:0:0:0:
320,192,85663,128,0,85923:0:0:0:0:
64,192,85923,1,0,0:0:0:0:
192,192,85923,1,0,0:0:0:0:
192,192,86009,1,0,0:0:0:0:
320,192,86009,1,0,0:0:0:0:
64,192,86009,1,0,0:0:0:0:
320,192,86183,128,0,86357:0:0:0:0:
192,192,86357,1,0,0:0:0:0:
64,192,86357,1,0,0:0:0:0:
448,192,86415,1,0,0:0:0:0:
192,192,86443,1,0,0:0:0:0:
448,192,86487,1,0,0:0:0:0:
64,192,86531,1,0,0:0:0:0:
320,192,86531,1,0,0:0:0:0:
192,192,86588,1,0,0:0:0:0:
448,192,86617,1,0,0:0:0:0:
320,192,86646,1,0,0:0:0:0:
64,192,86704,128,0,87312:0:0:0:0:
192,192,86704,128,0,87312:0:0:0:0:
320,192,86704,128,0,87138:0:0:0:0:
448,192,86704,128,0,87138:0:0:0:0:
320,192,87224,1,0,0:0:0:0:
448,192,87224,1,0,0:0:0:0:
448,192,87398,128,0,87658:0:0:0:0:
320,192,87398,128,0,87658:0:0:0:0:
192,192,87398,128,0,87919:0:0:0:0:
64,192,87572,128,0,88353:0:0:0:0:
320,192,87745,128,0,87919:0:0:0:0:
448,192,87745,128,0,88005:0:0:0:0:
320,192,88005,1,0,0:0:0:0:
192,192,88005,1,0,0:0:0:0:
320,192,88092,1,0,0:0:0:0:
192,192,88092,1,0,0:0:0:0:
448,192,88092,1,0,0:0:0:0:
448,192,88265,128,0,88613:0:0:0:0:
320,192,88265,128,0,88613:0:0:0:0:
64,192,88439,128,0,89046:0:0:0:0:
192,192,88439,128,0,88699:0:0:0:0:
448,192,88699,1,0,0:0:0:0:
320,192,88699,1,0,0:0:0:0:
320,192,88786,1,0,0:0:0:0:
192,192,88786,1,0,0:0:0:0:
448,192,88786,1,0,0:0:0:0:
192,192,88960,128,0,89394:0:0:0:0:
448,192,89133,128,0,89394:0:0:0:0:
320,192,89133,128,0,89394:0:0:0:0:
64,192,89133,128,0,89394:0:0:0:0:
64,192,89480,128,0,90087:0:0:0:0:
192,192,89480,128,0,90087:0:0:0:0:
320,192,89480,128,0,89914:0:0:0:0:
448,192,89480,128,0,89914:0:0:0:0:
320,192,90001,1,0,0:0:0:0:
448,192,90001,1,0,0:0:0:0:
448,192,90174,128,0,90435:0:0:0:0:
320,192,90174,128,0,90435:0:0:0:0:
64,192,90174,128,0,90781:0:0:0:0:
192,192,90347,128,0,90695:0:0:0:0:
320,192,90521,128,0,90695:0:0:0:0:
448,192,90521,128,0,91128:0:0:0:0:
320,192,90781,1,0,0:0:0:0:
192,192,90781,1,0,0:0:0:0:
320,192,90868,1,0,0:0:0:0:
192,192,90868,1,0,0:0:0:0:
64,192,90868,1,0,0:0:0:0:
320,192,91042,128,0,91388:0:0:0:0:
192,192,91042,128,0,91388:0:0:0:0:
64,192,91215,128,0,91909:0:0:0:0:
448,192,91215,128,0,91476:0:0:0:0:
320,192,91476,1,0,0:0:0:0:
192,192,91476,1,0,0:0:0:0:
192,192,91562,1,0,0:0:0:0:
320,192,91562,1,0,0:0:0:0:
448,192,91562,1,0,0:0:0:0:
192,192,91736,128,0,91909:0:0:0:0:
320,192,91909,128,0,92054:0:0:0:0:
448,192,91931,128,0,92018:0:0:0:0:
64,192,92083,1,0,0:0:0:0:
192,192,92104,1,0,0:0:0:0:
448,192,92147,1,0,0:0:0:0:
320,192,92169,1,0,0:0:0:0:
64,192,92256,128,0,92863:0:0:0:0:
192,192,92256,128,0,92863:0:0:0:0:
320,192,92256,128,0,92691:0:0:0:0:
448,192,92256,128,0,92691:0:0:0:0:
320,192,92777,1,0,0:0:0:0:
448,192,92777,1,0,0:0:0:0:
448,192,92951,128,0,93211:0:0:0:0:
320,192,92951,128,0,93211:0:0:0:0:
192,192,92951,128,0,93471:0:0:0:0:
64,192,93124,128,0,93818:0:0:0:0:
320,192,93297,128,0,93471:0:0:0:0:
448,192,93297,128,0,93558:0:0:0:0:
320,192,93558,1,0,0:0:0:0:
192,192,93558,1,0,0:0:0:0:
320,192,93644,1,0,0:0:0:0:
192,192,93644,1,0,0:0:0:0:
448,192,93644,1,0,0:0:0:0:
320,192,93818,1,0,0:0:0:0:
448,192,93818,1,0,0:0:0:0:
448,192,93904,1,0,0:0:0:0:
320,192,93904,1,0,0:0:0:0:
64,192,93904,1,0,0:0:0:0:
64,192,93992,1,0,0:0:0:0:
192,192,93992,1,0,0:0:0:0:
448,192,94078,1,0,0:0:0:0:
192,192,94078,1,0,0:0:0:0:
64,192,94078,1,0,0:0:0:0:
320,192,94165,1,0,0:0:0:0:
448,192,94165,1,0,0:0:0:0:
192,192,94252,1,0,0:0:0:0:
64,192,94252,1,0,0:0:0:0:
192,192,94338,1,0,0:0:0:0:
64,192,94338,1,0,0:0:0:0:
448,192,94338,1,0,0:0:0:0:
320,192,94338,1,0,0:0:0:0:
320,192,94425,1,0,0:0:0:0:
448,192,94425,1,0,0:0:0:0:
192,192,94512,1,0,0:0:0:0:
64,192,94512,1,0,0:0:0:0:
192,192,94599,1,0,0:0:0:0:
448,192,94599,1,0,0:0:0:0:
448,192,94685,128,0,96855:0:0:0:0:
320,192,94685,1,0,0:0:0:0:
64,192,94685,1,0,0:0:0:0:
320,192,94859,128,0,94945:0:0:0:0:
192,192,94859,128,0,94945:0:0:0:0:
320,192,95206,128,0,95293:0:0:0:0:
192,192,95206,128,0,95293:0:0:0:0:
64,192,95206,1,0,0:0:0:0:
64,192,95379,1,0,0:0:0:0:
320,192,95379,1,0,0:0:0:0:
320,192,95553,128,0,95640:0:0:0:0:
192,192,95553,128,0,95640:0:0:0:0:
320,192,95900,128,0,95986:0:0:0:0:
192,192,95900,128,0,95986:0:0:0:0:
64,192,95900,1,0,0:0:0:0:
320,192,96074,1,0,0:0:0:0:
192,192,96074,128,0,96160:0:0:0:0:
64,192,96074,128,0,96160:0:0:0:0:
192,192,96334,128,0,96420:0:0:0:0:
64,192,96334,128,0,96420:0:0:0:0:
320,192,96334,1,0,0:0:0:0:
192,192,96594,1,0,0:0:0:0:
64,192,96594,1,0,0:0:0:0:
192,192,96681,1,0,0:0:0:0:
64,192,96681,1,0,0:0:0:0:
64,192,96767,128,0,96855:0:0:0:0:
192,192,96767,128,0,96855:0:0:0:0:
320,192,96767,1,0,0:0:0:0:
320,192,97027,128,0,97115:0:0:0:0:
64,192,97027,128,0,97115:0:0:0:0:
448,192,97288,128,0,97375:0:0:0:0:
192,192,97288,128,0,97375:0:0:0:0:
320,192,97288,1,0,0:0:0:0:
320,192,97461,128,0,97548:0:0:0:0:
448,192,97461,128,0,97548:0:0:0:0:
64,192,97461,1,0,0:0:0:0:
64,192,97635,128,0,97722:0:0:0:0:
192,192,97808,128,0,97896:0:0:0:0:
448,192,97982,1,0,0:0:0:0:
320,192,97982,1,0,0:0:0:0:
320,192,98068,1,0,0:0:0:0:
448,192,98068,1,0,0:0:0:0:
448,192,98156,128,0,98242:0:0:0:0:
320,192,98156,128,0,98242:0:0:0:0:
64,192,98156,1,0,0:0:0:0:
448,192,98329,128,0,98416:0:0:0:0:
64,192,98416,128,0,98502:0:0:0:0:
320,192,98416,128,0,98502:0:0:0:0:
192,192,98676,128,0,98763:0:0:0:0:
320,192,98676,128,0,98763:0:0:0:0:
64,192,98676,1,0,0:0:0:0:
448,192,98849,128,0,98937:0:0:0:0:
192,192,98849,128,0,98937:0:0:0:0:
64,192,98849,1,0,0:0:0:0:
192,192,99023,128,0,99109:0:0:0:0:
320,192,99109,128,0,99197:0:0:0:0:
64,192,99109,128,0,99197:0:0:0:0:
192,192,99283,128,0,99371:0:0:0:0:
448,192,99371,1,0,0:0:0:0:
320,192,99371,1,0,0:0:0:0:
320,192,99457,1,0,0:0:0:0:
448,192,99457,1,0,0:0:0:0:
448,192,99543,128,0,99631:0:0:0:0:
320,192,99543,128,0,99631:0:0:0:0:
64,192,99543,1,0,0:0:0:0:
64,192,99717,128,0,99804:0:0:0:0:
320,192,99804,128,0,99891:0:0:0:0:
192,192,99804,128,0,99891:0:0:0:0:
448,192,100064,128,0,100151:0:0:0:0:
320,192,100064,1,0,0:0:0:0:
64,192,100064,128,0,100151:0:0:0:0:
192,192,100238,128,0,100324:0:0:0:0:
64,192,100238,128,0,100324:0:0:0:0:
448,192,100238,1,0,0:0:0:0:
448,192,100412,1,0,0:0:0:0:
192,192,100412,1,0,0:0:0:0:
320,192,100498,1,0,0:0:0:0:
192,192,100498,1,0,0:0:0:0:
64,192,100585,1,0,0:0:0:0:
448,192,100585,1,0,0:0:0:0:
192,192,100672,1,0,0:0:0:0:
448,192,100672,1,0,0:0:0:0:
320,192,100758,1,0,0:0:0:0:
64,192,100758,1,0,0:0:0:0:
192,192,100758,1,0,0:0:0:0:
192,192,100932,1,0,0:0:0:0:
64,192,100932,1,0,0:0:0:0:
448,192,100932,1,0,0:0:0:0:
320,192,101019,1,0,0:0:0:0:
64,192,101019,1,0,0:0:0:0:
448,192,101105,1,0,0:0:0:0:
192,192,101105,1,0,0:0:0:0:
64,192,101279,1,0,0:0:0:0:
320,192,101279,128,0,101453:0:0:0:0:
448,192,101307,128,0,101453:0:0:0:0:
192,192,101453,1,0,0:0:0:0:
64,192,101453,1,0,0:0:0:0:
320,192,101626,128,0,101713:0:0:0:0:
192,192,101626,128,0,101713:0:0:0:0:
64,192,101626,1,0,0:0:0:0:
192,192,101886,128,0,101973:0:0:0:0:
64,192,101886,128,0,101973:0:0:0:0:
320,192,101886,1,0,0:0:0:0:
448,192,102146,1,0,0:0:0:0:
320,192,102146,1,0,0:0:0:0:
320,192,102233,1,0,0:0:0:0:
448,192,102233,1,0,0:0:0:0:
320,192,102320,128,0,102406:0:0:0:0:
448,192,102320,128,0,102406:0:0:0:0:
64,192,102320,1,0,0:0:0:0:
192,192,102580,128,0,102667:0:0:0:0:
448,192,102580,128,0,102667:0:0:0:0:
64,192,102840,128,0,102927:0:0:0:0:
320,192,102840,128,0,102927:0:0:0:0:
192,192,102840,1,0,0:0:0:0:
192,192,103014,128,0,103101:0:0:0:0:
64,192,103014,128,0,103101:0:0:0:0:
448,192,103014,1,0,0:0:0:0:
448,192,103187,128,0,103274:0:0:0:0:
320,192,103361,128,0,103447:0:0:0:0:
64,192,103535,1,0,0:0:0:0:
192,192,103535,1,0,0:0:0:0:
192,192,103621,1,0,0:0:0:0:
64,192,103621,1,0,0:0:0:0:
64,192,103708,128,0,103795:0:0:0:0:
192,192,103708,128,0,103795:0:0:0:0:
448,192,103708,1,0,0:0:0:0:
64,192,103881,128,0,103968:0:0:0:0:
448,192,103968,128,0,104055:0:0:0:0:
192,192,103968,128,0,104055:0:0:0:0:
320,192,104228,128,0,104315:0:0:0:0:
192,192,104228,128,0,104315:0:0:0:0:
448,192,104228,1,0,0:0:0:0:
64,192,104402,128,0,104488:0:0:0:0:
192,192,104402,128,0,104488:0:0:0:0:
448,192,104402,1,0,0:0:0:0:
192,192,104576,128,0,104662:0:0:0:0:
320,192,104662,128,0,104749:0:0:0:0:
448,192,104662,128,0,104749:0:0:0:0:
320,192,104836,128,0,104922:0:0:0:0:
64,192,104922,1,0,0:0:0:0:
192,192,104922,1,0,0:0:0:0:
192,192,105009,1,0,0:0:0:0:
64,192,105009,1,0,0:0:0:0:
64,192,105096,128,0,105183:0:0:0:0:
192,192,105096,128,0,105183:0:0:0:0:
448,192,105096,1,0,0:0:0:0:
64,192,105269,128,0,105356:0:0:0:0:
448,192,105269,1,0,0:0:0:0:
192,192,105356,128,0,105443:0:0:0:0:
448,192,105356,128,0,105443:0:0:0:0:
448,192,105529,128,0,105617:0:0:0:0:
64,192,105529,1,0,0:0:0:0:
320,192,105617,128,0,105703:0:0:0:0:
64,192,105617,128,0,105703:0:0:0:0:
192,192,105791,128,0,105877:0:0:0:0:
64,192,105791,128,0,105877:0:0:0:0:
448,192,105791,1,0,0:0:0:0:
448,192,105963,1,0,0:0:0:0:
64,192,105963,1,0,0:0:0:0:
320,192,106051,1,0,0:0:0:0:
192,192,106051,1,0,0:0:0:0:
64,192,106137,1,0,0:0:0:0:
320,192,106137,1,0,0:0:0:0:
192,192,106224,1,0,0:0:0:0:
448,192,106224,1,0,0:0:0:0:
320,192,106311,1,0,0:0:0:0:
64,192,106311,1,0,0:0:0:0:
192,192,106311,1,0,0:0:0:0:
448,192,106484,1,0,0:0:0:0:
192,192,106484,1,0,0:0:0:0:
64,192,106484,1,0,0:0:0:0:
320,192,106571,1,0,0:0:0:0:
192,192,106571,1,0,0:0:0:0:
448,192,106658,1,0,0:0:0:0:
320,192,106658,1,0,0:0:0:0:
320,192,106832,128,0,107004:0:0:0:0:
64,192,106832,1,0,0:0:0:0:
448,192,106860,128,0,107004:0:0:0:0:
64,192,107004,1,0,0:0:0:0:
192,192,107004,1,0,0:0:0:0:
320,192,107178,128,0,107265:0:0:0:0:
192,192,107178,128,0,107265:0:0:0:0:
64,192,107178,1,0,0:0:0:0:
448,192,107438,128,0,107525:0:0:0:0:
64,192,107438,128,0,107525:0:0:0:0:
320,192,107438,1,0,0:0:0:0:
320,192,107699,1,0,0:0:0:0:
192,192,107699,1,0,0:0:0:0:
192,192,107785,1,0,0:0:0:0:
320,192,107785,1,0,0:0:0:0:
192,192,107873,128,0,107959:0:0:0:0:
64,192,107873,128,0,107959:0:0:0:0:
320,192,107873,1,0,0:0:0:0:
192,192,108133,128,0,108219:0:0:0:0:
448,192,108133,128,0,108219:0:0:0:0:
64,192,108393,128,0,108480:0:0:0:0:
320,192,108393,128,0,108480:0:0:0:0:
192,192,108393,1,0,0:0:0:0:
320,192,108566,128,0,108653:0:0:0:0:
448,192,108566,128,0,108653:0:0:0:0:
64,192,108566,1,0,0:0:0:0:
64,192,108740,128,0,108826:0:0:0:0:
192,192,108914,128,0,109000:0:0:0:0:
448,192,109086,1,0,0:0:0:0:
320,192,109086,1,0,0:0:0:0:
320,192,109174,1,0,0:0:0:0:
448,192,109174,1,0,0:0:0:0:
448,192,109260,128,0,109347:0:0:0:0:
320,192,109260,128,0,109347:0:0:0:0:
64,192,109260,1,0,0:0:0:0:
448,192,109434,128,0,109521:0:0:0:0:
64,192,109521,128,0,109607:0:0:0:0:
320,192,109521,128,0,109607:0:0:0:0:
192,192,109781,128,0,109867:0:0:0:0:
320,192,109781,128,0,109867:0:0:0:0:
64,192,109781,1,0,0:0:0:0:
448,192,109955,128,0,110041:0:0:0:0:
192,192,109955,128,0,110041:0:0:0:0:
64,192,109955,1,0,0:0:0:0:
192,192,110127,128,0,110215:0:0:0:0:
320,192,110215,128,0,110301:0:0:0:0:
64,192,110215,128,0,110301:0:0:0:0:
192,192,110388,128,0,110475:0:0:0:0:
448,192,110475,1,0,0:0:0:0:
320,192,110475,1,0,0:0:0:0:
320,192,110562,1,0,0:0:0:0:
448,192,110562,1,0,0:0:0:0:
448,192,110648,128,0,110735:0:0:0:0:
320,192,110648,128,0,110735:0:0:0:0:
64,192,110648,1,0,0:0:0:0:
64,192,110822,128,0,110908:0:0:0:0:
320,192,110908,128,0,110996:0:0:0:0:
192,192,110908,128,0,110996:0:0:0:0:
448,192,111168,128,0,111256:0:0:0:0:
320,192,111168,1,0,0:0:0:0:
64,192,111168,128,0,111256:0:0:0:0:
192,192,111342,128,0,111429:0:0:0:0:
64,192,111342,128,0,111429:0:0:0:0:
448,192,111342,1,0,0:0:0:0:
448,192,111516,1,0,0:0:0:0:
192,192,111516,1,0,0:0:0:0:
320,192,111603,1,0,0:0:0:0:
192,192,111603,1,0,0:0:0:0:
64,192,111689,1,0,0:0:0:0:
448,192,111689,1,0,0:0:0:0:
192,192,111776,1,0,0:0:0:0:
448,192,111776,1,0,0:0:0:0:
320,192,111863,1,0,0:0:0:0:
64,192,111863,1,0,0:0:0:0:
192,192,111863,1,0,0:0:0:0:
192,192,112037,1,0,0:0:0:0:
64,192,112037,1,0,0:0:0:0:
448,192,112037,1,0,0:0:0:0:
320,192,112123,1,0,0:0:0:0:
64,192,112123,1,0,0:0:0:0:
448,192,112209,1,0,0:0:0:0:
192,192,112209,1,0,0:0:0:0:
64,192,112383,1,0,0:0:0:0:
320,192,112383,128,0,112557:0:0:0:0:
448,192,112413,128,0,112557:0:0:0:0:
192,192,112557,1,0,0:0:0:0:
64,192,112557,1,0,0:0:0:0:
448,192,112644,1,0,0:0:0:0:
320,192,112731,128,0,112817:0:0:0:0:
192,192,112731,128,0,112817:0:0:0:0:
64,192,112731,1,0,0:0:0:0:
448,192,112817,1,0,0:0:0:0:
448,192,112904,1,0,0:0:0:0:
192,192,112991,128,0,113078:0:0:0:0:
64,192,112991,128,0,113078:0:0:0:0:
320,192,112991,1,0,0:0:0:0:
448,192,113078,1,0,0:0:0:0:
192,192,113164,1,0,0:0:0:0:
448,192,113251,1,0,0:0:0:0:
320,192,113251,1,0,0:0:0:0:
320,192,113338,1,0,0:0:0:0:
448,192,113338,1,0,0:0:0:0:
320,192,113424,128,0,113512:0:0:0:0:
448,192,113424,128,0,113512:0:0:0:0:
64,192,113424,1,0,0:0:0:0:
64,192,113512,1,0,0:0:0:0:
192,192,113598,1,0,0:0:0:0:
320,192,113598,1,0,0:0:0:0:
448,192,113684,128,0,113771:0:0:0:0:
192,192,113684,128,0,113771:0:0:0:0:
64,192,113771,1,0,0:0:0:0:
448,192,113858,1,0,0:0:0:0:
320,192,113945,1,0,0:0:0:0:
64,192,113945,1,0,0:0:0:0:
320,192,114031,1,0,0:0:0:0:
64,192,114031,1,0,0:0:0:0:
64,192,114118,128,0,114205:0:0:0:0:
192,192,114118,128,0,114205:0:0:0:0:
448,192,114118,1,0,0:0:0:0:
320,192,114205,1,0,0:0:0:0:
448,192,114292,128,0,114378:0:0:0:0:
64,192,114292,1,0,0:0:0:0:
192,192,114378,1,0,0:0:0:0:
192,192,114465,1,0,0:0:0:0:
320,192,114465,128,0,114552:0:0:0:0:
448,192,114552,1,0,0:0:0:0:
192,192,114639,1,0,0:0:0:0:
64,192,114639,1,0,0:0:0:0:
64,192,114725,1,0,0:0:0:0:
192,192,114725,1,0,0:0:0:0:
192,192,114812,128,0,114899:0:0:0:0:
64,192,114812,128,0,114899:0:0:0:0:
448,192,114812,1,0,0:0:0:0:
64,192,114986,128,0,115072:0:0:0:0:
320,192,114986,1,0,0:0:0:0:
192,192,115072,128,0,115159:0:0:0:0:
320,192,115072,1,0,0:0:0:0:
448,192,115072,128,0,115159:0:0:0:0:
64,192,115159,1,0,0:0:0:0:
64,192,115246,1,0,0:0:0:0:
192,192,115333,1,0,0:0:0:0:
320,192,115333,1,0,0:0:0:0:
448,192,115333,1,0,0:0:0:0:
320,192,115420,1,0,0:0:0:0:
448,192,115506,1,0,0:0:0:0:
192,192,115506,128,0,115593:0:0:0:0:
64,192,115506,1,0,0:0:0:0:
320,192,115593,128,0,115680:0:0:0:0:
192,192,115680,1,0,0:0:0:0:
64,192,115680,128,0,115767:0:0:0:0:
320,192,115767,1,0,0:0:0:0:
448,192,115767,1,0,0:0:0:0:
64,192,115853,1,0,0:0:0:0:
320,192,115853,128,0,115940:0:0:0:0:
192,192,115940,128,0,116027:0:0:0:0:
64,192,116027,1,0,0:0:0:0:
448,192,116027,128,0,116114:0:0:0:0:
192,192,116114,1,0,0:0:0:0:
320,192,116114,1,0,0:0:0:0:
448,192,116200,1,0,0:0:0:0:
320,192,116200,1,0,0:0:0:0:
64,192,116200,1,0,0:0:0:0:
192,192,116287,1,0,0:0:0:0:
192,192,116374,1,0,0:0:0:0:
64,192,116374,1,0,0:0:0:0:
448,192,116374,1,0,0:0:0:0:
448,192,116461,1,0,0:0:0:0:
320,192,116461,1,0,0:0:0:0:
192,192,116547,1,0,0:0:0:0:
64,192,116547,1,0,0:0:0:0:
192,192,116634,1,0,0:0:0:0:
320,192,116634,1,0,0:0:0:0:
320,192,116721,1,0,0:0:0:0:
448,192,116721,1,0,0:0:0:0:
64,192,116721,1,0,0:0:0:0:
448,192,116808,128,0,116894:0:0:0:0:
320,192,116808,128,0,116894:0:0:0:0:
64,192,116808,128,0,116894:0:0:0:0:
