osu file format v14

[General]
AudioFilename: audio.mp3
AudioLeadIn: 0
PreviewTime: 29381
Countdown: 0
SampleSet: Normal
StackLeniency: 0.7
Mode: 1
LetterboxInBreaks: 0
WidescreenStoryboard: 1

[Editor]
DistanceSpacing: 0.8
BeatDivisor: 8
GridSize: 32
TimelineZoom: 2.750001

[Metadata]
Title:lovely, lovely minute
TitleUnicode:lovely, lovely minute
Artist:linear ring
ArtistUnicode:linear ring
Creator:_Rise
Version:uone's Futsuu
Source:Lanota
Tags:uone electronic instrumental o!tfac #3 osu!taiko featured artist cup classical dubstep trap
BeatmapID:3945207
BeatmapSetID:1908858

[Difficulty]
HPDrainRate:6.5
CircleSize:3
OverallDifficulty:4
ApproachRate:9
SliderMultiplier:1.4
SliderTickRate:1

[Events]
//Background and Video events
0,0,"bg.jpg",0,50
//Break Periods
2,29605,34959
2,78836,81113
2,84990,87267
2,91144,93421
2,97298,99318
2,132682,141713
//Storyboard Layer 0 (Background)
//Storyboard Layer 1 (Fail)
//Storyboard Layer 2 (Pass)
//Storyboard Layer 3 (Foreground)
//Storyboard Layer 4 (Overlay)
//Storyboard Sound Samples

[TimingPoints]
1129,645.161290322581,3,1,0,60,1,0
1129,-44.1595466757576,3,1,0,60,0,0
1774,387.096774193548,3,1,0,60,1,8
2161,262.008733624454,3,1,0,60,1,8
2423,276.497695852535,3,1,0,60,1,0
2423,-103.039033246574,3,1,0,60,0,0
3252,256.410256410256,3,1,0,60,1,0
3252,-111.111111111111,3,1,0,60,0,0
4757,-111.111111111111,3,1,0,80,0,0
10976,-111.111111111111,4,1,0,70,0,0
12450,-111.111111111111,4,1,0,80,0,0
13732,-111.111111111111,4,1,0,90,0,0
14053,-111.111111111111,4,1,0,80,0,0
15784,-111.111111111111,4,1,0,90,0,0
17130,-111.111111111111,4,1,0,80,0,0
18604,-111.111111111111,4,1,0,90,0,0
20207,-111.111111111111,4,1,0,80,0,0
21937,-111.111111111111,4,1,0,90,0,0
23284,-111.111111111111,4,1,0,80,0,0
25784,-111.111111111111,4,1,0,90,0,0
29437,-111.111111111111,4,1,0,60,0,0
40912,-111.111111111111,4,1,0,75,0,0
41681,-111.111111111111,4,1,0,90,0,0
53284,-111.111111111111,4,1,0,70,0,0
53984,-111.111111111111,4,1,0,100,0,0
54021,-111.111111111111,4,1,0,100,0,1
54053,-111.111111111111,4,1,0,80,0,1
54758,-111.111111111111,4,1,0,100,0,1
57130,-111.111111111111,4,1,0,80,0,1
57835,-111.111111111111,4,1,0,100,0,1
60207,-111.111111111111,4,1,0,80,0,1
60912,-111.111111111111,4,1,0,100,0,1
63284,-111.111111111111,4,1,0,80,0,1
63989,-111.111111111111,4,1,0,100,0,1
66360,-111.111111111111,4,1,0,80,0,1
67066,-111.111111111111,4,1,0,100,0,1
69437,-111.111111111111,4,1,0,80,0,1
70143,-111.111111111111,4,1,0,100,0,1
72514,-111.111111111111,4,1,0,80,0,1
73219,-111.111111111111,4,1,0,100,0,1
75271,-111.111111111111,4,1,0,90,0,1
78636,-111.111111111111,4,1,0,70,0,0
78860,-111.111111111111,4,1,0,73,0,0
79117,-111.111111111111,4,1,0,75,0,0
79373,-111.111111111111,4,1,0,77,0,0
79630,-111.111111111111,4,1,0,80,0,0
79886,-111.111111111111,4,1,0,82,0,0
80143,-111.111111111111,4,1,0,85,0,0
80399,-111.111111111111,4,1,0,88,0,0
80655,-111.111111111111,4,1,0,90,0,0
80912,-111.111111111111,4,1,0,93,0,0
81168,-111.111111111111,4,1,0,95,0,0
81425,-111.111111111111,4,1,0,98,0,0
81681,-111.111111111111,4,1,0,100,0,0
81745,-111.111111111111,4,1,0,80,0,0
82450,-111.111111111111,4,1,0,100,0,0
82482,-111.111111111111,4,1,0,100,0,1
84790,-111.111111111111,4,1,0,100,0,0
84822,-111.111111111111,4,1,0,70,0,0
85014,-111.111111111111,4,1,0,72,0,0
85271,-111.111111111111,4,1,0,75,0,0
85527,-111.111111111111,4,1,0,77,0,0
85784,-111.111111111111,4,1,0,80,0,0
86040,-111.111111111111,4,1,0,82,0,0
86296,-111.111111111111,4,1,0,85,0,0
86553,-111.111111111111,4,1,0,88,0,0
86809,-111.111111111111,4,1,0,90,0,0
87066,-111.111111111111,4,1,0,93,0,0
87322,-111.111111111111,4,1,0,95,0,0
87578,-111.111111111111,4,1,0,97,0,0
87835,-111.111111111111,4,1,0,100,0,0
87899,-111.111111111111,4,1,0,80,0,0
88604,-111.111111111111,4,1,0,100,0,0
88636,-111.111111111111,4,1,0,100,0,1
90944,-111.111111111111,4,1,0,100,0,0
90976,-111.111111111111,4,1,0,80,0,0
91425,-111.111111111111,4,1,0,83,0,0
91681,-111.111111111111,4,1,0,85,0,0
92194,-111.111111111111,4,1,0,88,0,0
92450,-111.111111111111,4,1,0,90,0,0
92707,-111.111111111111,4,1,0,92,0,0
93091,-111.111111111111,4,1,0,94,0,0
93219,-111.111111111111,4,1,0,95,0,0
93476,-111.111111111111,4,1,0,97,0,0
93732,-111.111111111111,4,1,0,98,0,0
93861,-111.111111111111,4,1,0,99,0,0
93989,-111.111111111111,4,1,0,100,0,0
94053,-111.111111111111,4,1,0,80,0,0
94566,-111.111111111111,4,1,0,100,0,0
94790,-111.111111111111,4,1,0,100,0,1
97098,-111.111111111111,4,1,0,100,0,0
97130,-111.111111111111,4,1,0,80,0,0
97578,-111.111111111111,4,1,0,83,0,0
97835,-111.111111111111,4,1,0,85,0,0
98348,-111.111111111111,4,1,0,88,0,0
98604,-111.111111111111,4,1,0,90,0,0
98860,-111.111111111111,4,1,0,92,0,0
99245,-111.111111111111,4,1,0,94,0,0
99373,-111.111111111111,4,1,0,95,0,0
99630,-111.111111111111,4,1,0,97,0,0
99758,-111.111111111111,4,1,0,97,0,0
99886,-111.111111111111,4,1,0,98,0,0
100014,-111.111111111111,4,1,0,99,0,0
100143,-111.111111111111,4,1,0,100,0,0
100175,-111.111111111111,4,1,0,100,0,1
102450,-111.111111111111,4,1,0,70,0,1
102482,-111.111111111111,4,1,0,70,0,0
103219,-111.111111111111,4,1,0,90,0,0
132482,256.410256410256,36,1,0,90,1,0
132482,-111.111111111111,36,1,0,90,0,0
132514,-111.111111111111,3,1,0,80,0,0
133219,-111.111111111111,3,1,0,70,0,0
133988,-111.111111111111,3,1,0,60,0,0
134757,-111.111111111111,3,1,0,50,0,0
135526,-111.111111111111,3,1,0,40,0,0
136296,-111.111111111111,3,1,0,30,0,0
137065,-111.111111111111,3,1,0,20,0,0
137834,-111.111111111111,3,1,0,30,0,0
138603,-111.111111111111,3,1,0,35,0,0
139373,-111.111111111111,3,1,0,40,0,0
140142,-111.111111111111,3,1,0,45,0,0
140911,-111.111111111111,3,1,0,50,0,0
141680,-111.111111111111,3,1,0,60,0,0
141712,256.410256410256,3,1,0,60,1,8
141713,256.410256410256,3,1,0,60,1,0
141713,-111.111111111111,3,1,0,60,0,0
142450,-111.111111111111,3,1,0,70,0,0
143219,-111.111111111111,3,1,0,80,0,0
143988,-111.111111111111,3,1,0,90,0,0
144757,-111.111111111111,3,1,0,80,0,0
155527,-111.111111111111,3,1,0,90,0,0
168604,-111.111111111111,3,1,0,80,0,0
169373,-111.111111111111,3,1,0,100,0,0
169405,-111.111111111111,4,1,0,100,0,1
178604,-111.111111111111,4,1,0,60,0,1
178636,-111.111111111111,4,1,0,60,0,0
180142,-111.111111111111,4,1,0,80,0,0

[HitObjects]
256,192,4790,5,0,0:0:0:0:
256,192,5559,1,8,0:0:0:0:
256,192,6072,1,8,0:0:0:0:
256,192,6585,1,0,0:0:0:0:
256,192,7098,1,8,0:0:0:0:
256,192,7354,1,8,0:0:0:0:
256,192,7482,1,8,0:0:0:0:
256,192,7610,1,8,0:0:0:0:
256,192,7867,1,0,0:0:0:0:
256,192,8380,1,0,0:0:0:0:
256,192,8636,1,8,0:0:0:0:
256,192,9149,1,8,0:0:0:0:
256,192,9662,1,0,0:0:0:0:
256,192,10046,1,0,0:0:0:0:
256,192,10175,1,8,0:0:0:0:
256,192,10431,1,8,0:0:0:0:
256,192,10559,1,0,0:0:0:0:
256,192,10816,1,0,0:0:0:0:
256,192,10944,1,0,0:0:0:0:
256,192,11713,1,0,0:0:0:0:
256,192,12482,1,0,0:0:0:0:
256,192,12739,1,0,0:0:0:0:
256,192,12995,1,0,0:0:0:0:
256,192,13251,1,0,0:0:0:0:
256,192,13380,1,0,0:0:0:0:
256,192,13508,1,0,0:0:0:0:
256,192,13636,1,0,0:0:0:0:
256,192,13764,1,8,0:0:0:0:
256,192,14021,1,4,0:0:0:0:
256,192,14534,1,0,0:0:0:0:
256,192,14790,1,8,0:0:0:0:
256,192,15303,1,8,0:0:0:0:
256,192,15816,1,0,0:0:0:0:
256,192,15944,1,8,0:0:0:0:
256,192,16072,1,8,0:0:0:0:
256,192,16328,1,8,0:0:0:0:
256,192,16585,1,8,0:0:0:0:
256,192,16713,1,0,0:0:0:0:
256,192,16969,1,8,0:0:0:0:
256,192,17098,1,8,0:0:0:0:
256,192,17867,1,8,0:0:0:0:
256,192,18380,1,8,0:0:0:0:
256,192,18636,1,8,0:0:0:0:
256,192,18893,1,0,0:0:0:0:
256,192,19149,1,8,0:0:0:0:
256,192,19405,1,0,0:0:0:0:
256,192,19534,1,8,0:0:0:0:
256,192,19790,1,0,0:0:0:0:
256,192,20046,1,8,0:0:0:0:
256,192,20175,1,8,0:0:0:0:
256,192,20687,1,0,0:0:0:0:
256,192,20944,1,8,0:0:0:0:
256,192,21457,1,8,0:0:0:0:
256,192,21969,1,0,0:0:0:0:
256,192,22098,1,8,0:0:0:0:
256,192,22226,1,8,0:0:0:0:
256,192,22482,1,8,0:0:0:0:
256,192,22739,1,8,0:0:0:0:
256,192,22867,1,0,0:0:0:0:
256,192,22995,1,8,0:0:0:0:
256,192,23251,1,8,0:0:0:0:
256,192,24021,1,8,0:0:0:0:
256,192,24534,1,8,0:0:0:0:
256,192,24790,1,0,0:0:0:0:
256,192,25046,1,0,0:0:0:0:
256,192,25175,1,8,0:0:0:0:
256,192,25303,1,8,0:0:0:0:
256,192,25559,1,0,0:0:0:0:
256,192,25816,1,12,0:0:0:0:
256,192,26072,1,8,0:0:0:0:
256,192,26200,1,8,0:0:0:0:
256,192,26328,1,0,0:0:0:0:
256,192,26841,1,8,0:0:0:0:
256,192,27098,1,8,0:0:0:0:
256,192,27354,1,8,0:0:0:0:
256,192,27482,1,8,0:0:0:0:
256,192,27610,1,8,0:0:0:0:
256,192,27867,1,0,0:0:0:0:
256,192,28123,1,0,0:0:0:0:
256,192,28380,1,8,0:0:0:0:
256,192,28508,1,0,0:0:0:0:
256,192,28636,1,8,0:0:0:0:
256,192,28764,1,8,0:0:0:0:
256,192,29021,1,0,0:0:0:0:
256,192,29277,1,8,0:0:0:0:
256,192,29405,1,0,0:0:0:0:
256,192,35559,5,0,0:0:0:0:
256,192,36072,1,8,0:0:0:0:
256,192,36328,1,0,0:0:0:0:
256,192,36841,1,8,0:0:0:0:
256,192,37098,1,0,0:0:0:0:
256,192,37610,1,8,0:0:0:0:
256,192,37867,1,0,0:0:0:0:
256,192,38123,1,8,0:0:0:0:
256,192,38636,1,0,0:0:0:0:
256,192,38893,1,8,0:0:0:0:
256,192,39405,1,0,0:0:0:0:
256,192,39662,1,8,0:0:0:0:
256,192,40175,1,0,0:0:0:0:
256,192,40431,1,8,0:0:0:0:
256,192,40687,1,8,0:0:0:0:
256,192,40944,1,0,0:0:0:0:
256,192,41713,1,0,0:0:0:0:
256,192,42482,1,0,0:0:0:0:
256,192,43251,1,0,0:0:0:0:
256,192,43764,1,8,0:0:0:0:
256,192,44021,1,0,0:0:0:0:
256,192,44534,1,8,0:0:0:0:
256,192,44790,1,0,0:0:0:0:
256,192,45046,1,8,0:0:0:0:
256,192,45559,1,0,0:0:0:0:
256,192,45816,1,8,0:0:0:0:
256,192,46328,1,0,0:0:0:0:
256,192,46585,1,8,0:0:0:0:
256,192,46841,1,8,0:0:0:0:
256,192,47098,1,0,0:0:0:0:
256,192,47354,1,8,0:0:0:0:
256,192,47482,1,8,0:0:0:0:
256,192,47610,1,8,0:0:0:0:
256,192,47867,1,0,0:0:0:0:
256,192,48380,1,0,0:0:0:0:
256,192,48636,1,0,0:0:0:0:
256,192,49149,1,0,0:0:0:0:
256,192,49405,1,0,0:0:0:0:
256,192,49662,1,8,0:0:0:0:
256,192,49918,1,0,0:0:0:0:
256,192,50175,1,0,0:0:0:0:
256,192,50431,1,8,0:0:0:0:
256,192,50687,1,0,0:0:0:0:
256,192,50816,1,8,0:0:0:0:
256,192,50944,1,0,0:0:0:0:
256,192,51200,1,0,0:0:0:0:
256,192,51457,1,8,0:0:0:0:
256,192,51713,1,0,0:0:0:0:
256,192,51969,1,0,0:0:0:0:
256,192,52098,1,0,0:0:0:0:
256,192,52226,1,8,0:0:0:0:
256,192,52482,1,0,0:0:0:0:
256,192,52739,1,8,0:0:0:0:
256,192,52867,1,0,0:0:0:0:
256,192,52995,1,8,0:0:0:0:
256,192,53123,1,8,0:0:0:0:
256,192,53251,1,8,0:0:0:0:
256,192,54021,1,4,0:0:0:0:
256,192,54790,1,8,0:0:0:0:
256,192,55046,1,8,0:0:0:0:
256,192,55175,1,8,0:0:0:0:
256,192,55303,1,8,0:0:0:0:
256,192,55559,1,8,0:0:0:0:
256,192,55816,1,0,0:0:0:0:
256,192,56072,1,8,0:0:0:0:
256,192,56200,1,0,0:0:0:0:
256,192,56328,1,8,0:0:0:0:
256,192,56585,1,8,0:0:0:0:
256,192,56841,1,8,0:0:0:0:
256,192,56969,1,8,0:0:0:0:
256,192,57098,1,0,0:0:0:0:
256,192,57867,1,8,0:0:0:0:
256,192,58123,1,8,0:0:0:0:
256,192,58251,1,0,0:0:0:0:
256,192,58380,1,8,0:0:0:0:
256,192,58636,1,8,0:0:0:0:
256,192,58893,1,0,0:0:0:0:
256,192,59149,1,8,0:0:0:0:
256,192,59277,1,8,0:0:0:0:
256,192,59405,1,8,0:0:0:0:
256,192,59662,1,8,0:0:0:0:
256,192,59918,1,8,0:0:0:0:
256,192,60046,1,8,0:0:0:0:
256,192,60175,1,0,0:0:0:0:
256,192,60944,1,8,0:0:0:0:
256,192,61200,1,8,0:0:0:0:
256,192,61457,1,8,0:0:0:0:
256,192,61713,1,8,0:0:0:0:
256,192,61969,1,0,0:0:0:0:
256,192,62226,1,8,0:0:0:0:
256,192,62482,1,8,0:0:0:0:
256,192,62739,1,8,0:0:0:0:
256,192,62995,1,8,0:0:0:0:
256,192,63251,1,0,0:0:0:0:
256,192,64021,1,8,0:0:0:0:
256,192,64277,1,8,0:0:0:0:
256,192,64534,1,8,0:0:0:0:
256,192,64662,1,0,0:0:0:0:
256,192,64790,1,8,0:0:0:0:
256,192,65046,1,0,0:0:0:0:
256,192,65303,1,8,0:0:0:0:
256,192,65559,1,8,0:0:0:0:
256,192,65816,1,8,0:0:0:0:
256,192,65944,1,8,0:0:0:0:
256,192,66072,1,8,0:0:0:0:
256,192,66328,1,4,0:0:0:0:
256,192,67098,1,8,0:0:0:0:
256,192,67226,1,8,0:0:0:0:
256,192,67354,1,8,0:0:0:0:
256,192,67610,1,8,0:0:0:0:
256,192,67867,1,8,0:0:0:0:
256,192,68123,1,0,0:0:0:0:
256,192,68251,1,0,0:0:0:0:
256,192,68380,1,8,0:0:0:0:
256,192,68636,1,8,0:0:0:0:
256,192,68893,1,8,0:0:0:0:
256,192,69021,1,0,0:0:0:0:
256,192,69149,1,8,0:0:0:0:
256,192,69405,1,0,0:0:0:0:
256,192,70175,1,8,0:0:0:0:
256,192,70303,1,0,0:0:0:0:
256,192,70431,1,8,0:0:0:0:
256,192,70687,1,8,0:0:0:0:
256,192,70944,1,8,0:0:0:0:
256,192,71200,1,0,0:0:0:0:
256,192,71328,1,0,0:0:0:0:
256,192,71457,1,8,0:0:0:0:
256,192,71713,1,8,0:0:0:0:
256,192,71969,1,8,0:0:0:0:
256,192,72098,1,8,0:0:0:0:
256,192,72226,1,8,0:0:0:0:
256,192,72354,1,8,0:0:0:0:
256,192,72482,1,0,0:0:0:0:
256,192,73251,1,8,0:0:0:0:
256,192,73508,1,8,0:0:0:0:
256,192,73764,1,8,0:0:0:0:
256,192,74021,1,8,0:0:0:0:
256,192,74277,1,0,0:0:0:0:
256,192,74534,1,8,0:0:0:0:
256,192,74790,1,8,0:0:0:0:
256,192,75046,1,0,0:0:0:0:
256,192,75303,1,8,0:0:0:0:
256,192,75559,1,4,0:0:0:0:
256,192,76072,1,0,0:0:0:0:
256,192,76328,1,8,0:0:0:0:
256,192,76841,1,0,0:0:0:0:
256,192,77098,1,8,0:0:0:0:
256,192,77354,1,0,0:0:0:0:
256,192,77739,1,0,0:0:0:0:
256,192,77867,1,8,0:0:0:0:
256,192,78123,1,0,0:0:0:0:
256,192,78380,1,0,0:0:0:0:
256,192,78508,1,0,0:0:0:0:
256,192,78636,1,0,0:0:0:0:
256,192,81713,5,0,0:0:0:0:
256,192,82482,1,0,0:0:0:0:
256,192,82739,1,8,0:0:0:0:
256,192,82867,1,8,0:0:0:0:
256,192,82995,1,8,0:0:0:0:
256,192,83251,1,0,0:0:0:0:
256,192,83508,1,8,0:0:0:0:
256,192,83764,1,0,0:0:0:0:
256,192,83893,1,0,0:0:0:0:
256,192,84021,1,8,0:0:0:0:
256,192,84277,1,0,0:0:0:0:
256,192,84534,1,8,0:0:0:0:
256,192,84662,1,8,0:0:0:0:
256,192,84790,1,0,0:0:0:0:
256,192,87867,5,0,0:0:0:0:
256,192,88636,1,8,0:0:0:0:
256,192,88764,1,8,0:0:0:0:
256,192,88893,1,8,0:0:0:0:
256,192,89021,1,8,0:0:0:0:
256,192,89149,1,8,0:0:0:0:
256,192,89405,1,8,0:0:0:0:
256,192,89662,1,0,0:0:0:0:
256,192,89918,1,8,0:0:0:0:
256,192,90046,1,0,0:0:0:0:
256,192,90175,1,8,0:0:0:0:
256,192,90431,1,0,0:0:0:0:
256,192,90687,1,8,0:0:0:0:
256,192,90816,1,8,0:0:0:0:
256,192,90944,1,0,0:0:0:0:
256,192,94021,5,0,0:0:0:0:
256,192,94790,1,8,0:0:0:0:
256,192,95046,1,8,0:0:0:0:
256,192,95175,1,8,0:0:0:0:
256,192,95303,1,8,0:0:0:0:
256,192,95559,1,8,0:0:0:0:
256,192,95816,1,0,0:0:0:0:
256,192,96072,1,8,0:0:0:0:
256,192,96200,1,0,0:0:0:0:
256,192,96328,1,8,0:0:0:0:
256,192,96585,1,8,0:0:0:0:
256,192,96841,1,8,0:0:0:0:
256,192,96969,1,8,0:0:0:0:
256,192,97098,1,0,0:0:0:0:
256,192,99918,5,8,0:0:0:0:
256,192,100046,1,8,0:0:0:0:
256,192,100175,1,0,0:0:0:0:
256,192,100431,1,8,0:0:0:0:
256,192,100687,1,0,0:0:0:0:
256,192,100816,1,0,0:0:0:0:
256,192,100944,1,8,0:0:0:0:
256,192,101200,1,0,0:0:0:0:
256,192,101328,1,8,0:0:0:0:
256,192,101457,1,0,0:0:0:0:
256,192,101713,1,8,0:0:0:0:
256,192,101969,1,0,0:0:0:0:
256,192,102098,1,0,0:0:0:0:
256,192,102226,1,8,0:0:0:0:
256,192,102354,1,0,0:0:0:0:
256,192,102482,1,8,0:0:0:0:
256,192,103251,1,12,0:0:0:0:
256,192,104021,1,8,0:0:0:0:
256,192,104790,1,8,0:0:0:0:
256,192,105559,1,8,0:0:0:0:
256,192,106328,1,8,0:0:0:0:
256,192,107098,1,8,0:0:0:0:
256,192,107867,1,4,0:0:0:0:
256,192,108380,1,0,0:0:0:0:
256,192,108636,1,8,0:0:0:0:
256,192,109149,1,0,0:0:0:0:
256,192,109405,1,8,0:0:0:0:
256,192,109918,1,8,0:0:0:0:
256,192,110046,1,0,0:0:0:0:
256,192,110175,1,8,0:0:0:0:
256,192,110431,1,0,0:0:0:0:
256,192,110687,1,8,0:0:0:0:
256,192,110944,1,0,0:0:0:0:
256,192,111200,1,8,0:0:0:0:
256,192,111585,1,8,0:0:0:0:
256,192,111713,1,8,0:0:0:0:
256,192,111969,1,8,0:0:0:0:
256,192,112226,1,0,0:0:0:0:
256,192,112482,1,8,0:0:0:0:
256,192,112610,1,8,0:0:0:0:
256,192,112739,1,0,0:0:0:0:
256,192,113123,1,8,0:0:0:0:
256,192,113251,1,0,0:0:0:0:
256,192,113444,1,8,0:0:0:0:
256,192,113636,1,8,0:0:0:0:
256,192,113828,1,8,0:0:0:0:
256,192,114021,1,0,0:0:0:0:
256,192,114277,1,8,0:0:0:0:
256,192,114405,1,8,0:0:0:0:
256,192,114534,1,0,0:0:0:0:
256,192,114790,1,8,0:0:0:0:
256,192,115559,1,0,0:0:0:0:
256,192,115816,1,8,0:0:0:0:
256,192,115944,1,0,0:0:0:0:
256,192,116200,1,8,0:0:0:0:
256,192,116328,1,8,0:0:0:0:
256,192,116585,1,0,0:0:0:0:
256,192,116841,1,8,0:0:0:0:
256,192,116969,1,8,0:0:0:0:
256,192,117098,1,0,0:0:0:0:
256,192,117610,1,0,0:0:0:0:
256,192,117867,1,8,0:0:0:0:
256,192,117995,1,8,0:0:0:0:
256,192,118251,1,8,0:0:0:0:
256,192,118380,1,0,0:0:0:0:
256,192,118636,1,0,0:0:0:0:
256,192,118893,1,0,0:0:0:0:
256,192,119149,1,8,0:0:0:0:
256,192,119277,1,0,0:0:0:0:
256,192,119405,1,8,0:0:0:0:
256,192,119662,1,0,0:0:0:0:
256,192,119790,1,8,0:0:0:0:
256,192,119918,1,0,0:0:0:0:
256,192,120175,1,12,0:0:0:0:
256,192,120944,1,8,0:0:0:0:
256,192,121457,1,0,0:0:0:0:
256,192,121713,1,0,0:0:0:0:
256,192,121969,1,0,0:0:0:0:
256,192,122098,1,0,0:0:0:0:
256,192,122226,1,0,0:0:0:0:
256,192,122482,1,0,0:0:0:0:
256,192,122610,1,0,0:0:0:0:
256,192,122739,1,0,0:0:0:0:
256,192,122867,1,0,0:0:0:0:
256,192,122995,1,0,0:0:0:0:
256,192,123251,1,4,0:0:0:0:
256,192,123508,1,8,0:0:0:0:
256,192,123893,1,8,0:0:0:0:
256,192,124021,1,8,0:0:0:0:
256,192,124277,1,8,0:0:0:0:
256,192,124534,1,0,0:0:0:0:
256,192,124790,1,8,0:0:0:0:
256,192,124918,1,8,0:0:0:0:
256,192,125046,1,0,0:0:0:0:
256,192,125431,1,8,0:0:0:0:
256,192,125559,1,0,0:0:0:0:
256,192,125751,1,8,0:0:0:0:
256,192,125944,1,8,0:0:0:0:
256,192,126136,1,8,0:0:0:0:
256,192,126328,1,0,0:0:0:0:
256,192,126585,1,8,0:0:0:0:
256,192,126713,1,8,0:0:0:0:
256,192,126841,1,0,0:0:0:0:
256,192,127098,1,8,0:0:0:0:
256,192,127867,1,0,0:0:0:0:
256,192,128123,1,8,0:0:0:0:
256,192,128380,1,8,0:0:0:0:
256,192,128508,1,0,0:0:0:0:
256,192,128636,1,8,0:0:0:0:
256,192,128893,1,0,0:0:0:0:
256,192,129149,1,8,0:0:0:0:
256,192,129277,1,8,0:0:0:0:
256,192,129405,1,0,0:0:0:0:
256,192,129918,1,0,0:0:0:0:
256,192,130175,1,8,0:0:0:0:
256,192,130431,1,0,0:0:0:0:
256,192,130559,1,8,0:0:0:0:
256,192,130687,1,0,0:0:0:0:
256,192,130944,1,8,0:0:0:0:
256,192,131200,1,0,0:0:0:0:
256,192,131457,1,8,0:0:0:0:
256,192,131585,1,0,0:0:0:0:
256,192,131713,1,8,0:0:0:0:
256,192,131969,1,0,0:0:0:0:
256,192,132226,1,0,0:0:0:0:
256,192,132354,1,0,0:0:0:0:
256,192,132482,1,8,0:0:0:0:
256,192,144789,5,0,0:0:0:0:
256,192,145559,1,8,0:0:0:0:
256,192,146071,1,8,0:0:0:0:
256,192,146584,1,0,0:0:0:0:
256,192,146969,1,0,0:0:0:0:
256,192,147097,1,8,0:0:0:0:
256,192,147354,1,8,0:0:0:0:
256,192,147482,1,0,0:0:0:0:
256,192,147738,1,0,0:0:0:0:
256,192,147866,1,0,0:0:0:0:
256,192,148379,1,8,0:0:0:0:
256,192,148636,1,8,0:0:0:0:
256,192,149148,1,8,0:0:0:0:
256,192,149661,1,0,0:0:0:0:
256,192,149918,1,8,0:0:0:0:
256,192,150046,1,8,0:0:0:0:
256,192,150174,1,8,0:0:0:0:
256,192,150430,1,8,0:0:0:0:
256,192,150687,1,8,0:0:0:0:
256,192,150815,1,8,0:0:0:0:
256,192,150943,1,0,0:0:0:0:
256,192,151712,1,8,0:0:0:0:
256,192,152225,1,8,0:0:0:0:
256,192,152738,1,0,0:0:0:0:
256,192,153123,1,0,0:0:0:0:
256,192,153251,1,8,0:0:0:0:
256,192,153507,1,8,0:0:0:0:
256,192,153636,1,0,0:0:0:0:
256,192,153892,1,0,0:0:0:0:
256,192,154020,1,0,0:0:0:0:
256,192,154533,1,8,0:0:0:0:
256,192,154789,1,8,0:0:0:0:
256,192,155046,1,0,0:0:0:0:
256,192,155302,1,8,0:0:0:0:
256,192,155559,1,0,0:0:0:0:
256,192,155943,1,8,0:0:0:0:
256,192,156071,1,8,0:0:0:0:
256,192,156328,1,8,0:0:0:0:
256,192,156584,1,0,0:0:0:0:
256,192,156841,1,8,0:0:0:0:
256,192,157097,1,0,0:0:0:0:
256,192,157866,1,8,0:0:0:0:
256,192,158123,1,8,0:0:0:0:
256,192,158251,1,8,0:0:0:0:
256,192,158379,1,8,0:0:0:0:
256,192,158636,1,8,0:0:0:0:
256,192,158892,1,0,0:0:0:0:
256,192,159148,1,8,0:0:0:0:
256,192,159277,1,0,0:0:0:0:
256,192,159405,1,8,0:0:0:0:
256,192,159661,1,8,0:0:0:0:
256,192,159789,1,0,0:0:0:0:
256,192,160046,1,0,0:0:0:0:
256,192,160174,1,0,0:0:0:0:
256,192,160687,1,0,0:0:0:0:
256,192,160943,1,8,0:0:0:0:
256,192,161200,1,8,0:0:0:0:
256,192,161328,1,8,0:0:0:0:
256,192,161456,1,0,0:0:0:0:
256,192,161712,1,8,0:0:0:0:
256,192,161969,1,0,0:0:0:0:
256,192,162097,1,0,0:0:0:0:
256,192,162354,1,0,0:0:0:0:
256,192,162482,1,8,0:0:0:0:
256,192,162738,1,8,0:0:0:0:
256,192,162866,1,0,0:0:0:0:
256,192,162995,1,8,0:0:0:0:
256,192,163251,1,0,0:0:0:0:
256,192,164020,1,8,0:0:0:0:
256,192,164277,1,0,0:0:0:0:
256,192,164405,1,8,0:0:0:0:
256,192,164533,1,8,0:0:0:0:
256,192,164789,1,0,0:0:0:0:
256,192,165046,1,0,0:0:0:0:
256,192,165302,1,8,0:0:0:0:
256,192,165430,1,0,0:0:0:0:
256,192,165559,1,8,0:0:0:0:
256,192,165815,1,8,0:0:0:0:
256,192,165943,1,8,0:0:0:0:
256,192,166071,1,0,0:0:0:0:
256,192,166328,1,0,0:0:0:0:
256,192,166841,1,0,0:0:0:0:
256,192,167097,1,8,0:0:0:0:
256,192,167354,1,8,0:0:0:0:
256,192,167482,1,8,0:0:0:0:
256,192,167610,1,0,0:0:0:0:
256,192,167866,1,8,0:0:0:0:
256,192,168123,1,0,0:0:0:0:
256,192,168251,1,8,0:0:0:0:
256,192,168379,1,8,0:0:0:0:
256,192,168507,1,8,0:0:0:0:
256,192,168636,1,0,0:0:0:0:
256,192,169405,1,0,0:0:0:0:
256,192,170174,1,0,0:0:0:0:
256,192,170430,1,8,0:0:0:0:
256,192,170687,1,0,0:0:0:0:
256,192,170943,1,0,0:0:0:0:
256,192,171200,1,8,0:0:0:0:
256,192,171328,1,8,0:0:0:0:
256,192,171456,1,0,0:0:0:0:
256,192,171712,1,8,0:0:0:0:
256,192,171969,1,0,0:0:0:0:
256,192,172097,1,8,0:0:0:0:
256,192,172225,1,0,0:0:0:0:
256,192,172482,1,0,0:0:0:0:
256,192,172995,1,8,0:0:0:0:
256,192,173251,1,0,0:0:0:0:
256,192,173507,1,8,0:0:0:0:
256,192,173636,1,8,0:0:0:0:
256,192,173764,1,0,0:0:0:0:
256,192,174020,1,0,0:0:0:0:
256,192,174277,1,8,0:0:0:0:
256,192,174405,1,8,0:0:0:0:
256,192,174533,1,0,0:0:0:0:
256,192,174789,1,0,0:0:0:0:
256,192,175046,1,0,0:0:0:0:
256,192,175174,1,0,0:0:0:0:
256,192,175302,1,8,0:0:0:0:
256,192,175559,1,0,0:0:0:0:
256,192,176071,1,8,0:0:0:0:
256,192,176328,1,0,0:0:0:0:
256,192,176584,1,8,0:0:0:0:
256,192,176712,1,8,0:0:0:0:
256,192,176841,1,0,0:0:0:0:
256,192,177097,1,0,0:0:0:0:
256,192,177354,1,0,0:0:0:0:
256,192,177482,1,0,0:0:0:0:
256,192,177610,1,8,0:0:0:0:
256,192,177866,1,0,0:0:0:0:
256,192,177995,1,8,0:0:0:0:
256,192,178123,1,0,0:0:0:0:
256,192,178251,1,0,0:0:0:0:
256,192,178379,1,8,0:0:0:0:
256,192,178636,12,8,179918,0:0:0:0:
256,192,180174,5,0,0:0:0:0:
256,192,180430,1,8,0:0:0:0:
256,192,180559,1,8,0:0:0:0:
256,192,180687,1,8,0:0:0:0:
256,192,180943,1,0,0:0:0:0:
256,192,181200,1,8,0:0:0:0:
