osu file format v14

[General]
AudioFilename: audio.mp3
AudioLeadIn: 0
PreviewTime: 29381
Countdown: 0
SampleSet: Normal
StackLeniency: 0.7
Mode: 1
LetterboxInBreaks: 0
WidescreenStoryboard: 1

[Editor]
Bookmarks: 29413,54028,78644,103259,132490
DistanceSpacing: 0.8
BeatDivisor: 8
GridSize: 32
TimelineZoom: 2.750001

[Metadata]
Title:lovely, lovely minute
TitleUnicode:lovely, lovely minute
Artist:linear ring
ArtistUnicode:linear ring
Creator:_Rise
Version:Obsessive
Source:Lanota
Tags:uone electronic instrumental o!tfac #3 osu!taiko featured artist cup classical dubstep trap
BeatmapID:3937062
BeatmapSetID:1908858

[Difficulty]
HPDrainRate:6
CircleSize:3
OverallDifficulty:7
ApproachRate:9
SliderMultiplier:1.4
SliderTickRate:1

[Events]
//Background and Video events
0,0,"bg.jpg",0,50
//Break Periods
2,29605,33598
2,132682,141721
//Storyboard Layer 0 (Background)
//Storyboard Layer 1 (Fail)
//Storyboard Layer 2 (Pass)
//Storyboard Layer 3 (Foreground)
//Storyboard Layer 4 (Overlay)
//Storyboard Sound Samples

[TimingPoints]
1129,645.161290322581,3,1,0,60,1,0
1129,-49.6794871795,3,1,0,60,0,0
1774,387.096774193548,3,1,0,60,1,8
2161,262.008733624454,3,1,0,60,1,8
2423,276.497695852535,3,1,0,60,1,0
2423,-115.918803419,3,1,0,60,0,0
3252,256.410256410256,3,1,0,60,1,0
3252,-125,3,1,0,60,0,0
4757,-125,3,1,0,80,0,0
10976,-142.870404753063,4,1,0,70,0,0
12450,-166.666666666667,4,1,0,80,0,0
12739,-142.817371937639,4,1,0,80,0,0
12995,-125,4,1,0,80,0,0
13251,-111.135181975737,4,1,0,80,0,0
13380,-105.25235945835,4,1,0,80,0,0
13508,-100,4,1,0,80,0,0
13636,-95.246936502042,4,1,0,80,0,0
13732,-90.92520382843,4,1,0,90,0,0
13893,-86.949152542373,4,1,0,90,0,0
14021,-83.333333333333,4,1,0,90,0,0
14052,-125,4,1,0,80,0,0
15784,-115.367316341829,4,1,0,90,0,0
15944,-111.103089806526,4,1,0,90,0,0
16008,-109.087042812589,4,1,0,90,0,0
16072,-107.142857142857,4,1,0,90,0,0
16136,-105.266757865937,4,1,0,90,0,0
16200,-103.455229900511,4,1,0,90,0,0
16328,-100.012997140629,4,1,0,90,0,0
16393,-98.351226993865,4,1,0,90,0,0
16521,-95.235148514851,4,1,0,90,0,0
16585,-93.75,4,1,0,90,0,0
16713,-90.914461247637,4,1,0,90,0,0
16841,-88.245412844037,4,1,0,90,0,0
16905,-86.968806509946,4,1,0,90,0,0
16969,-85.728609625668,4,1,0,90,0,0
17034,-84.504722161212,4,1,0,90,0,0
17098,-83.333333333333,4,1,0,90,0,0
17130,-125,4,1,0,80,0,0
18604,-125,4,1,0,90,0,0
18893,-115.367316341829,4,1,0,90,0,0
19085,-109.087042812589,4,1,0,90,0,0
19149,-107.142857142857,4,1,0,90,0,0
19341,-101.704996034893,4,1,0,90,0,0
19405,-100.012997140629,4,1,0,90,0,0
19534,-96.768108651911,4,1,0,90,0,0
19662,-93.75,4,1,0,90,0,0
19790,-90.914461247637,4,1,0,90,0,0
19854,-89.560055865922,4,1,0,90,0,0
19918,-88.245412844037,4,1,0,90,0,0
19982,-86.968806509946,4,1,0,90,0,0
20046,-85.728609625668,4,1,0,90,0,0
20110,-84.523286467487,4,1,0,90,0,0
20175,-83.333333333333,4,1,0,90,0,0
20207,-125,4,1,0,80,0,0
21937,-115.396158463385,4,1,0,90,0,0
22098,-111.095059231436,4,1,0,90,0,0
22226,-107.132906101978,4,1,0,90,0,0
22354,-103.443637341942,4,1,0,90,0,0
22482,-100,4,1,0,90,0,0
22610,-96.778253209162,4,1,0,90,0,0
22675,-95.220406141654,4,1,0,90,0,0
22739,-93.734763529985,4,1,0,90,0,0
22867,-90.898345153664,4,1,0,90,0,0
22931,-89.543549138333,4,1,0,90,0,0
22995,-88.228545204222,4,1,0,90,0,0
23059,-86.951605608322,4,1,0,90,0,0
23123,-85.711101203745,4,1,0,90,0,0
23187,-84.505494505494,4,1,0,90,0,0
23251,-83.333333333333,4,1,0,90,0,0
23284,-136.975328420378,4,1,0,80,0,0
23636,-134.222919937206,4,1,0,80,0,0
23700,-132.887783649363,4,1,0,80,0,0
23764,-131.578947368421,4,1,0,80,0,0
24021,-126.572908956329,4,1,0,80,0,0
24277,-121.951219512195,4,1,0,80,0,0
24405,-119.764672923379,4,1,0,80,0,0
24534,-117.638965327463,4,1,0,80,0,0
24662,-115.603028664143,4,1,0,80,0,0
24790,-113.636363636364,4,1,0,80,0,0
24854,-112.677912493411,4,1,0,80,0,0
24918,-111.7354939885,4,1,0,80,0,0
25046,-109.897172236504,4,1,0,80,0,0
25175,-108.104690858516,4,1,0,80,0,0
25303,-106.382978723404,4,1,0,80,0,0
25367,-105.542525614122,4,1,0,80,0,0
25559,-103.098999155915,4,1,0,80,0,0
25784,-83.333333333333,4,1,0,90,0,0
25944,-84.590364853399,4,1,0,90,0,0
26008,-85.23320984136,4,1,0,90,0,0
26072,-85.885900258447,4,1,0,90,0,0
26200,-87.221736171867,4,1,0,90,0,0
26328,-88.599782758961,4,1,0,90,0,0
26457,-90.033364272634,4,1,0,90,0,0
26585,-91.502434795911,4,1,0,90,0,0
26713,-93.020242075526,4,1,0,90,0,0
26841,-94.589252299502,4,1,0,90,0,0
26969,-96.212100903413,4,1,0,90,0,0
27098,-97.904959354029,4,1,0,90,0,0
27354,-101.447227090282,4,1,0,90,0,0
27482,-103.316253094594,4,1,0,90,0,0
27610,-105.255440201771,4,1,0,90,0,0
27739,-107.284847397842,4,1,0,90,0,0
27867,-109.3773809161,4,1,0,90,0,0
27995,-111.553165697945,4,1,0,90,0,0
28123,-113.817270795674,4,1,0,90,0,0
28251,-116.175185317062,4,1,0,90,0,0
28380,-118.65247289077,4,1,0,90,0,0
28508,-121.217238584166,4,1,0,90,0,0
28636,-123.895332781,4,1,0,90,0,0
28764,-126.694436599831,4,1,0,90,0,0
28828,-128.14195944016,4,1,0,90,0,0
28893,-129.646353357656,4,1,0,90,0,0
29021,-132.714565691676,4,1,0,90,0,0
29085,-134.303783257868,4,1,0,90,0,0
29149,-135.931522933,4,1,0,90,0,0
29213,-137.599202545719,4,1,0,90,0,0
29277,-139.308310367581,4,1,0,90,0,0
29341,-141.0604095429,4,1,0,90,0,0
29405,-142.857142857143,4,1,0,90,0,0
29437,-142.857142857143,4,1,0,60,0,0
34757,-125,4,1,0,60,0,0
34918,-125.982640026204,4,1,0,60,0,0
35046,-126.980851766259,4,1,0,60,0,0
35175,-128.002995195208,4,1,0,60,0,0
35303,-129.033610802424,4,1,0,60,0,0
35431,-130.080957111755,4,1,0,60,0,0
35559,-131.145444858817,4,1,0,60,0,0
35645,-131.870486639381,4,1,0,60,0,0
35730,-132.595018529691,4,1,0,60,0,0
35816,-133.336222212593,4,1,0,60,0,0
35944,-134.454883111208,4,1,0,60,0,0
36072,-135.592473449963,4,1,0,60,0,0
36200,-136.749477800987,4,1,0,60,0,0
36328,-137.926397418082,4,1,0,60,0,0
36457,-139.133187131198,4,1,0,60,0,0
36585,-140.351677423769,4,1,0,60,0,0
36713,-141.591698686239,4,1,0,60,0,0
36841,-142.853826690499,4,1,0,60,0,0
36969,-144.138657922473,4,1,0,60,0,0
37098,-145.457123948189,4,1,0,60,0,0
37183,-146.339143461822,4,1,0,60,0,0
37269,-147.242493121187,4,1,0,60,0,0
37354,-148.146364949446,4,1,0,60,0,0
37482,-149.52862280105,4,1,0,60,0,0
37610,-150.936917492397,4,1,0,60,0,0
37739,-152.383310635137,4,1,0,60,0,0
37867,-153.846153846154,4,1,0,60,0,0
37995,-155.337355175808,4,1,0,60,0,0
38123,-156.857747304565,4,1,0,60,0,0
38251,-158.408195835157,4,1,0,60,0,0
38380,-160.00207997504,4,1,0,60,0,0
38508,-161.615631073061,4,1,0,60,0,0
38636,-163.262057621903,4,1,0,60,0,0
38764,-164.942374698472,4,1,0,60,0,0
38893,-166.67118056496,4,1,0,60,0,0
39021,-168.422781137962,4,1,0,60,0,0
39149,-170.211588991841,4,1,0,60,0,0
39277,-172.038802381818,4,1,0,60,0,0
39405,-173.905671574307,4,1,0,60,0,0
39534,-175.828571428571,4,1,0,60,0,0
39662,-177.77906170557,4,1,0,60,0,0
39790,-179.773311521384,4,1,0,60,0,0
39918,-181.812810210352,4,1,0,60,0,0
40046,-183.899115467368,4,1,0,60,0,0
40175,-186.050730114581,4,1,0,60,0,0
40303,-188.23601382559,4,1,0,60,0,0
40431,-190.473242749698,4,1,0,60,0,0
40559,-192.764291307753,4,1,0,60,0,0
40687,-195.111125202118,4,1,0,60,0,0
40816,-197.534826988509,4,1,0,60,0,0
40912,-250,4,1,0,75,0,0
41681,-250,4,1,0,90,0,0
42482,-186.050730114581,4,1,0,90,0,0
42995,-177.77906170557,4,1,0,90,0,0
43251,-173.920416007235,4,1,0,90,0,0
43764,-166.67118056496,4,1,0,90,0,0
44021,-163.262057621903,4,1,0,90,0,0
44277,-160.00207997504,4,1,0,90,0,0
44534,-156.857747304565,4,1,0,90,0,0
44790,-153.846153846154,4,1,0,90,0,0
45046,-150.948024234099,4,1,0,90,0,0
45303,-148.146364949446,4,1,0,90,0,0
45559,-145.457123948189,4,1,0,90,0,0
45816,-142.853826690499,4,1,0,90,0,0
45944,-141.591698686239,4,1,0,90,0,0
46072,-140.351677423769,4,1,0,90,0,0
46328,-137.93567185924,4,1,0,90,0,0
46585,-135.592473449963,4,1,0,90,0,0
46713,-134.454883111208,4,1,0,90,0,0
46841,-133.336222212593,4,1,0,90,0,0
46969,-132.236022175427,4,1,0,90,0,0
47098,-131.145444858817,4,1,0,90,0,0
47226,-130.080957111755,4,1,0,90,0,0
47354,-129.033610802424,4,1,0,90,0,0
47482,-128.002995195208,4,1,0,90,0,0
47610,-126.988712572997,4,1,0,90,0,0
47739,-125.982640026204,4,1,0,90,0,0
47867,-125,4,1,0,90,0,0
48123,-119.326241134752,4,1,0,90,0,0
48251,-116.678224687933,4,1,0,90,0,0
48380,-114.125826691538,4,1,0,90,0,0
48636,-109.377539411669,4,1,0,90,0,0
48893,-104.992199687988,4,1,0,90,0,0
49021,-102.936677883145,4,1,0,90,0,0
49149,-100.960096009601,4,1,0,90,0,0
49277,-99.057992346188,4,1,0,90,0,0
49405,-97.226235192141,4,1,0,90,0,0
49662,-93.745647026048,4,1,0,90,0,0
49790,-92.103462433283,4,1,0,90,0,0
49918,-90.517821116342,4,1,0,90,0,0
50046,-88.985852175063,4,1,0,90,0,0
50175,-87.49349973999,4,1,0,90,0,0
50303,-86.061381074169,4,1,0,90,0,0
50431,-84.675390035229,4,1,0,90,0,0
50559,-83.333333333333,4,1,0,90,0,0
50687,-82.033154558752,4,1,0,90,0,0
50816,-80.763230529221,4,1,0,90,0,0
50944,-79.541425363432,4,1,0,90,0,0
51200,-77.205460594241,4,1,0,90,0,0
51328,-76.088185415489,4,1,0,90,0,0
51457,-74.994428348563,4,1,0,90,0,0
51585,-73.939793451989,4,1,0,90,0,0
51713,-72.914409534128,4,1,0,90,0,0
51841,-71.917076298354,4,1,0,90,0,0
51969,-70.946658233186,4,1,0,90,0,0
52098,-69.994799791992,4,1,0,90,0,0
52226,-69.075233500975,4,1,0,90,0,0
52354,-68.179515753216,4,1,0,90,0,0
52482,-67.306730673067,4,1,0,90,0,0
52546,-66.878664414191,4,1,0,90,0,0
52610,-66.456008689642,4,1,0,90,0,0
52675,-66.032182103611,4,1,0,90,0,0
52739,-65.620124804992,4,1,0,90,0,0
52803,-65.213178294574,4,1,0,90,0,0
52867,-64.81124807396,4,1,0,90,0,0
52931,-64.414241960184,4,1,0,90,0,0
52995,-64.022070015221,4,1,0,90,0,0
53059,-63.634644478064,4,1,0,90,0,0
53123,-63.251879699248,4,1,0,90,0,0
53187,-62.873692077728,4,1,0,90,0,0
53251,-62.5,4,1,0,90,0,0
53284,-66.666666666667,4,1,0,70,0,0
53508,-71.428571428571,4,1,0,70,0,0
53636,-76.923076923077,4,1,0,70,0,0
53764,-83.333333333333,4,1,0,70,0,0
53893,-90.909090909091,4,1,0,70,0,0
53984,-100.000000000001,4,1,0,100,0,0
54021,-55.555555555556,4,1,0,100,0,1
54053,-142.857142857143,4,1,0,80,0,1
54758,-142.857142857143,4,1,0,100,0,1
54790,-62.984496124031,4,1,0,100,0,1
54854,-63.976377952756,4,1,0,100,0,1
54918,-65,4,1,0,100,0,1
54982,-66.056910569106,4,1,0,100,0,1
55046,-67.148760330579,4,1,0,100,0,1
55110,-68.27731092437,4,1,0,100,0,1
55175,-69.462997595512,4,1,0,100,0,1
55239,-70.671378091873,4,1,0,100,0,1
55303,-71.922544951591,4,1,0,100,0,1
55367,-73.218811602366,4,1,0,100,0,1
55431,-74.56266131345,4,1,0,100,0,1
55495,-75.956763073327,4,1,0,100,0,1
55559,-77.403989282525,4,1,0,100,0,1
55623,-78.907435508346,4,1,0,100,0,1
55687,-80.470442587434,4,1,0,100,0,1
55751,-82.096621408273,4,1,0,100,0,1
55816,-83.816892327531,4,1,0,100,0,1
55944,-87.424344317418,4,1,0,100,0,1
56008,-89.347079037801,4,1,0,100,0,1
56072,-91.356289529164,4,1,0,100,0,1
56136,-93.457943925234,4,1,0,100,0,1
56200,-95.658572479765,4,1,0,100,0,1
56264,-97.965335342879,4,1,0,100,0,1
56328,-100.3861003861,4,1,0,100,0,1
56393,-102.970297029703,4,1,0,100,0,1
56457,-105.648110524177,4,1,0,100,0,1
56521,-108.468919482687,4,1,0,100,0,1
56585,-111.444492070296,4,1,0,100,0,1
56649,-114.587924195681,4,1,0,100,0,1
56713,-117.913832199546,4,1,0,100,0,1
56777,-121.438580102756,4,1,0,100,0,1
56841,-125.18054886856,4,1,0,100,0,1
56905,-129.160457029309,4,1,0,100,0,1
56969,-133.401744484351,4,1,0,100,0,1
57034,-138.004246284501,4,1,0,100,0,1
57098,-142.857142857143,4,1,0,100,0,1
57130,-83.333333333333,4,1,0,80,0,1
57525,-84.913983237759,4,1,0,80,0,1
57568,-86.555755395683,4,1,0,80,0,1
57610,-88.221814848763,4,1,0,80,0,1
57675,-90.930562116202,4,1,0,80,0,1
57739,-93.765221626887,4,1,0,80,0,1
57835,-93.765221626887,4,1,0,100,0,1
57867,-62.5,4,1,0,100,0,1
57931,-63.490316901408,4,1,0,100,0,1
57995,-64.51252236136,4,1,0,100,0,1
58059,-65.568181818182,4,1,0,100,0,1
58123,-66.658964879852,4,1,0,100,0,1
58187,-67.786654135338,4,1,0,100,0,1
58251,-68.953154875717,4,1,0,100,0,1
58316,-70.179706266914,4,1,0,100,0,1
58380,-71.430782086596,4,1,0,100,0,1
58444,-72.727272727273,4,1,0,100,0,1
58508,-74.071696781026,4,1,0,100,0,1
58572,-75.466762580519,4,1,0,100,0,1
58636,-76.915386409838,4,1,0,100,0,1
58700,-78.420712853794,4,1,0,100,0,1
58764,-79.986137584474,4,1,0,100,0,1
58828,-81.615332932565,4,1,0,100,0,1
58893,-83.339351484076,4,1,0,100,0,1
59021,-86.95652173913,4,1,0,100,0,1
59085,-88.885465608873,4,1,0,100,0,1
59149,-90.901929893659,4,1,0,100,0,1
59213,-93.012009349561,4,1,0,100,0,1
59277,-95.222378084,4,1,0,100,0,1
59341,-97.540360071,4,1,0,100,0,1
59405,-99.974010222646,4,1,0,100,0,1
59469,-102.532207907597,4,1,0,100,0,1
59534,-105.267958950969,4,1,0,100,0,1
59598,-108.108108108108,4,1,0,100,0,1
59662,-111.105762287585,4,1,0,100,0,1
59726,-114.274397187701,4,1,0,100,0,1
59790,-117.629070893431,4,1,0,100,0,1
59854,-121.186663166185,4,1,0,100,0,1
59918,-124.966159510531,4,1,0,100,0,1
59982,-128.988990107863,4,1,0,100,0,1
60046,-133.279436391985,4,1,0,100,0,1
60110,-137.865121557852,4,1,0,100,0,1
60175,-142.857142857143,4,1,0,100,0,1
60207,-121.236008198014,4,1,0,80,0,1
60410,-117.261360170784,4,1,0,80,0,1
60452,-113.62293144208,4,1,0,80,0,1
60495,-110.124588285837,4,1,0,80,0,1
60559,-105.29919211283,4,1,0,80,0,1
60623,-100.878919060737,4,1,0,80,0,1
60687,-96.81480548911,4,1,0,80,0,1
60816,-89.543549138333,4,1,0,80,0,1
60912,-89.543549138333,4,1,0,100,0,1
60944,-62.5,4,1,0,100,0,1
60987,-63.162217659138,4,1,0,100,0,1
61029,-63.8227238775,4,1,0,100,0,1
61200,-66.660887656033,4,1,0,100,0,1
61243,-67.414745331814,4,1,0,100,0,1
61286,-68.185848554708,4,1,0,100,0,1
61457,-71.435206688342,4,1,0,100,0,1
61499,-72.281229438857,4,1,0,100,0,1
61542,-73.168411037108,4,1,0,100,0,1
61713,-76.923076923077,4,1,0,100,0,1
61756,-77.92865828942,4,1,0,100,0,1
61799,-78.960878940343,4,1,0,100,0,1
61969,-83.3243038249,4,1,0,100,0,1
62012,-84.505494505494,4,1,0,100,0,1
62055,-85.720655445324,4,1,0,100,0,1
62226,-90.919839205486,4,1,0,100,0,1
62269,-92.328010565494,4,1,0,100,0,1
62311,-93.74619041814,4,1,0,100,0,1
62482,-100,4,1,0,100,0,1
62525,-101.706123528634,4,1,0,100,0,1
62568,-103.471474703983,4,1,0,100,0,1
62739,-111.143228790288,4,1,0,100,0,1
62781,-113.204769615781,4,1,0,100,0,1
62824,-115.396158463385,4,1,0,100,0,1
62995,-125.020321898878,4,1,0,100,0,1
63038,-127.698439056792,4,1,0,100,0,1
63081,-130.493806210759,4,1,0,100,0,1
63251,-83.333333333333,4,1,0,100,0,1
63284,-99.987014673419,4,1,0,80,0,1
63807,-101.690438457475,4,1,0,80,0,1
63850,-103.452908773344,4,1,0,80,0,1
63893,-105.277549904293,4,1,0,80,0,1
63989,-105.277549904293,4,1,0,100,0,1
64021,-62.5,4,1,0,100,0,1
64063,-63.47535298489,4,1,0,100,0,1
64106,-64.505978602895,4,1,0,100,0,1
64277,-68.958557588805,4,1,0,100,0,1
64320,-70.176639737094,4,1,0,100,0,1
64363,-71.438528017842,4,1,0,100,0,1
64534,-76.940399339439,4,1,0,100,0,1
64576,-78.423871461362,4,1,0,100,0,1
64662,-81.647283734268,4,1,0,100,0,1
64704,-83.319785400748,4,1,0,100,0,1
64790,-86.967588664517,4,1,0,100,0,1
64833,-88.913948646773,4,1,0,100,0,1
64875,-90.901028733593,4,1,0,100,0,1
64918,-93.029587946996,4,1,0,100,0,1
65046,-100,4,1,0,100,0,1
65217,-104.648002174504,4,1,0,100,0,1
65303,-107.152797105483,4,1,0,100,0,1
65431,-111.111111111111,4,1,0,100,0,1
65559,-115.373089601438,4,1,0,100,0,1
65602,-116.879174256223,4,1,0,100,0,1
65687,-119.975070115301,4,1,0,100,0,1
65730,-121.604548325963,4,1,0,100,0,1
65816,-71.428571428571,4,1,0,100,0,1
65944,-76.923076923077,4,1,0,100,0,1
66072,-83.333333333333,4,1,0,100,0,1
66200,-90.909090909091,4,1,0,100,0,1
66328,-100,4,1,0,100,0,1
66360,-142.857142857143,4,1,0,80,0,1
67066,-142.857142857143,4,1,0,100,0,1
67098,-142.857142857143,4,1,0,100,0,1
67162,-140.360458765702,4,1,0,100,0,1
67226,-137.949543746645,4,1,0,100,0,1
67290,-135.584278554471,4,1,0,100,0,1
67354,-134.228187919463,4,1,0,100,0,1
67418,-135.593220338983,4,1,0,100,0,1
67482,-137.931034482759,4,1,0,100,0,1
67546,-140.350877192982,4,1,0,100,0,1
67610,-142.857142857143,4,1,0,100,0,1
67674,-140.350877192982,4,1,0,100,0,1
67737,-137.931034482759,4,1,0,100,0,1
67803,-135.593220338983,4,1,0,100,0,1
67867,-134.228187919463,4,1,0,100,0,1
67931,-135.620052770449,4,1,0,100,0,1
67995,-137.949543746645,4,1,0,100,0,1
68059,-140.360458765702,4,1,0,100,0,1
68123,-142.857142857143,4,1,0,100,0,1
68251,-137.931034482759,4,1,0,100,0,1
68316,-135.593220338983,4,1,0,100,0,1
68380,-134.228187919463,4,1,0,100,0,1
68444,-135.584278554471,4,1,0,100,0,1
68508,-137.912530185136,4,1,0,100,0,1
68572,-140.360458765702,4,1,0,100,0,1
68636,-142.857142857143,4,1,0,100,0,1
68700,-140.350877192982,4,1,0,100,0,1
68764,-137.931034482759,4,1,0,100,0,1
68828,-135.593220338983,4,1,0,100,0,1
68893,-134.228187919463,4,1,0,100,0,1
68957,-135.593220338983,4,1,0,100,0,1
69021,-137.931034482759,4,1,0,100,0,1
69085,-140.350877192982,4,1,0,100,0,1
69149,-142.857142857143,4,1,0,100,0,1
69213,-140.32214032214,4,1,0,100,0,1
69277,-137.912530185136,4,1,0,100,0,1
69341,-135.584278554471,4,1,0,100,0,1
69405,-134.228187919463,4,1,0,100,0,1
69437,-133.333333333333,4,1,0,80,0,1
69833,-135.348918966426,4,1,0,80,0,1
69875,-137.377341659233,4,1,0,80,0,1
69918,-139.518028628375,4,1,0,80,0,1
69982,-142.830643665368,4,1,0,80,0,1
70046,-146.304389131674,4,1,0,80,0,1
70143,-146.304389131674,4,1,0,100,0,1
70175,-142.857142857143,4,1,0,100,0,1
70239,-140.360458765702,4,1,0,100,0,1
70303,-137.949543746645,4,1,0,100,0,1
70367,-135.620052770449,4,1,0,100,0,1
70431,-134.228187919463,4,1,0,100,0,1
70495,-135.593220338983,4,1,0,100,0,1
70559,-137.931034482759,4,1,0,100,0,1
70623,-140.350877192982,4,1,0,100,0,1
70687,-142.857142857143,4,1,0,100,0,1
70751,-140.350877192982,4,1,0,100,0,1
70816,-137.931034482759,4,1,0,100,0,1
70880,-135.593220338983,4,1,0,100,0,1
70944,-134.228187919463,4,1,0,100,0,1
71008,-135.584278554471,4,1,0,100,0,1
71072,-137.949543746645,4,1,0,100,0,1
71136,-140.360458765702,4,1,0,100,0,1
71200,-142.857142857143,4,1,0,100,0,1
71328,-137.931034482759,4,1,0,100,0,1
71393,-135.593220338983,4,1,0,100,0,1
71457,-134.228187919463,4,1,0,100,0,1
71521,-135.584278554471,4,1,0,100,0,1
71585,-137.912530185136,4,1,0,100,0,1
71649,-140.32214032214,4,1,0,100,0,1
71713,-142.857142857143,4,1,0,100,0,1
71777,-140.350877192982,4,1,0,100,0,1
71841,-137.931034482759,4,1,0,100,0,1
71905,-135.593220338983,4,1,0,100,0,1
71969,-134.228187919463,4,1,0,100,0,1
72034,-135.593220338983,4,1,0,100,0,1
72098,-137.931034482759,4,1,0,100,0,1
72162,-140.350877192982,4,1,0,100,0,1
72226,-142.857142857143,4,1,0,100,0,1
72290,-140.32214032214,4,1,0,100,0,1
72354,-137.912530185136,4,1,0,100,0,1
72418,-135.584278554471,4,1,0,100,0,1
72482,-134.228187919463,4,1,0,100,0,1
72514,-121.140516698173,4,1,0,80,0,1
72717,-117.261360170784,4,1,0,80,0,1
72760,-113.539052118707,4,1,0,80,0,1
72803,-110.045792787636,4,1,0,80,0,1
72867,-105.227148330597,4,1,0,80,0,1
72931,-100.812794965915,4,1,0,80,0,1
72995,-96.75390035229,4,1,0,80,0,1
73123,-89.543549138333,4,1,0,80,0,1
73219,-89.543549138333,4,1,0,100,0,1
73251,-62.5,4,1,0,100,0,1
73294,-63.161927697655,4,1,0,100,0,1
73337,-63.838026221165,4,1,0,100,0,1
73508,-66.676296403293,4,1,0,100,0,1
73551,-67.430174126446,4,1,0,100,0,1
73593,-68.183161004431,4,1,0,100,0,1
73764,-71.430782086596,4,1,0,100,0,1
73807,-72.2967046736,4,1,0,100,0,1
73850,-73.183879252941,4,1,0,100,0,1
74021,-76.938462564171,4,1,0,100,0,1
74063,-77.920324105334,4,1,0,100,0,1
74106,-78.951869462594,4,1,0,100,0,1
74277,-83.339351484076,4,1,0,100,0,1
74320,-84.520452631193,4,1,0,100,0,1
74363,-85.735512630015,4,1,0,100,0,1
74534,-90.934163350538,4,1,0,100,0,1
74576,-92.308922929249,4,1,0,100,0,1
74619,-93.7601559961,4,1,0,100,0,1
74790,-100.012999956667,4,1,0,100,0,1
74833,-101.718818862935,4,1,0,100,0,1
74875,-103.44209394048,4,1,0,100,0,1
75046,-111.105762287585,4,1,0,100,0,1
75089,-113.214951437261,4,1,0,100,0,1
75132,-115.405770288514,4,1,0,100,0,1
75271,-83.345370504117,4,1,0,90,0,1
75431,-84.688484602094,4,1,0,90,0,1
75559,-86.088438888315,4,1,0,90,0,1
75687,-87.53545540498,4,1,0,90,0,1
75751,-88.277359889819,4,1,0,90,0,1
75816,-89.043840666827,4,1,0,90,0,1
75944,-90.592808023701,4,1,0,90,0,1
76072,-92.196619733894,4,1,0,90,0,1
76200,-93.858241108389,4,1,0,90,0,1
76328,-95.580855151845,4,1,0,90,0,1
76457,-97.382107169988,4,1,0,90,0,1
76521,-98.301185630862,4,1,0,90,0,1
76585,-99.237777645448,4,1,0,90,0,1
76713,-101.165543616828,4,1,0,90,0,1
76841,-103.169689840896,4,1,0,90,0,1
76969,-105.254847470473,4,1,0,90,0,1
77034,-106.346319517565,4,1,0,90,0,1
77098,-107.443344830921,4,1,0,90,0,1
77226,-109.70672459761,4,1,0,90,0,1
77290,-110.874555071355,4,1,0,90,0,1
77354,-112.067516223395,4,1,0,90,0,1
77418,-113.286428061589,4,1,0,90,0,1
77482,-114.532146661627,4,1,0,90,0,1
77610,-117.107620954991,4,1,0,90,0,1
77739,-119.823123382226,4,1,0,90,0,1
77867,-122.64498086547,4,1,0,90,0,1
77995,-125.602954476937,4,1,0,90,0,1
78059,-127.136100091547,4,1,0,90,0,1
78123,-128.707136237257,4,1,0,90,0,1
78187,-130.317485142321,4,1,0,90,0,1
78251,-131.968641114983,4,1,0,90,0,1
78316,-133.688981589186,4,1,0,90,0,1
78380,-135.427247978546,4,1,0,90,0,1
78508,-139.043010304117,4,1,0,90,0,1
78636,-142.857142857143,4,1,0,70,0,0
78860,-129.0038571189,4,1,0,73,0,0
79117,-117.640311974308,4,1,0,75,0,0
79373,-108.116654954322,4,1,0,77,0,0
79630,-99.990251194229,4,1,0,80,0,0
79886,-93.025365057291,4,1,0,82,0,0
80143,-86.945464820571,4,1,0,85,0,0
80399,-81.631028810951,4,1,0,88,0,0
80655,-76.928846442322,4,1,0,90,0,0
80912,-72.723405261043,4,1,0,93,0,0
81168,-68.96783592962,4,1,0,95,0,0
81425,-65.568530514831,4,1,0,98,0,0
81681,-62.5,4,1,0,100,0,0
81745,-62.5,4,1,0,80,0,0
82450,-62.5,4,1,0,100,0,0
82482,-62.5,4,1,0,100,0,1
82546,-63.490316901408,4,1,0,100,0,1
82610,-64.51252236136,4,1,0,100,0,1
82675,-65.584950697622,4,1,0,100,0,1
82739,-66.676296403293,4,1,0,100,0,1
82803,-67.804577102735,4,1,0,100,0,1
82867,-68.971700086663,4,1,0,100,0,1
82931,-70.179706266914,4,1,0,100,0,1
82995,-71.430782086596,4,1,0,100,0,1
83059,-72.727272727273,4,1,0,100,0,1
83123,-74.071696781026,4,1,0,100,0,1
83187,-75.466762580519,4,1,0,100,0,1
83251,-76.915386409838,4,1,0,100,0,1
83380,-80.011093392498,4,1,0,100,0,1
83444,-81.641315882561,4,1,0,100,0,1
83508,-83.339351484076,4,1,0,100,0,1
83572,-85.109521351132,4,1,0,100,0,1
83636,-86.95652173913,4,1,0,100,0,1
83700,-88.885465608873,4,1,0,100,0,1
83764,-90.901929893659,4,1,0,100,0,1
83828,-93.012009349561,4,1,0,100,0,1
83893,-95.257748978497,4,1,0,100,0,1
83957,-97.577474316154,4,1,0,100,0,1
84021,-100.012999956667,4,1,0,100,0,1
84149,-105.267958950969,4,1,0,100,0,1
84277,-111.105762287585,4,1,0,100,0,1
84341,-114.274397187701,4,1,0,100,0,1
84405,-117.629070893431,4,1,0,100,0,1
84469,-121.186663166185,4,1,0,100,0,1
84534,-125.027085590466,4,1,0,100,0,1
84598,-129.053902929993,4,1,0,100,0,1
84662,-133.348740466836,4,1,0,100,0,1
84726,-137.939278030122,4,1,0,100,0,1
84790,-142.857142857143,4,1,0,100,0,0
84822,-142.857142857143,4,1,0,70,0,0
85014,-129.052552111731,4,1,0,72,0,0
85271,-117.640311974308,4,1,0,75,0,0
85527,-108.116654954322,4,1,0,77,0,0
85784,-99.990251194229,4,1,0,80,0,0
86040,-93.025365057291,4,1,0,82,0,0
86296,-86.967581470281,4,1,0,85,0,0
86553,-81.631028810951,4,1,0,88,0,0
86809,-76.928846442322,4,1,0,90,0,0
87066,-72.723405261043,4,1,0,93,0,0
87322,-68.96783592962,4,1,0,95,0,0
87578,-65.581107866749,4,1,0,97,0,0
87835,-62.5,4,1,0,100,0,0
87899,-62.5,4,1,0,80,0,0
88604,-62.5,4,1,0,100,0,0
88636,-55.555555555556,4,1,0,100,0,1
88700,-56.513222331048,4,1,0,100,0,1
88764,-57.504484751844,4,1,0,100,0,1
88828,-58.531142219517,4,1,0,100,0,1
88893,-59.612056719271,4,1,0,100,0,1
88957,-60.716070817878,4,1,0,100,0,1
89021,-61.861749175802,4,1,0,100,0,1
89085,-63.051495697309,4,1,0,100,0,1
89149,-64.287902843932,4,1,0,100,0,1
89213,-65.573770491803,4,1,0,100,0,1
89277,-66.912127098252,4,1,0,100,0,1
89341,-68.306253514457,4,1,0,100,0,1
89405,-69.759709838295,4,1,0,100,0,1
89469,-71.27636577005,4,1,0,100,0,1
89534,-72.885744963052,4,1,0,100,0,1
89598,-74.542988179058,4,1,0,100,0,1
89662,-76.277348139335,4,1,0,100,0,1
89790,-80,4,1,0,100,0,1
89918,-84.104657094964,4,1,0,100,0,1
89982,-86.319096417084,4,1,0,100,0,1
90046,-88.653299531382,4,1,0,100,0,1
90110,-91.117252270036,4,1,0,100,0,1
90175,-93.763965061954,4,1,0,100,0,1
90303,-99.452751325031,4,1,0,100,0,1
90431,-105.876416349374,4,1,0,100,0,1
90495,-109.409812751837,4,1,0,100,0,1
90559,-113.187190427149,4,1,0,100,0,1
90623,-117.234723421547,4,1,0,100,0,1
90687,-121.582468524469,4,1,0,100,0,1
90751,-126.265112971169,4,1,0,100,0,1
90816,-131.405146891369,4,1,0,100,0,1
90880,-136.892052194543,4,1,0,100,0,1
90944,-142.857142857143,4,1,0,100,0,0
90976,-142.857142857143,4,1,0,80,0,0
91425,-117.640311974308,4,1,0,83,0,0
91681,-108.116654954322,4,1,0,85,0,0
92194,-93.025365057291,4,1,0,88,0,0
92450,-86.967581470281,4,1,0,90,0,0
92707,-81.631028810951,4,1,0,92,0,0
93091,-74.775212636695,4,1,0,94,0,0
93219,-72.73887759444,4,1,0,95,0,0
93476,-68.96783592962,4,1,0,97,0,0
93732,-65.581107866749,4,1,0,98,0,0
93861,-63.997504159734,4,1,0,99,0,0
93989,-62.5,4,1,0,100,0,0
94053,-62.5,4,1,0,80,0,0
94566,-62.5,4,1,0,100,0,0
94790,-62.5,4,1,0,100,0,1
94854,-63.4903169014085,4,1,0,100,0,1
94918,-64.5125223613596,4,1,0,100,0,1
94982,-65.5681818181818,4,1,0,100,0,1
95046,-66.6589648798521,4,1,0,100,0,1
95110,-67.7866541353383,4,1,0,100,0,1
95175,-68.9717000866629,4,1,0,100,0,1
95239,-70.179706266914,4,1,0,100,0,1
95303,-71.4307820865959,4,1,0,100,0,1
95367,-72.7272727272727,4,1,0,100,0,1
95431,-74.0716967810264,4,1,0,100,0,1
95495,-75.4667625805186,4,1,0,100,0,1
95559,-76.9153864098377,4,1,0,100,0,1
95623,-78.4207128537936,4,1,0,100,0,1
95687,-79.9861375844741,4,1,0,100,0,1
95751,-81.6153329325648,4,1,0,100,0,1
95816,-83.339351484076,4,1,0,100,0,1
95880,-85.1095213511321,4,1,0,100,0,1
95944,-86.9565217391304,4,1,0,100,0,1
96008,-88.8854656088731,4,1,0,100,0,1
96072,-90.9019298936589,4,1,0,100,0,1
96136,-93.0120093495607,4,1,0,100,0,1
96200,-95.2223780840003,4,1,0,100,0,1
96264,-97.5403600709999,4,1,0,100,0,1
96328,-99.9740102226458,4,1,0,100,0,1
96393,-102.573218968046,4,1,0,100,0,1
96457,-105.267958950969,4,1,0,100,0,1
96521,-108.108108108108,4,1,0,100,0,1
96585,-111.105762287585,4,1,0,100,0,1
96649,-114.274397187701,4,1,0,100,0,1
96713,-117.629070893431,4,1,0,100,0,1
96777,-121.186663166185,4,1,0,100,0,1
96841,-124.966159510531,4,1,0,100,0,1
96905,-128.988990107863,4,1,0,100,0,1
96969,-133.279436391985,4,1,0,100,0,1
97034,-137.939278030122,4,1,0,100,0,1
97098,-142.857142857143,4,1,0,100,0,0
97130,-142.857142857143,4,1,0,80,0,0
97578,-120.031207333723,4,1,0,83,0,0
97835,-111.119136181431,4,1,0,85,0,0
98348,-96.776222676521,4,1,0,88,0,0
98604,-90.919835711964,4,1,0,90,0,0
98860,-85.712693946907,4,1,0,92,0,0
99245,-78.956146878448,4,1,0,94,0,0
99373,-76.934616827103,4,1,0,95,0,0
99630,-73.173051770469,4,1,0,97,0,0
99758,-71.433546140453,4,1,0,97,0,0
99886,-69.77482482596,4,1,0,98,0,0
100014,-68.191387983955,4,1,0,99,0,0
100143,-68.191387983955,4,1,0,100,0,0
100175,-62.5,4,1,0,100,0,1
100239,-63.490752972259,4,1,0,100,0,1
100303,-64.513422818792,4,1,0,100,0,1
100367,-65.569577080491,4,1,0,100,0,1
100431,-66.660887656033,4,1,0,100,0,1
100495,-67.789139633286,4,1,0,100,0,1
100559,-68.956241032999,4,1,0,100,0,1
100623,-70.164233576642,4,1,0,100,0,1
100687,-71.415304606241,4,1,0,100,0,1
100816,-74.07764184568,4,1,0,100,0,1
100880,-75.473549906762,4,1,0,100,0,1
100944,-76.923076923077,4,1,0,100,0,1
101008,-78.429372768995,4,1,0,100,0,1
101072,-79.995838968064,4,1,0,100,0,1
101115,-81.083930830873,4,1,0,100,0,1
101157,-82.175678563796,4,1,0,100,0,1
101200,-83.3243038249,4,1,0,100,0,1
101328,-86.941775014132,4,1,0,100,0,1
101393,-88.901734104046,4,1,0,100,0,1
101457,-90.919839205486,4,1,0,100,0,1
101521,-93.031696104525,4,1,0,100,0,1
101585,-95.243993064157,4,1,0,100,0,1
101628,-96.790434235368,4,1,0,100,0,1
101670,-98.35017265635,4,1,0,100,0,1
101713,-100,4,1,0,100,0,1
101841,-105.255954010402,4,1,0,100,0,1
101905,-108.096710711274,4,1,0,100,0,1
101969,-111.095059231436,4,1,0,100,0,1
102034,-114.315445220752,4,1,0,100,0,1
102098,-117.674062739097,4,1,0,100,0,1
102162,-121.236008198014,4,1,0,100,0,1
102226,-125.020321898878,4,1,0,100,0,1
102290,-129.048498070146,4,1,0,100,0,1
102354,-133.344893358765,4,1,0,100,0,1
102450,-133.344893358765,4,1,0,70,0,1
102482,-142.857142857143,4,1,0,70,0,0
103219,-54.900961072731,4,1,0,90,0,0
104021,-60.86710756882,4,1,0,90,0,0
104790,-68.298870988202,4,1,0,90,0,0
105559,-77.783797450067,4,1,0,90,0,0
106328,-90.327992618069,4,1,0,90,0,0
107098,-107.696154423163,4,1,0,90,0,0
107867,-142.857142857143,4,1,0,90,0,0
108123,-142.857142857143,4,1,0,90,0,0
117354,-137.938763616802,4,1,0,90,0,0
117418,-136.761633850393,4,1,0,90,0,0
117482,-135.60442466176,4,1,0,90,0,0
117610,-133.347778981582,4,1,0,90,0,0
117739,-131.14823970676,4,1,0,90,0,0
117867,-129.036316363331,4,1,0,90,0,0
117995,-126.991333058192,4,1,0,90,0,0
118187,-124.042570345884,4,1,0,90,0,0
118251,-123.089847187775,4,1,0,90,0,0
118380,-121.213314949773,4,1,0,90,0,0
118508,-119.407039466025,4,1,0,90,0,0
118636,-117.653806446679,4,1,0,90,0,0
118764,-115.95131326073,4,1,0,90,0,0
118828,-115.118410714954,4,1,0,90,0,0
118893,-114.284653097608,4,1,0,90,0,0
119021,-112.677603632635,4,1,0,90,0,0
119149,-111.115123501372,4,1,0,90,0,0
119213,-110.350021517716,4,1,0,90,0,0
119277,-109.595383957829,4,1,0,90,0,0
119405,-108.116654954322,4,1,0,90,0,0
119534,-106.666204458003,4,1,0,90,0,0
119598,-105.960949068494,4,1,0,90,0,0
119662,-105.264958434539,4,1,0,90,0,0
119726,-104.578051184448,4,1,0,90,0,0
119790,-103.900050650008,4,1,0,90,0,0
119854,-103.230784715,4,1,0,90,0,0
119918,-102.570085669522,4,1,0,90,0,0
120046,-101.273738603824,4,1,0,90,0,0
120175,-71.428571428571,4,1,0,90,0,0
120944,-90.909090909091,4,1,0,90,0,0
121457,-166.666666666667,4,1,0,90,0,0
121713,-134.55772113943,4,1,0,90,0,0
121969,-112.893081761006,4,1,0,90,0,0
122098,-104.481955762515,4,1,0,90,0,0
122226,-97.237269772481,4,1,0,90,0,0
122354,-90.886075949367,4,1,0,90,0,0
122482,-85.354255825012,4,1,0,90,0,0
122610,-80.457194083371,4,1,0,90,0,0
122739,-76.091564222128,4,1,0,90,0,0
122867,-72.175311620426,4,1,0,90,0,0
122995,-68.61620795107,4,1,0,90,0,0
123123,-65.415451895044,4,1,0,90,0,0
123251,-62.5,4,1,0,90,0,0
123508,-142.857142857143,4,1,0,90,0,0
126585,-137.920215150157,4,1,0,90,0,0
126713,-135.586498634,4,1,0,90,0,0
126841,-133.330444579253,4,1,0,90,0,0
126969,-131.14823970676,4,1,0,90,0,0
127034,-130.067210550788,4,1,0,90,0,0
127098,-129.020084699568,4,1,0,90,0,0
127354,-124.99492220823,4,1,0,90,0,0
127482,-123.07507699692,4,1,0,90,0,0
127610,-121.213314949773,4,1,0,90,0,0
127739,-119.393139841689,4,1,0,90,0,0
127867,-117.640311974308,4,1,0,90,0,0
128123,-114.284653097608,4,1,0,90,0,0
128251,-112.677603632635,4,1,0,90,0,0
128316,-111.878704141366,4,1,0,90,0,0
128380,-111.103087199856,4,1,0,90,0,0
128508,-109.583674632287,4,1,0,90,0,0
128636,-108.105259459649,4,1,0,90,0,0
128764,-106.666204458003,4,1,0,90,0,0
128893,-105.254156119587,4,1,0,90,0,0
128978,-104.343992675235,4,1,0,90,0,0
129063,-103.449435180204,4,1,0,90,0,0
129149,-102.55982934471,4,1,0,90,0,0
129277,-101.263739880208,4,1,0,90,0,0
129405,-100,4,1,0,90,0,0
129662,-95.991265013258,4,1,0,90,0,0
129918,-92.305384730763,4,1,0,90,0,0
130046,-90.566593083149,4,1,0,90,0,0
130175,-88.879260543039,4,1,0,90,0,0
130303,-87.266023823029,4,1,0,90,0,0
130367,-86.481169196178,4,1,0,90,0,0
130431,-85.710306406685,4,1,0,90,0,0
130559,-84.209085933224,4,1,0,90,0,0
130687,-82.759548144164,4,1,0,90,0,0
130751,-82.053333333333,4,1,0,90,0,0
130816,-81.348314606742,4,1,0,90,0,0
130880,-80.665880193997,4,1,0,90,0,0
130944,-79.994800467958,4,1,0,90,0,0
131072,-78.685590077995,4,1,0,90,0,0
131136,-78.046924540266,4,1,0,90,0,0
131200,-77.418543212983,4,1,0,90,0,0
131328,-76.191655317568,4,1,0,90,0,0
131457,-74.993906897392,4,1,0,90,0,0
131521,-74.413542926239,4,1,0,90,0,0
131585,-73.842092632589,4,1,0,90,0,0
131713,-72.725124084141,4,1,0,90,0,0
131777,-72.179216514192,4,1,0,90,0,0
131841,-71.641443538999,4,1,0,90,0,0
131905,-71.111624682228,4,1,0,90,0,0
131969,-70.589584767148,4,1,0,90,0,0
132034,-70.067175224866,4,1,0,90,0,0
132098,-69.560302927546,4,1,0,90,0,0
132162,-69.060711480193,4,1,0,90,0,0
132226,-68.568245125348,4,1,0,90,0,0
132290,-68.082752516871,4,1,0,90,0,0
132354,-67.604086564869,4,1,0,90,0,0
132418,-67.132104287117,4,1,0,90,0,0
132482,256.410256410256,36,1,0,90,1,0
132482,-66.666666666667,3,1,0,90,0,0
132514,-125,3,1,0,80,0,0
133219,-125,3,1,0,70,0,0
133988,-125,3,1,0,60,0,0
134757,-125,3,1,0,50,0,0
135526,-125,3,1,0,40,0,0
136296,-125,3,1,0,30,0,0
137065,-125,3,1,0,20,0,0
137834,-125,3,1,0,30,0,0
138603,-125,3,1,0,35,0,0
139373,-125,3,1,0,40,0,0
140142,-125,3,1,0,45,0,0
140911,-125,3,1,0,50,0,0
141680,-125,3,1,0,60,0,0
141712,256.410256410256,3,1,0,60,1,8
141713,256.410256410256,3,1,0,60,1,0
141713,-125,3,1,0,60,0,0
142450,-125,3,1,0,70,0,0
143219,-125,3,1,0,80,0,0
143988,-125,3,1,0,90,0,0
144757,-125,3,1,0,80,0,0
155527,-125,3,1,0,90,0,0
155815,-120.006242197253,4,1,0,90,0,0
155943,-117.65605875153,4,1,0,90,0,0
156071,-115.396158463385,4,1,0,90,0,0
156200,-113.204769615781,4,1,0,90,0,0
156264,-112.148169753537,4,1,0,90,0,0
156328,-111.111111111111,4,1,0,90,0,0
156456,-109.093488438076,4,1,0,90,0,0
156520,-108.111907774497,4,1,0,90,0,0
156584,-107.147833356556,4,1,0,90,0,0
156712,-105.270362765229,4,1,0,90,0,0
156841,-103.443637341942,4,1,0,90,0,0
156969,-101.692673895795,4,1,0,90,0,0
157097,-83.333333333333,4,1,0,90,0,0
157183,-83.919707631048,4,1,0,90,0,0
157268,-84.507429073632,4,1,0,90,0,0
157354,-85.110502586231,4,1,0,90,0,0
157482,-86.024210908888,4,1,0,90,0,0
157610,-86.957750459234,4,1,0,90,0,0
157738,-87.911773949316,4,1,0,90,0,0
157866,-88.886963052835,4,1,0,90,0,0
157995,-89.891907683319,4,1,0,90,0,0
158123,-90.911776871713,4,1,0,90,0,0
158251,-91.955053493515,4,1,0,90,0,0
158379,-93.022552754096,4,1,0,90,0,0
158507,-94.115128158072,4,1,0,90,0,0
158636,-95.242517101557,4,1,0,90,0,0
158721,-96.000249594409,4,1,0,90,0,0
158807,-96.779266528276,4,1,0,90,0,0
158892,-97.56174894575,4,1,0,90,0,0
159020,-98.764243299631,4,1,0,90,0,0
159148,-99.996750186864,4,1,0,90,0,0
159277,-101.270405476567,4,1,0,90,0,0
159405,-102.566666666667,4,1,0,90,0,0
159533,-103.896542409508,4,1,0,90,0,0
159661,-105.26135741653,4,1,0,90,0,0
159789,-106.66250693289,4,1,0,90,0,0
159918,-108.112856189171,4,1,0,90,0,0
160046,-109.591480571286,4,1,0,90,0,0
160174,-111.111111111111,4,1,0,90,0,0
160302,-112.673477608115,4,1,0,90,0,0
160430,-114.280408542247,4,1,0,90,0,0
160559,-115.946944004823,4,1,0,90,0,0
160687,-117.649307945247,4,1,0,90,0,0
160815,-119.402405898331,4,1,0,90,0,0
160943,-121.208540140235,4,1,0,90,0,0
161071,-123.070154387649,4,1,0,90,0,0
161200,-125.005078204347,4,1,0,90,0,0
161328,-126.986092195947,4,1,0,90,0,0
161456,-129.030905354971,4,1,0,90,0,0
161584,-131.142650129992,4,1,0,90,0,0
161712,-133.324667446596,4,1,0,90,0,0
161841,-135.598448792526,4,1,0,90,0,0
161969,-137.932580240273,4,1,0,90,0,0
162097,-140.348476555373,4,1,0,90,0,0
162225,-142.850510677809,4,1,0,90,0,0
162354,-145.464000378197,4,1,0,90,0,0
162482,-148.15349800183,4,1,0,90,0,0
162610,-150.944321805249,4,1,0,90,0,0
162738,-153.842307884606,4,1,0,90,0,0
162866,-156.853749299077,4,1,0,90,0,0
162995,-160.010400416017,4,1,0,90,0,0
163123,-163.270720577311,4,1,0,90,0,0
163251,-166.666666666667,4,1,0,90,0,0
163336,-163.231282206729,4,1,0,90,0,0
163422,-159.896668448245,4,1,0,90,0,0
163507,-156.732056580709,4,1,0,90,0,0
163636,-152.161627578412,4,1,0,90,0,0
163764,-147.882682484759,4,1,0,90,0,0
163892,-143.837811848924,4,1,0,90,0,0
163956,-141.897233201581,4,1,0,90,0,0
164020,-140.008319900161,4,1,0,90,0,0
164148,-136.377450235527,4,1,0,90,0,0
164277,-132.903894565378,4,1,0,90,0,0
164405,-129.627846516778,4,1,0,90,0,0
164533,-126.50942066438,4,1,0,90,0,0
164661,-123.537508602891,4,1,0,90,0,0
164789,-120.702021786883,4,1,0,90,0,0
164875,-118.868924109311,4,1,0,90,0,0
164960,-117.111043451785,4,1,0,90,0,0
165046,-115.384615384615,4,1,0,90,0,0
165174,-112.907283935086,4,1,0,90,0,0
165302,-110.534094174638,4,1,0,90,0,0
165430,-108.258614450565,4,1,0,90,0,0
165495,-107.138593768652,4,1,0,90,0,0
165559,-106.058218773388,4,1,0,90,0,0
165687,-103.961542916715,4,1,0,90,0,0
165815,-101.946158797471,4,1,0,90,0,0
165943,-100.007428592653,4,1,0,90,0,0
166071,-98.141060688901,4,1,0,90,0,0
166200,-96.329290544167,4,1,0,90,0,0
166328,-94.596493693567,4,1,0,90,0,0
166392,-93.753264389429,4,1,0,90,0,0
166456,-92.924935289042,4,1,0,90,0,0
166520,-92.111114912251,4,1,0,90,0,0
166584,-91.311425373894,4,1,0,90,0,0
166712,-89.752991766392,4,1,0,90,0,0
166841,-88.235294117647,4,1,0,90,0,0
166969,-86.779256776356,4,1,0,90,0,0
167033,-86.069111018764,4,1,0,90,0,0
167097,-85.370493674498,4,1,0,90,0,0
167225,-84.006739259305,4,1,0,90,0,0
167354,-82.675714680505,4,1,0,90,0,0
167482,-81.396051875812,4,1,0,90,0,0
167546,-80.770961451927,4,1,0,90,0,0
167610,-80.155398767527,4,1,0,90,0,0
167738,-78.951998357916,4,1,0,90,0,0
167866,-77.784197602196,4,1,0,90,0,0
167930,-77.21315706461,4,1,0,90,0,0
167995,-76.641712447696,4,1,0,90,0,0
168059,-76.087263684404,4,1,0,90,0,0
168123,-75.540779395674,4,1,0,90,0,0
168187,-75.002089194685,4,1,0,90,0,0
168251,-74.471027520398,4,1,0,90,0,0
168315,-73.947433467908,4,1,0,90,0,0
168379,-73.431150625903,4,1,0,90,0,0
168507,-72.419914467845,4,1,0,90,0,0
168604,-125,3,1,0,80,0,0
169373,-125,3,1,0,100,0,0
169405,-71.428571428571,4,1,0,100,0,1
169490,-71.996817820207,4,1,0,100,0,1
169576,-72.581025616833,4,1,0,100,0,1
169661,-73.167831835259,4,1,0,100,0,1
169789,-74.069616291946,4,1,0,100,0,1
169854,-74.536117436171,4,1,0,100,0,1
169918,-75.001218739336,4,1,0,100,0,1
170046,-75.949054647776,4,1,0,100,0,1
170174,-76.921153942303,4,1,0,100,0,1
170302,-77.918460369714,4,1,0,100,0,1
170366,-78.426874649539,4,1,0,100,0,1
170430,-78.941967263585,4,1,0,100,0,1
170559,-80.00103998752,4,1,0,100,0,1
170687,-81.080368906456,4,1,0,100,0,1
170815,-82.189219509589,4,1,0,100,0,1
170943,-83.328819801766,4,1,0,100,0,1
171029,-84.112405007927,4,1,0,100,0,1
171114,-84.901495502456,4,1,0,100,0,1
171200,-85.715081620146,4,1,0,100,0,1
171328,-86.95529305375,4,1,0,100,0,1
171392,-87.588955308853,4,1,0,100,0,1
171456,-88.231920628548,4,1,0,100,0,1
171584,-89.546592165765,4,1,0,100,0,1
171712,-90.901033973412,4,1,0,100,0,1
171777,-91.604644239357,4,1,0,100,0,1
171841,-92.308153836923,4,1,0,100,0,1
171905,-93.022552754096,4,1,0,100,0,1
171969,-93.74809578941,4,1,0,100,0,1
172097,-95.233673785206,4,1,0,100,0,1
172225,-96.767092269954,4,1,0,100,0,1
172354,-98.363276005371,4,1,0,100,0,1
172482,-100,4,1,0,100,0,1
172546,-100.838959166284,4,1,0,100,0,1
172610,-101.69211448212,4,1,0,100,0,1
172674,-102.55982934471,4,1,0,100,0,1
172738,-103.442479661131,4,1,0,100,0,1
172866,-105.254156119587,4,1,0,100,0,1
172995,-107.145344383314,4,1,0,100,0,1
173123,-109.090264482734,4,1,0,100,0,1
173251,-111.107099010616,4,1,0,100,0,1
173379,-113.199911706276,4,1,0,100,0,1
173443,-114.276164302161,4,1,0,100,0,1
173507,-115.373078365204,4,1,0,100,0,1
173636,-117.649307945247,4,1,0,100,0,1
173764,-119.998440059278,4,1,0,100,0,1
173892,-122.443294866693,4,1,0,100,0,1
174020,-124.989844828987,4,1,0,100,0,1
174084,-126.303259174124,4,1,0,100,0,1
174148,-127.644569816643,4,1,0,100,0,1
174212,-129.014675052411,4,1,0,100,0,1
174277,-130.436625688851,4,1,0,100,0,1
174405,-133.330444579253,4,1,0,100,0,1
174533,-136.355579189932,4,1,0,100,0,1
174661,-139.521175296998,4,1,0,100,0,1
174789,-142.837248166373,4,1,0,100,0,1
174854,-144.58227610187,4,1,0,100,0,1
174918,-146.342623418625,4,1,0,100,0,1
174982,-148.146364949446,4,1,0,100,0,1
175046,-149.995125280296,4,1,0,100,0,1
175174,-153.834616538346,4,1,0,100,0,1
175238,-155.829028664033,4,1,0,100,0,1
175302,-157.875833760903,4,1,0,100,0,1
175430,-162.135103804405,4,1,0,100,0,1
175559,-166.666666666667,4,1,0,100,0,1
175644,-159.330985915493,4,1,0,100,0,1
175730,-152.538171723181,4,1,0,100,0,1
175815,-146.370469032442,4,1,0,100,0,1
175943,-137.969688817146,4,1,0,100,0,1
176007,-134.120826431872,4,1,0,100,0,1
176071,-130.48087524383,4,1,0,100,0,1
176200,-123.713412672885,4,1,0,100,0,1
176328,-117.658305292138,4,1,0,100,0,1
176456,-112.168270632838,4,1,0,100,0,1
176520,-109.611000284981,4,1,0,100,0,1
176584,-107.167734745054,4,1,0,100,0,1
176648,-104.831016625784,4,1,0,100,0,1
176712,-102.594025073353,4,1,0,100,0,1
176777,-100.417727302395,4,1,0,100,0,1
176841,-98.363276005371,4,1,0,100,0,1
176969,-94.49665253977,4,1,0,100,0,1
177097,-90.922522309556,4,1,0,100,0,1
177183,-88.669240965939,4,1,0,100,0,1
177268,-86.549279927993,4,1,0,100,0,1
177354,-84.505108206086,4,1,0,100,0,1
177418,-83.045449638346,4,1,0,100,0,1
177482,-81.635360288655,4,1,0,100,0,1
177546,-80.272357299384,4,1,0,100,0,1
177610,-78.954120907318,4,1,0,100,0,1
177738,-76.443406538806,4,1,0,100,0,1
177866,-74.08745064047,4,1,0,100,0,1
177995,-71.855588249031,4,1,0,100,0,1
178059,-70.797478256868,4,1,0,100,0,1
178123,-69.770078454492,4,1,0,100,0,1
178187,-68.772070984757,4,1,0,100,0,1
178251,-67.80221233088,4,1,0,100,0,1
178315,-66.859328147408,4,1,0,100,0,1
178379,-65.942308516566,4,1,0,100,0,1
178443,-65.0501035897,4,1,0,100,0,1
178507,-64.181719577823,4,1,0,100,0,1
178571,-63.336215059075,4,1,0,100,0,1
178604,-63.336215059075,4,1,0,80,0,1
178636,-62.4999999999996,4,1,0,80,0,0
178721,-63.710362254303,4,1,0,80,0,0
178807,-64.983627337066,4,1,0,80,0,0
178892,-66.293103448276,4,1,0,80,0,0
178977,-67.656439019026,4,1,0,80,0,0
179063,-69.094094656214,4,1,0,80,0,0
179148,-70.576358296623,4,1,0,80,0,0
179234,-72.142220554435,4,1,0,80,0,0
179319,-73.759681557682,4,1,0,80,0,0
179405,-75.471698113208,4,1,0,80,0,0
179490,-77.243734619055,4,1,0,80,0,0
179576,-79.123366601502,4,1,0,80,0,0
179661,-81.073245301916,4,1,0,80,0,0
179747,-83.146371131234,4,1,0,80,0,0
179832,-85.302273987798,4,1,0,80,0,0
179918,-87.600387309905,4,1,0,80,0,0
180003,-89.996781649551,4,1,0,80,0,0
180089,-92.558601390184,4,1,0,80,0,0
180174,-95.238095238095,4,1,0,80,0,0
180302,-99.579151829071,4,1,0,80,0,0
180430,-104.334848382064,4,1,0,80,0,0
180559,-109.610519188968,4,1,0,80,0,0
180687,-115.400487713375,4,1,0,80,0,0
180815,-121.836257773201,4,1,0,80,0,0
180943,-129.032258064516,4,1,0,80,0,0
181200,-146.392537597563,4,1,0,80,0,0

[HitObjects]
256,192,4790,5,4,0:0:0:0:
256,192,5046,1,0,0:0:0:0:
256,192,5303,1,0,0:0:0:0:
256,192,5559,1,8,0:0:0:0:
256,192,5816,1,0,0:0:0:0:
256,192,6072,1,0,0:0:0:0:
256,192,6585,1,0,0:0:0:0:
256,192,6841,1,0,0:0:0:0:
256,192,7098,1,8,0:0:0:0:
256,192,7354,1,8,0:0:0:0:
256,192,7482,1,8,0:0:0:0:
256,192,7610,1,8,0:0:0:0:
256,192,7739,1,8,0:0:0:0:
256,192,7867,1,0,0:0:0:0:
256,192,8123,1,0,0:0:0:0:
256,192,8380,1,0,0:0:0:0:
256,192,8636,1,8,0:0:0:0:
256,192,8893,1,0,0:0:0:0:
256,192,9149,1,0,0:0:0:0:
256,192,9662,1,0,0:0:0:0:
256,192,9790,1,0,0:0:0:0:
256,192,10046,1,0,0:0:0:0:
256,192,10175,1,8,0:0:0:0:
256,192,10431,1,8,0:0:0:0:
256,192,10559,1,0,0:0:0:0:
256,192,10687,1,8,0:0:0:0:
256,192,10816,1,0,0:0:0:0:
256,192,10944,1,0,0:0:0:0:
256,192,11713,1,0,0:0:0:0:
256,192,12482,1,0,0:0:0:0:
256,192,12739,1,0,0:0:0:0:
256,192,12995,1,0,0:0:0:0:
256,192,13251,1,0,0:0:0:0:
256,192,13380,1,0,0:0:0:0:
256,192,13508,1,0,0:0:0:0:
256,192,13636,1,0,0:0:0:0:
256,192,13764,1,12,0:0:0:0:
256,192,13893,1,12,0:0:0:0:
256,192,14021,1,4,0:0:0:0:
256,192,14277,1,0,0:0:0:0:
256,192,14534,1,0,0:0:0:0:
256,192,14790,1,8,0:0:0:0:
256,192,15046,1,0,0:0:0:0:
256,192,15303,1,0,0:0:0:0:
256,192,15816,1,0,0:0:0:0:
256,192,15944,1,8,0:0:0:0:
256,192,16008,1,8,0:0:0:0:
256,192,16072,1,8,0:0:0:0:
256,192,16136,1,0,0:0:0:0:
256,192,16200,1,8,0:0:0:0:
256,192,16328,1,8,0:0:0:0:
256,192,16393,1,8,0:0:0:0:
256,192,16521,1,0,0:0:0:0:
256,192,16585,1,8,0:0:0:0:
256,192,16713,1,0,0:0:0:0:
256,192,16841,1,0,0:0:0:0:
256,192,16905,1,8,0:0:0:0:
256,192,16969,1,8,0:0:0:0:
256,192,17034,1,8,0:0:0:0:
256,192,17098,1,8,0:0:0:0:
256,192,17354,1,0,0:0:0:0:
256,192,17610,1,0,0:0:0:0:
256,192,17867,1,8,0:0:0:0:
256,192,18123,1,0,0:0:0:0:
256,192,18380,1,0,0:0:0:0:
256,192,18508,1,0,0:0:0:0:
256,192,18636,1,8,0:0:0:0:
256,192,18893,1,0,0:0:0:0:
256,192,19085,1,0,0:0:0:0:
256,192,19149,1,8,0:0:0:0:
256,192,19341,1,8,0:0:0:0:
256,192,19405,1,0,0:0:0:0:
256,192,19534,1,12,0:0:0:0:
256,192,19662,1,0,0:0:0:0:
256,192,19790,1,8,0:0:0:0:
256,192,19854,1,0,0:0:0:0:
256,192,19918,1,0,0:0:0:0:
256,192,19982,1,8,0:0:0:0:
256,192,20046,1,8,0:0:0:0:
256,192,20110,1,8,0:0:0:0:
256,192,20175,1,8,0:0:0:0:
256,192,20431,1,0,0:0:0:0:
256,192,20559,1,0,0:0:0:0:
256,192,20687,1,0,0:0:0:0:
256,192,20816,1,0,0:0:0:0:
256,192,20944,1,8,0:0:0:0:
256,192,21200,1,0,0:0:0:0:
256,192,21328,1,0,0:0:0:0:
256,192,21457,1,8,0:0:0:0:
256,192,21585,1,0,0:0:0:0:
256,192,21713,1,0,0:0:0:0:
256,192,21969,1,0,0:0:0:0:
256,192,22098,1,8,0:0:0:0:
256,192,22226,1,8,0:0:0:0:
256,192,22354,1,8,0:0:0:0:
256,192,22482,1,8,0:0:0:0:
256,192,22610,1,0,0:0:0:0:
256,192,22675,1,0,0:0:0:0:
256,192,22739,1,8,0:0:0:0:
256,192,22867,1,0,0:0:0:0:
256,192,22931,1,8,0:0:0:0:
256,192,22995,1,0,0:0:0:0:
256,192,23059,1,0,0:0:0:0:
256,192,23123,1,8,0:0:0:0:
256,192,23187,1,8,0:0:0:0:
256,192,23251,1,8,0:0:0:0:
256,192,23508,1,0,0:0:0:0:
256,192,23636,1,8,0:0:0:0:
256,192,23700,1,8,0:0:0:0:
256,192,23764,1,8,0:0:0:0:
256,192,24021,1,8,0:0:0:0:
256,192,24277,1,0,0:0:0:0:
256,192,24405,1,0,0:0:0:0:
256,192,24534,1,0,0:0:0:0:
256,192,24662,1,8,0:0:0:0:
256,192,24790,1,8,0:0:0:0:
256,192,24854,1,0,0:0:0:0:
256,192,24918,1,8,0:0:0:0:
256,192,25046,1,0,0:0:0:0:
256,192,25175,1,8,0:0:0:0:
256,192,25303,1,8,0:0:0:0:
256,192,25367,1,8,0:0:0:0:
256,192,25559,1,0,0:0:0:0:
256,192,25816,1,12,0:0:0:0:
256,192,25944,1,8,0:0:0:0:
256,192,26008,1,8,0:0:0:0:
256,192,26072,1,8,0:0:0:0:
256,192,26200,1,8,0:0:0:0:
256,192,26328,1,0,0:0:0:0:
256,192,26457,1,8,0:0:0:0:
256,192,26585,1,8,0:0:0:0:
256,192,26713,1,0,0:0:0:0:
256,192,26841,1,8,0:0:0:0:
256,192,26969,1,0,0:0:0:0:
256,192,27098,1,8,0:0:0:0:
256,192,27354,1,8,0:0:0:0:
256,192,27482,1,8,0:0:0:0:
256,192,27610,1,8,0:0:0:0:
256,192,27739,1,0,0:0:0:0:
256,192,27867,1,8,0:0:0:0:
256,192,27995,1,8,0:0:0:0:
256,192,28123,1,0,0:0:0:0:
256,192,28251,1,8,0:0:0:0:
256,192,28380,1,0,0:0:0:0:
256,192,28508,1,0,0:0:0:0:
256,192,28636,1,8,0:0:0:0:
256,192,28764,1,0,0:0:0:0:
256,192,28828,1,0,0:0:0:0:
256,192,28893,1,8,0:0:0:0:
256,192,29021,1,0,0:0:0:0:
256,192,29085,1,8,0:0:0:0:
256,192,29149,1,0,0:0:0:0:
256,192,29213,1,0,0:0:0:0:
256,192,29277,1,8,0:0:0:0:
256,192,29341,1,8,0:0:0:0:
256,192,29405,1,0,0:0:0:0:
256,192,34790,5,0,0:0:0:0:
256,192,34918,1,8,0:0:0:0:
256,192,35046,1,8,0:0:0:0:
256,192,35175,1,0,0:0:0:0:
256,192,35303,1,8,0:0:0:0:
256,192,35431,1,8,0:0:0:0:
256,192,35559,1,0,0:0:0:0:
256,192,35645,1,8,0:0:0:0:
256,192,35730,1,0,0:0:0:0:
256,192,35816,1,0,0:0:0:0:
256,192,35944,1,0,0:0:0:0:
256,192,36072,1,8,0:0:0:0:
256,192,36200,1,8,0:0:0:0:
256,192,36328,1,0,0:0:0:0:
256,192,36457,1,8,0:0:0:0:
256,192,36585,1,8,0:0:0:0:
256,192,36713,1,0,0:0:0:0:
256,192,36841,1,0,0:0:0:0:
256,192,36969,1,8,0:0:0:0:
256,192,37098,1,0,0:0:0:0:
256,192,37183,1,8,0:0:0:0:
256,192,37269,1,8,0:0:0:0:
256,192,37354,1,0,0:0:0:0:
256,192,37482,1,8,0:0:0:0:
256,192,37610,1,8,0:0:0:0:
256,192,37739,1,8,0:0:0:0:
256,192,37867,1,0,0:0:0:0:
256,192,37995,1,8,0:0:0:0:
256,192,38123,1,0,0:0:0:0:
256,192,38251,1,0,0:0:0:0:
256,192,38380,1,0,0:0:0:0:
256,192,38508,1,8,0:0:0:0:
256,192,38636,1,8,0:0:0:0:
256,192,38764,1,8,0:0:0:0:
256,192,38893,1,0,0:0:0:0:
256,192,39021,1,0,0:0:0:0:
256,192,39149,1,8,0:0:0:0:
256,192,39277,1,0,0:0:0:0:
256,192,39405,1,8,0:0:0:0:
256,192,39534,1,8,0:0:0:0:
256,192,39662,1,0,0:0:0:0:
256,192,39790,1,8,0:0:0:0:
256,192,39918,1,0,0:0:0:0:
256,192,40046,1,0,0:0:0:0:
256,192,40175,1,8,0:0:0:0:
256,192,40303,1,0,0:0:0:0:
256,192,40431,1,0,0:0:0:0:
256,192,40559,1,8,0:0:0:0:
256,192,40687,1,8,0:0:0:0:
256,192,40816,1,8,0:0:0:0:
256,192,40944,1,0,0:0:0:0:
256,192,41072,1,8,0:0:0:0:
256,192,41200,1,0,0:0:0:0:
256,192,41328,1,8,0:0:0:0:
256,192,41457,1,8,0:0:0:0:
256,192,41585,1,8,0:0:0:0:
256,192,41713,1,0,0:0:0:0:
256,192,42482,1,0,0:0:0:0:
256,192,42995,1,8,0:0:0:0:
256,192,43251,1,0,0:0:0:0:
256,192,43764,1,8,0:0:0:0:
256,192,44021,1,0,0:0:0:0:
256,192,44277,1,8,0:0:0:0:
256,192,44534,1,8,0:0:0:0:
256,192,44790,1,0,0:0:0:0:
256,192,45046,1,8,0:0:0:0:
256,192,45303,1,8,0:0:0:0:
256,192,45559,1,0,0:0:0:0:
256,192,45816,1,8,0:0:0:0:
256,192,45944,1,8,0:0:0:0:
256,192,46072,1,8,0:0:0:0:
256,192,46328,1,0,0:0:0:0:
256,192,46585,1,8,0:0:0:0:
256,192,46713,1,8,0:0:0:0:
256,192,46841,1,8,0:0:0:0:
256,192,46969,1,8,0:0:0:0:
256,192,47098,1,0,0:0:0:0:
256,192,47226,1,0,0:0:0:0:
256,192,47354,1,8,0:0:0:0:
256,192,47482,1,8,0:0:0:0:
256,192,47610,1,8,0:0:0:0:
256,192,47739,1,8,0:0:0:0:
256,192,47867,1,0,0:0:0:0:
256,192,48123,1,8,0:0:0:0:
256,192,48251,1,8,0:0:0:0:
256,192,48380,1,0,0:0:0:0:
256,192,48636,1,0,0:0:0:0:
256,192,48893,1,8,0:0:0:0:
256,192,49021,1,8,0:0:0:0:
256,192,49149,1,0,0:0:0:0:
256,192,49277,1,8,0:0:0:0:
256,192,49405,1,0,0:0:0:0:
256,192,49662,1,8,0:0:0:0:
256,192,49790,1,8,0:0:0:0:
256,192,49918,1,0,0:0:0:0:
256,192,50046,1,8,0:0:0:0:
256,192,50175,1,0,0:0:0:0:
256,192,50303,1,8,0:0:0:0:
256,192,50431,1,8,0:0:0:0:
256,192,50559,1,8,0:0:0:0:
256,192,50687,1,0,0:0:0:0:
256,192,50816,1,8,0:0:0:0:
256,192,50944,1,0,0:0:0:0:
256,192,51200,1,0,0:0:0:0:
256,192,51328,1,0,0:0:0:0:
256,192,51457,1,8,0:0:0:0:
256,192,51585,1,8,0:0:0:0:
256,192,51713,1,0,0:0:0:0:
256,192,51841,1,8,0:0:0:0:
256,192,51969,1,0,0:0:0:0:
256,192,52098,1,0,0:0:0:0:
256,192,52226,1,8,0:0:0:0:
256,192,52354,1,8,0:0:0:0:
256,192,52482,1,0,0:0:0:0:
256,192,52546,1,8,0:0:0:0:
256,192,52610,1,0,0:0:0:0:
256,192,52675,1,0,0:0:0:0:
256,192,52739,1,8,0:0:0:0:
256,192,52803,1,8,0:0:0:0:
256,192,52867,1,0,0:0:0:0:
256,192,52931,1,0,0:0:0:0:
256,192,52995,1,8,0:0:0:0:
256,192,53059,1,8,0:0:0:0:
256,192,53123,1,8,0:0:0:0:
256,192,53187,1,0,0:0:0:0:
256,192,53251,1,8,0:0:0:0:
256,192,53380,1,8,0:0:0:0:
256,192,53508,1,8,0:0:0:0:
256,192,53636,1,8,0:0:0:0:
256,192,53764,1,8,0:0:0:0:
256,192,53893,1,8,0:0:0:0:
256,192,54021,5,4,0:0:0:0:
256,192,54534,1,8,0:0:0:0:
256,192,54790,1,8,0:0:0:0:
256,192,54854,1,8,0:0:0:0:
256,192,54918,1,0,0:0:0:0:
256,192,54982,1,0,0:0:0:0:
256,192,55046,1,8,0:0:0:0:
256,192,55110,1,0,0:0:0:0:
256,192,55175,1,8,0:0:0:0:
256,192,55239,1,8,0:0:0:0:
256,192,55303,1,0,0:0:0:0:
256,192,55367,1,0,0:0:0:0:
256,192,55431,1,8,0:0:0:0:
256,192,55495,1,0,0:0:0:0:
256,192,55559,1,8,0:0:0:0:
256,192,55623,1,8,0:0:0:0:
256,192,55687,1,0,0:0:0:0:
256,192,55751,1,8,0:0:0:0:
256,192,55816,1,0,0:0:0:0:
256,192,55944,1,8,0:0:0:0:
256,192,56008,1,8,0:0:0:0:
256,192,56072,1,8,0:0:0:0:
256,192,56136,1,0,0:0:0:0:
256,192,56200,1,0,0:0:0:0:
256,192,56264,1,0,0:0:0:0:
256,192,56328,1,8,0:0:0:0:
256,192,56393,1,8,0:0:0:0:
256,192,56457,1,0,0:0:0:0:
256,192,56521,1,8,0:0:0:0:
256,192,56585,1,0,0:0:0:0:
256,192,56649,1,0,0:0:0:0:
256,192,56713,1,8,0:0:0:0:
256,192,56777,1,0,0:0:0:0:
256,192,56841,1,8,0:0:0:0:
256,192,56905,1,8,0:0:0:0:
256,192,56969,1,0,0:0:0:0:
256,192,57034,1,8,0:0:0:0:
256,192,57098,1,0,0:0:0:0:
256,192,57482,1,8,0:0:0:0:
256,192,57525,1,8,0:0:0:0:
256,192,57568,1,8,0:0:0:0:
256,192,57610,1,0,0:0:0:0:
256,192,57675,1,0,0:0:0:0:
256,192,57739,1,0,0:0:0:0:
256,192,57867,1,8,0:0:0:0:
256,192,57931,1,8,0:0:0:0:
256,192,57995,1,0,0:0:0:0:
256,192,58059,1,0,0:0:0:0:
256,192,58123,1,8,0:0:0:0:
256,192,58187,1,0,0:0:0:0:
256,192,58251,1,8,0:0:0:0:
256,192,58316,1,8,0:0:0:0:
256,192,58380,1,0,0:0:0:0:
256,192,58444,1,0,0:0:0:0:
256,192,58508,1,8,0:0:0:0:
256,192,58572,1,0,0:0:0:0:
256,192,58636,1,8,0:0:0:0:
256,192,58700,1,8,0:0:0:0:
256,192,58764,1,0,0:0:0:0:
256,192,58828,1,8,0:0:0:0:
256,192,58893,1,0,0:0:0:0:
256,192,59021,1,8,0:0:0:0:
256,192,59085,1,8,0:0:0:0:
256,192,59149,1,8,0:0:0:0:
256,192,59213,1,0,0:0:0:0:
256,192,59277,1,0,0:0:0:0:
256,192,59341,1,0,0:0:0:0:
256,192,59405,1,8,0:0:0:0:
256,192,59469,1,8,0:0:0:0:
256,192,59534,1,0,0:0:0:0:
256,192,59598,1,8,0:0:0:0:
256,192,59662,1,0,0:0:0:0:
256,192,59726,1,0,0:0:0:0:
256,192,59790,1,8,0:0:0:0:
256,192,59854,1,0,0:0:0:0:
256,192,59918,1,0,0:0:0:0:
256,192,59982,1,8,0:0:0:0:
256,192,60046,1,8,0:0:0:0:
256,192,60110,1,8,0:0:0:0:
256,192,60175,1,0,0:0:0:0:
256,192,60367,1,0,0:0:0:0:
256,192,60410,1,8,0:0:0:0:
256,192,60452,1,8,0:0:0:0:
256,192,60495,1,8,0:0:0:0:
256,192,60559,1,0,0:0:0:0:
256,192,60623,1,0,0:0:0:0:
256,192,60687,1,8,0:0:0:0:
256,192,60816,1,0,0:0:0:0:
256,192,60944,1,8,0:0:0:0:
256,192,60987,1,8,0:0:0:0:
256,192,61029,1,0,0:0:0:0:
256,192,61200,1,8,0:0:0:0:
256,192,61243,1,8,0:0:0:0:
256,192,61286,1,0,0:0:0:0:
256,192,61457,1,8,0:0:0:0:
256,192,61499,1,8,0:0:0:0:
256,192,61542,1,0,0:0:0:0:
256,192,61713,1,8,0:0:0:0:
256,192,61756,1,8,0:0:0:0:
256,192,61799,1,0,0:0:0:0:
256,192,61969,1,8,0:0:0:0:
256,192,62012,1,8,0:0:0:0:
256,192,62055,1,0,0:0:0:0:
256,192,62226,1,8,0:0:0:0:
256,192,62269,1,8,0:0:0:0:
256,192,62311,1,0,0:0:0:0:
256,192,62482,1,8,0:0:0:0:
256,192,62525,1,8,0:0:0:0:
256,192,62568,1,0,0:0:0:0:
256,192,62739,1,8,0:0:0:0:
256,192,62781,1,8,0:0:0:0:
256,192,62824,1,0,0:0:0:0:
256,192,62995,1,8,0:0:0:0:
256,192,63038,1,8,0:0:0:0:
256,192,63081,1,0,0:0:0:0:
256,192,63251,1,0,0:0:0:0:
256,192,63764,1,0,0:0:0:0:
256,192,63807,1,0,0:0:0:0:
256,192,63850,1,0,0:0:0:0:
256,192,63893,1,0,0:0:0:0:
256,192,64021,1,8,0:0:0:0:
256,192,64063,1,8,0:0:0:0:
256,192,64106,1,0,0:0:0:0:
256,192,64277,1,8,0:0:0:0:
256,192,64320,1,8,0:0:0:0:
256,192,64363,1,0,0:0:0:0:
256,192,64534,1,8,0:0:0:0:
256,192,64576,1,0,0:0:0:0:
256,192,64662,1,8,0:0:0:0:
256,192,64704,1,0,0:0:0:0:
256,192,64790,1,8,0:0:0:0:
256,192,64833,1,8,0:0:0:0:
256,192,64875,1,8,0:0:0:0:
256,192,64918,1,8,0:0:0:0:
256,192,65046,1,0,0:0:0:0:
256,192,65217,1,8,0:0:0:0:
256,192,65303,1,8,0:0:0:0:
256,192,65431,1,8,0:0:0:0:
256,192,65559,1,8,0:0:0:0:
256,192,65602,1,8,0:0:0:0:
256,192,65687,1,0,0:0:0:0:
256,192,65730,1,0,0:0:0:0:
256,192,65816,1,12,0:0:0:0:
256,192,65944,1,12,0:0:0:0:
256,192,66072,1,4,0:0:0:0:
256,192,66200,1,12,0:0:0:0:
256,192,66328,1,4,0:0:0:0:
256,192,66841,1,8,0:0:0:0:
256,192,67098,1,8,0:0:0:0:
256,192,67162,1,0,0:0:0:0:
256,192,67226,1,0,0:0:0:0:
256,192,67290,1,8,0:0:0:0:
256,192,67354,1,8,0:0:0:0:
256,192,67418,1,0,0:0:0:0:
256,192,67482,1,0,0:0:0:0:
256,192,67546,1,8,0:0:0:0:
256,192,67610,1,8,0:0:0:0:
256,192,67675,1,0,0:0:0:0:
256,192,67739,1,0,0:0:0:0:
256,192,67803,1,8,0:0:0:0:
256,192,67867,1,8,0:0:0:0:
256,192,67931,1,0,0:0:0:0:
256,192,67995,1,0,0:0:0:0:
256,192,68059,1,8,0:0:0:0:
256,192,68123,1,0,0:0:0:0:
256,192,68251,1,0,0:0:0:0:
256,192,68316,1,8,0:0:0:0:
256,192,68380,1,8,0:0:0:0:
256,192,68444,1,0,0:0:0:0:
256,192,68508,1,0,0:0:0:0:
256,192,68572,1,8,0:0:0:0:
256,192,68636,1,8,0:0:0:0:
256,192,68700,1,0,0:0:0:0:
256,192,68764,1,0,0:0:0:0:
256,192,68828,1,8,0:0:0:0:
256,192,68893,1,8,0:0:0:0:
256,192,68957,1,0,0:0:0:0:
256,192,69021,1,0,0:0:0:0:
256,192,69085,1,8,0:0:0:0:
256,192,69149,1,8,0:0:0:0:
256,192,69213,1,0,0:0:0:0:
256,192,69277,1,0,0:0:0:0:
256,192,69341,1,8,0:0:0:0:
256,192,69405,1,0,0:0:0:0:
256,192,69790,1,8,0:0:0:0:
256,192,69833,1,8,0:0:0:0:
256,192,69875,1,8,0:0:0:0:
256,192,69918,1,0,0:0:0:0:
256,192,69982,1,0,0:0:0:0:
256,192,70046,1,0,0:0:0:0:
256,192,70175,1,8,0:0:0:0:
256,192,70239,1,0,0:0:0:0:
256,192,70303,1,0,0:0:0:0:
256,192,70367,1,8,0:0:0:0:
256,192,70431,1,8,0:0:0:0:
256,192,70495,1,0,0:0:0:0:
256,192,70559,1,0,0:0:0:0:
256,192,70623,1,8,0:0:0:0:
256,192,70687,1,8,0:0:0:0:
256,192,70751,1,0,0:0:0:0:
256,192,70816,1,8,0:0:0:0:
256,192,70880,1,8,0:0:0:0:
256,192,70944,1,8,0:0:0:0:
256,192,71008,1,0,0:0:0:0:
256,192,71072,1,0,0:0:0:0:
256,192,71136,1,8,0:0:0:0:
256,192,71200,1,0,0:0:0:0:
256,192,71328,1,0,0:0:0:0:
256,192,71393,1,8,0:0:0:0:
256,192,71457,1,8,0:0:0:0:
256,192,71521,1,0,0:0:0:0:
256,192,71585,1,0,0:0:0:0:
256,192,71649,1,8,0:0:0:0:
256,192,71713,1,8,0:0:0:0:
256,192,71777,1,0,0:0:0:0:
256,192,71841,1,0,0:0:0:0:
256,192,71905,1,8,0:0:0:0:
256,192,71969,1,8,0:0:0:0:
256,192,72034,1,0,0:0:0:0:
256,192,72098,1,8,0:0:0:0:
256,192,72162,1,8,0:0:0:0:
256,192,72226,1,8,0:0:0:0:
256,192,72290,1,0,0:0:0:0:
256,192,72354,1,0,0:0:0:0:
256,192,72418,1,8,0:0:0:0:
256,192,72482,1,0,0:0:0:0:
256,192,72675,1,0,0:0:0:0:
256,192,72717,1,8,0:0:0:0:
256,192,72760,1,8,0:0:0:0:
256,192,72803,1,8,0:0:0:0:
256,192,72867,1,0,0:0:0:0:
256,192,72931,1,0,0:0:0:0:
256,192,72995,1,8,0:0:0:0:
256,192,73123,1,0,0:0:0:0:
256,192,73251,1,8,0:0:0:0:
256,192,73294,1,0,0:0:0:0:
256,192,73337,1,8,0:0:0:0:
256,192,73508,1,0,0:0:0:0:
256,192,73551,1,8,0:0:0:0:
256,192,73593,1,0,0:0:0:0:
256,192,73764,1,8,0:0:0:0:
256,192,73807,1,0,0:0:0:0:
256,192,73850,1,8,0:0:0:0:
256,192,74021,1,0,0:0:0:0:
256,192,74063,1,8,0:0:0:0:
256,192,74106,1,0,0:0:0:0:
256,192,74277,1,8,0:0:0:0:
256,192,74320,1,0,0:0:0:0:
256,192,74363,1,8,0:0:0:0:
256,192,74534,1,0,0:0:0:0:
256,192,74576,1,8,0:0:0:0:
256,192,74619,1,0,0:0:0:0:
256,192,74790,1,8,0:0:0:0:
256,192,74833,1,0,0:0:0:0:
256,192,74875,1,8,0:0:0:0:
256,192,75046,1,0,0:0:0:0:
256,192,75089,1,8,0:0:0:0:
256,192,75132,1,0,0:0:0:0:
256,192,75303,1,8,0:0:0:0:
256,192,75431,1,8,0:0:0:0:
256,192,75559,1,4,0:0:0:0:
256,192,75687,1,0,0:0:0:0:
256,192,75751,1,0,0:0:0:0:
256,192,75816,1,8,0:0:0:0:
256,192,75944,1,8,0:0:0:0:
256,192,76072,1,0,0:0:0:0:
256,192,76200,1,0,0:0:0:0:
256,192,76328,1,8,0:0:0:0:
256,192,76457,1,8,0:0:0:0:
256,192,76521,1,8,0:0:0:0:
256,192,76585,1,0,0:0:0:0:
256,192,76713,1,8,0:0:0:0:
256,192,76841,1,0,0:0:0:0:
256,192,76969,1,8,0:0:0:0:
256,192,77034,1,8,0:0:0:0:
256,192,77098,1,8,0:0:0:0:
256,192,77226,1,8,0:0:0:0:
256,192,77290,1,8,0:0:0:0:
256,192,77354,1,0,0:0:0:0:
256,192,77418,1,0,0:0:0:0:
256,192,77482,1,0,0:0:0:0:
256,192,77610,1,8,0:0:0:0:
256,192,77739,1,0,0:0:0:0:
256,192,77867,1,8,0:0:0:0:
256,192,77995,1,0,0:0:0:0:
256,192,78059,1,8,0:0:0:0:
256,192,78123,1,0,0:0:0:0:
256,192,78187,1,0,0:0:0:0:
256,192,78251,1,8,0:0:0:0:
256,192,78316,1,8,0:0:0:0:
256,192,78380,1,0,0:0:0:0:
256,192,78508,1,0,0:0:0:0:
256,192,78893,5,8,0:0:0:0:
256,192,79149,1,8,0:0:0:0:
256,192,79662,1,8,0:0:0:0:
256,192,79918,1,8,0:0:0:0:
256,192,80431,1,8,0:0:0:0:
256,192,80687,1,8,0:0:0:0:
256,192,81200,1,8,0:0:0:0:
256,192,81457,1,8,0:0:0:0:
256,192,81713,1,0,0:0:0:0:
256,192,82482,1,0,0:0:0:0:
256,192,82546,1,8,0:0:0:0:
256,192,82610,1,8,0:0:0:0:
256,192,82675,1,8,0:0:0:0:
256,192,82739,1,0,0:0:0:0:
256,192,82803,1,0,0:0:0:0:
256,192,82867,1,8,0:0:0:0:
256,192,82931,1,8,0:0:0:0:
256,192,82995,1,0,0:0:0:0:
256,192,83059,1,0,0:0:0:0:
256,192,83123,1,8,0:0:0:0:
256,192,83187,1,0,0:0:0:0:
256,192,83251,1,0,0:0:0:0:
256,192,83380,1,0,0:0:0:0:
256,192,83444,1,0,0:0:0:0:
256,192,83508,1,8,0:0:0:0:
256,192,83572,1,8,0:0:0:0:
256,192,83636,1,8,0:0:0:0:
256,192,83700,1,8,0:0:0:0:
256,192,83764,1,0,0:0:0:0:
256,192,83828,1,8,0:0:0:0:
256,192,83893,1,0,0:0:0:0:
256,192,83957,1,0,0:0:0:0:
256,192,84021,1,8,0:0:0:0:
256,192,84149,1,8,0:0:0:0:
256,192,84277,1,0,0:0:0:0:
256,192,84341,1,0,0:0:0:0:
256,192,84405,1,8,0:0:0:0:
256,192,84469,1,8,0:0:0:0:
256,192,84534,1,0,0:0:0:0:
256,192,84598,1,8,0:0:0:0:
256,192,84662,1,8,0:0:0:0:
256,192,84726,1,8,0:0:0:0:
256,192,84790,1,0,0:0:0:0:
256,192,85046,1,8,0:0:0:0:
256,192,85303,1,8,0:0:0:0:
256,192,85816,1,8,0:0:0:0:
256,192,86072,1,8,0:0:0:0:
256,192,86328,1,0,0:0:0:0:
256,192,86585,1,8,0:0:0:0:
256,192,86841,1,8,0:0:0:0:
256,192,87098,1,0,0:0:0:0:
256,192,87354,1,8,0:0:0:0:
256,192,87610,1,8,0:0:0:0:
256,192,87867,1,0,0:0:0:0:
256,192,88636,1,8,0:0:0:0:
256,192,88700,1,8,0:0:0:0:
256,192,88764,1,8,0:0:0:0:
256,192,88828,1,8,0:0:0:0:
256,192,88893,1,8,0:0:0:0:
256,192,88957,1,8,0:0:0:0:
256,192,89021,1,8,0:0:0:0:
256,192,89085,1,8,0:0:0:0:
256,192,89149,1,8,0:0:0:0:
256,192,89213,1,8,0:0:0:0:
256,192,89277,1,8,0:0:0:0:
256,192,89341,1,8,0:0:0:0:
256,192,89405,1,8,0:0:0:0:
256,192,89469,1,8,0:0:0:0:
256,192,89534,1,8,0:0:0:0:
256,192,89598,1,8,0:0:0:0:
256,192,89662,1,0,0:0:0:0:
256,192,89790,1,0,0:0:0:0:
256,192,89918,1,8,0:0:0:0:
256,192,89982,1,8,0:0:0:0:
256,192,90046,1,0,0:0:0:0:
256,192,90110,1,0,0:0:0:0:
256,192,90175,1,8,0:0:0:0:
256,192,90303,1,0,0:0:0:0:
256,192,90431,1,8,0:0:0:0:
256,192,90495,1,8,0:0:0:0:
256,192,90559,1,0,0:0:0:0:
256,192,90623,1,0,0:0:0:0:
256,192,90687,1,8,0:0:0:0:
256,192,90751,1,8,0:0:0:0:
256,192,90816,1,8,0:0:0:0:
256,192,90880,1,8,0:0:0:0:
256,192,90944,1,0,0:0:0:0:
256,192,91457,1,0,0:0:0:0:
256,192,91713,1,8,0:0:0:0:
256,192,92226,1,0,0:0:0:0:
256,192,92739,1,0,0:0:0:0:
256,192,93123,1,0,0:0:0:0:
256,192,93251,1,8,0:0:0:0:
256,192,93508,1,0,0:0:0:0:
256,192,93764,1,0,0:0:0:0:
256,192,93893,1,0,0:0:0:0:
256,192,94021,1,0,0:0:0:0:
256,192,94619,1,0,0:0:0:0:
256,192,94662,1,0,0:0:0:0:
256,192,94704,1,0,0:0:0:0:
256,192,94747,1,0,0:0:0:0:
256,192,94790,1,8,0:0:0:0:
256,192,94854,1,8,0:0:0:0:
256,192,94918,1,0,0:0:0:0:
256,192,94982,1,0,0:0:0:0:
256,192,95046,1,8,0:0:0:0:
256,192,95110,1,8,0:0:0:0:
256,192,95175,1,8,0:0:0:0:
256,192,95239,1,0,0:0:0:0:
256,192,95303,1,8,0:0:0:0:
256,192,95367,1,8,0:0:0:0:
256,192,95431,1,0,0:0:0:0:
256,192,95495,1,8,0:0:0:0:
256,192,95559,1,0,0:0:0:0:
256,192,95623,1,0,0:0:0:0:
256,192,95687,1,8,0:0:0:0:
256,192,95751,1,8,0:0:0:0:
256,192,95816,1,0,0:0:0:0:
256,192,95880,1,8,0:0:0:0:
256,192,95944,1,8,0:0:0:0:
256,192,96008,1,8,0:0:0:0:
256,192,96072,1,0,0:0:0:0:
256,192,96136,1,8,0:0:0:0:
256,192,96200,1,0,0:0:0:0:
256,192,96264,1,0,0:0:0:0:
256,192,96328,1,8,0:0:0:0:
256,192,96393,1,8,0:0:0:0:
256,192,96457,1,0,0:0:0:0:
256,192,96521,1,0,0:0:0:0:
256,192,96585,1,8,0:0:0:0:
256,192,96649,1,0,0:0:0:0:
256,192,96713,1,0,0:0:0:0:
256,192,96777,1,0,0:0:0:0:
256,192,96841,1,8,0:0:0:0:
256,192,96905,1,8,0:0:0:0:
256,192,96969,1,8,0:0:0:0:
256,192,97034,1,8,0:0:0:0:
256,192,97098,1,0,0:0:0:0:
256,192,97610,1,0,0:0:0:0:
256,192,97867,1,8,0:0:0:0:
256,192,98380,1,0,0:0:0:0:
256,192,98893,1,0,0:0:0:0:
256,192,99277,1,0,0:0:0:0:
256,192,99405,1,8,0:0:0:0:
256,192,99662,1,0,0:0:0:0:
256,192,99790,1,0,0:0:0:0:
256,192,99918,1,8,0:0:0:0:
256,192,100046,1,8,0:0:0:0:
256,192,100175,1,0,0:0:0:0:
256,192,100239,1,0,0:0:0:0:
256,192,100303,1,8,0:0:0:0:
256,192,100367,1,8,0:0:0:0:
256,192,100431,1,0,0:0:0:0:
256,192,100495,1,8,0:0:0:0:
256,192,100559,1,8,0:0:0:0:
256,192,100623,1,8,0:0:0:0:
256,192,100687,1,0,0:0:0:0:
256,192,100816,1,0,0:0:0:0:
256,192,100880,1,0,0:0:0:0:
256,192,100944,1,8,0:0:0:0:
256,192,101008,1,0,0:0:0:0:
256,192,101072,1,8,0:0:0:0:
256,192,101115,1,8,0:0:0:0:
256,192,101157,1,8,0:0:0:0:
256,192,101200,1,0,0:0:0:0:
256,192,101328,1,8,0:0:0:0:
256,192,101393,1,8,0:0:0:0:
256,192,101457,1,0,0:0:0:0:
256,192,101521,1,8,0:0:0:0:
256,192,101585,1,0,0:0:0:0:
256,192,101628,1,0,0:0:0:0:
256,192,101670,1,0,0:0:0:0:
256,192,101713,1,8,0:0:0:0:
256,192,101841,1,8,0:0:0:0:
256,192,101905,1,8,0:0:0:0:
256,192,101969,1,0,0:0:0:0:
256,192,102034,1,0,0:0:0:0:
256,192,102098,1,8,0:0:0:0:
256,192,102162,1,8,0:0:0:0:
256,192,102226,1,8,0:0:0:0:
256,192,102290,1,8,0:0:0:0:
256,192,102354,1,0,0:0:0:0:
256,192,102482,1,8,0:0:0:0:
256,192,102610,1,8,0:0:0:0:
256,192,102739,1,0,0:0:0:0:
256,192,102867,1,0,0:0:0:0:
256,192,102995,1,8,0:0:0:0:
256,192,103123,1,0,0:0:0:0:
256,192,103251,5,12,0:0:0:0:
256,192,104021,1,12,0:0:0:0:
256,192,104790,1,12,0:0:0:0:
256,192,105559,1,12,0:0:0:0:
256,192,106328,1,12,0:0:0:0:
256,192,107098,1,12,0:0:0:0:
256,192,107867,1,4,0:0:0:0:
256,192,108123,1,8,0:0:0:0:
256,192,108380,1,0,0:0:0:0:
256,192,108508,1,0,0:0:0:0:
256,192,108636,1,8,0:0:0:0:
256,192,108893,1,8,0:0:0:0:
256,192,109149,1,0,0:0:0:0:
256,192,109405,1,8,0:0:0:0:
256,192,109662,1,0,0:0:0:0:
256,192,109918,1,8,0:0:0:0:
256,192,110046,1,0,0:0:0:0:
256,192,110175,1,8,0:0:0:0:
256,192,110431,1,0,0:0:0:0:
256,192,110687,1,8,0:0:0:0:
256,192,110816,1,0,0:0:0:0:
256,192,110880,1,0,0:0:0:0:
256,192,110944,1,0,0:0:0:0:
256,192,111200,1,8,0:0:0:0:
256,192,111457,1,0,0:0:0:0:
256,192,111585,1,8,0:0:0:0:
256,192,111713,1,8,0:0:0:0:
256,192,111969,1,8,0:0:0:0:
256,192,112226,1,0,0:0:0:0:
256,192,112397,1,0,0:0:0:0:
256,192,112482,1,8,0:0:0:0:
256,192,112610,1,8,0:0:0:0:
256,192,112739,1,0,0:0:0:0:
256,192,112867,1,0,0:0:0:0:
256,192,112995,1,8,0:0:0:0:
256,192,113059,1,8,0:0:0:0:
256,192,113123,1,0,0:0:0:0:
256,192,113251,1,0,0:0:0:0:
256,192,113316,1,0,0:0:0:0:
256,192,113444,1,8,0:0:0:0:
256,192,113508,1,0,0:0:0:0:
256,192,113636,1,8,0:0:0:0:
256,192,113764,1,0,0:0:0:0:
256,192,113828,1,8,0:0:0:0:
256,192,113893,1,0,0:0:0:0:
256,192,114021,1,0,0:0:0:0:
256,192,114277,1,8,0:0:0:0:
256,192,114405,1,8,0:0:0:0:
256,192,114534,1,0,0:0:0:0:
256,192,114662,1,0,0:0:0:0:
256,192,114790,1,8,0:0:0:0:
256,192,115046,1,8,0:0:0:0:
256,192,115303,1,0,0:0:0:0:
256,192,115431,1,8,0:0:0:0:
256,192,115559,1,0,0:0:0:0:
256,192,115816,1,8,0:0:0:0:
256,192,115944,1,0,0:0:0:0:
256,192,116200,1,0,0:0:0:0:
256,192,116328,1,8,0:0:0:0:
256,192,116457,1,8,0:0:0:0:
256,192,116585,1,0,0:0:0:0:
256,192,116713,1,8,0:0:0:0:
256,192,116841,1,8,0:0:0:0:
256,192,116969,1,8,0:0:0:0:
256,192,117098,1,0,0:0:0:0:
256,192,117354,1,0,0:0:0:0:
256,192,117418,1,0,0:0:0:0:
256,192,117482,1,8,0:0:0:0:
256,192,117610,1,0,0:0:0:0:
256,192,117739,1,0,0:0:0:0:
256,192,117867,1,8,0:0:0:0:
256,192,117995,1,8,0:0:0:0:
256,192,118187,1,8,0:0:0:0:
256,192,118251,1,0,0:0:0:0:
256,192,118380,1,0,0:0:0:0:
256,192,118508,1,8,0:0:0:0:
256,192,118636,1,0,0:0:0:0:
256,192,118764,1,8,0:0:0:0:
256,192,118828,1,8,0:0:0:0:
256,192,118893,1,0,0:0:0:0:
256,192,119021,1,0,0:0:0:0:
256,192,119149,1,8,0:0:0:0:
256,192,119213,1,0,0:0:0:0:
256,192,119277,1,0,0:0:0:0:
256,192,119405,1,8,0:0:0:0:
256,192,119534,1,8,0:0:0:0:
256,192,119598,1,8,0:0:0:0:
256,192,119662,1,0,0:0:0:0:
256,192,119726,1,8,0:0:0:0:
256,192,119790,1,0,0:0:0:0:
256,192,119854,1,0,0:0:0:0:
256,192,119918,1,8,0:0:0:0:
256,192,120046,1,0,0:0:0:0:
256,192,120175,1,12,0:0:0:0:
256,192,120944,1,12,0:0:0:0:
256,192,121457,1,0,0:0:0:0:
256,192,121713,1,0,0:0:0:0:
256,192,121969,1,0,0:0:0:0:
256,192,122098,1,0,0:0:0:0:
256,192,122226,1,0,0:0:0:0:
256,192,122354,1,0,0:0:0:0:
256,192,122482,1,4,0:0:0:0:
256,192,122610,1,4,0:0:0:0:
256,192,122739,1,4,0:0:0:0:
256,192,122867,1,4,0:0:0:0:
256,192,122995,1,4,0:0:0:0:
256,192,123123,1,4,0:0:0:0:
256,192,123251,1,4,0:0:0:0:
256,192,123508,1,8,0:0:0:0:
256,192,123764,1,0,0:0:0:0:
256,192,123893,1,8,0:0:0:0:
256,192,124021,1,8,0:0:0:0:
256,192,124277,1,8,0:0:0:0:
256,192,124534,1,0,0:0:0:0:
256,192,124704,1,0,0:0:0:0:
256,192,124790,1,8,0:0:0:0:
256,192,124918,1,8,0:0:0:0:
256,192,125046,1,0,0:0:0:0:
256,192,125175,1,0,0:0:0:0:
256,192,125303,1,8,0:0:0:0:
256,192,125367,1,8,0:0:0:0:
256,192,125431,1,0,0:0:0:0:
256,192,125559,1,0,0:0:0:0:
256,192,125623,1,0,0:0:0:0:
256,192,125751,1,8,0:0:0:0:
256,192,125816,1,0,0:0:0:0:
256,192,125944,1,8,0:0:0:0:
256,192,126008,1,8,0:0:0:0:
256,192,126072,1,0,0:0:0:0:
256,192,126136,1,8,0:0:0:0:
256,192,126200,1,0,0:0:0:0:
256,192,126264,1,0,0:0:0:0:
256,192,126328,1,0,0:0:0:0:
256,192,126585,1,8,0:0:0:0:
256,192,126713,1,8,0:0:0:0:
256,192,126841,1,0,0:0:0:0:
256,192,126969,1,0,0:0:0:0:
256,192,127034,1,0,0:0:0:0:
256,192,127098,1,8,0:0:0:0:
256,192,127354,1,8,0:0:0:0:
256,192,127482,1,8,0:0:0:0:
256,192,127610,1,0,0:0:0:0:
256,192,127739,1,8,0:0:0:0:
256,192,127867,1,0,0:0:0:0:
256,192,128123,1,8,0:0:0:0:
256,192,128251,1,0,0:0:0:0:
256,192,128316,1,0,0:0:0:0:
256,192,128380,1,8,0:0:0:0:
256,192,128508,1,0,0:0:0:0:
256,192,128636,1,8,0:0:0:0:
256,192,128764,1,8,0:0:0:0:
256,192,128893,1,0,0:0:0:0:
256,192,128978,1,0,0:0:0:0:
256,192,129063,1,0,0:0:0:0:
256,192,129149,1,8,0:0:0:0:
256,192,129277,1,8,0:0:0:0:
256,192,129405,1,0,0:0:0:0:
256,192,129662,1,8,0:0:0:0:
256,192,129918,1,0,0:0:0:0:
256,192,130046,1,0,0:0:0:0:
256,192,130175,1,8,0:0:0:0:
256,192,130303,1,8,0:0:0:0:
256,192,130367,1,8,0:0:0:0:
256,192,130431,1,0,0:0:0:0:
256,192,130559,1,8,0:0:0:0:
256,192,130687,1,0,0:0:0:0:
256,192,130751,1,0,0:0:0:0:
256,192,130816,1,0,0:0:0:0:
256,192,130880,1,0,0:0:0:0:
256,192,130944,1,8,0:0:0:0:
256,192,131072,1,8,0:0:0:0:
256,192,131136,1,8,0:0:0:0:
256,192,131200,1,0,0:0:0:0:
256,192,131328,1,0,0:0:0:0:
256,192,131457,1,8,0:0:0:0:
256,192,131521,1,0,0:0:0:0:
256,192,131585,1,0,0:0:0:0:
256,192,131713,1,8,0:0:0:0:
256,192,131777,1,0,0:0:0:0:
256,192,131841,1,8,0:0:0:0:
256,192,131905,1,8,0:0:0:0:
256,192,131969,1,0,0:0:0:0:
256,192,132034,1,8,0:0:0:0:
256,192,132098,1,0,0:0:0:0:
256,192,132162,1,0,0:0:0:0:
256,192,132226,1,8,0:0:0:0:
256,192,132290,1,0,0:0:0:0:
256,192,132354,1,0,0:0:0:0:
256,192,132418,1,0,0:0:0:0:
256,192,132482,1,8,0:0:0:0:
256,192,144789,5,0,0:0:0:0:
256,192,145046,1,8,0:0:0:0:
256,192,145302,1,8,0:0:0:0:
256,192,145559,1,8,0:0:0:0:
256,192,145815,1,0,0:0:0:0:
256,192,146071,1,8,0:0:0:0:
256,192,146584,1,0,0:0:0:0:
256,192,146841,1,8,0:0:0:0:
256,192,146969,1,0,0:0:0:0:
256,192,147097,1,8,0:0:0:0:
256,192,147354,1,8,0:0:0:0:
256,192,147482,1,0,0:0:0:0:
256,192,147610,1,8,0:0:0:0:
256,192,147738,1,0,0:0:0:0:
256,192,147866,1,0,0:0:0:0:
256,192,148123,1,8,0:0:0:0:
256,192,148251,1,0,0:0:0:0:
256,192,148379,1,8,0:0:0:0:
256,192,148507,1,8,0:0:0:0:
256,192,148636,1,8,0:0:0:0:
256,192,148892,1,0,0:0:0:0:
256,192,149148,1,8,0:0:0:0:
256,192,149661,1,0,0:0:0:0:
256,192,149789,1,0,0:0:0:0:
256,192,149918,1,8,0:0:0:0:
256,192,150046,1,8,0:0:0:0:
256,192,150174,1,8,0:0:0:0:
256,192,150302,1,0,0:0:0:0:
256,192,150430,1,8,0:0:0:0:
256,192,150559,1,0,0:0:0:0:
256,192,150687,1,8,0:0:0:0:
256,192,150815,1,8,0:0:0:0:
256,192,150943,1,0,0:0:0:0:
256,192,151200,1,8,0:0:0:0:
256,192,151456,1,8,0:0:0:0:
256,192,151712,1,8,0:0:0:0:
256,192,151969,1,0,0:0:0:0:
256,192,152225,1,8,0:0:0:0:
256,192,152738,1,0,0:0:0:0:
256,192,152866,1,8,0:0:0:0:
256,192,152995,1,8,0:0:0:0:
256,192,153123,1,0,0:0:0:0:
256,192,153251,1,8,0:0:0:0:
256,192,153507,1,8,0:0:0:0:
256,192,153636,1,0,0:0:0:0:
256,192,153764,1,8,0:0:0:0:
256,192,153892,1,0,0:0:0:0:
256,192,154020,1,0,0:0:0:0:
256,192,154277,1,8,0:0:0:0:
256,192,154405,1,8,0:0:0:0:
256,192,154533,1,8,0:0:0:0:
256,192,154661,1,0,0:0:0:0:
256,192,154789,1,8,0:0:0:0:
256,192,155046,1,0,0:0:0:0:
256,192,155302,1,8,0:0:0:0:
256,192,155430,1,8,0:0:0:0:
256,192,155559,1,0,0:0:0:0:
256,192,155815,1,0,0:0:0:0:
256,192,155943,1,8,0:0:0:0:
256,192,156071,1,8,0:0:0:0:
256,192,156200,1,8,0:0:0:0:
256,192,156264,1,8,0:0:0:0:
256,192,156328,1,8,0:0:0:0:
256,192,156456,1,8,0:0:0:0:
256,192,156520,1,8,0:0:0:0:
256,192,156584,1,0,0:0:0:0:
256,192,156712,1,0,0:0:0:0:
256,192,156841,1,8,0:0:0:0:
256,192,156969,1,8,0:0:0:0:
256,192,157097,1,0,0:0:0:0:
256,192,157183,1,8,0:0:0:0:
256,192,157268,1,8,0:0:0:0:
256,192,157354,1,0,0:0:0:0:
256,192,157482,1,0,0:0:0:0:
256,192,157610,1,8,0:0:0:0:
256,192,157738,1,0,0:0:0:0:
256,192,157866,1,8,0:0:0:0:
256,192,157995,1,8,0:0:0:0:
256,192,158123,1,0,0:0:0:0:
256,192,158251,1,8,0:0:0:0:
256,192,158379,1,0,0:0:0:0:
256,192,158507,1,0,0:0:0:0:
256,192,158636,1,8,0:0:0:0:
256,192,158721,1,8,0:0:0:0:
256,192,158807,1,8,0:0:0:0:
256,192,158892,1,0,0:0:0:0:
256,192,159020,1,8,0:0:0:0:
256,192,159148,1,8,0:0:0:0:
256,192,159277,1,0,0:0:0:0:
256,192,159405,1,8,0:0:0:0:
256,192,159533,1,8,0:0:0:0:
256,192,159661,1,8,0:0:0:0:
256,192,159789,1,0,0:0:0:0:
256,192,159918,1,8,0:0:0:0:
256,192,160046,1,0,0:0:0:0:
256,192,160174,1,0,0:0:0:0:
256,192,160302,1,8,0:0:0:0:
256,192,160430,1,8,0:0:0:0:
256,192,160559,1,8,0:0:0:0:
256,192,160687,1,0,0:0:0:0:
256,192,160815,1,8,0:0:0:0:
256,192,160943,1,8,0:0:0:0:
256,192,161071,1,0,0:0:0:0:
256,192,161200,1,8,0:0:0:0:
256,192,161328,1,8,0:0:0:0:
256,192,161456,1,0,0:0:0:0:
256,192,161584,1,0,0:0:0:0:
256,192,161712,1,0,0:0:0:0:
256,192,161841,1,8,0:0:0:0:
256,192,161969,1,0,0:0:0:0:
256,192,162097,1,8,0:0:0:0:
256,192,162225,1,8,0:0:0:0:
256,192,162354,1,0,0:0:0:0:
256,192,162482,1,8,0:0:0:0:
256,192,162610,1,8,0:0:0:0:
256,192,162738,1,8,0:0:0:0:
256,192,162866,1,0,0:0:0:0:
256,192,162995,1,8,0:0:0:0:
256,192,163123,1,0,0:0:0:0:
256,192,163251,1,0,0:0:0:0:
256,192,163336,1,8,0:0:0:0:
256,192,163422,1,0,0:0:0:0:
256,192,163507,1,0,0:0:0:0:
256,192,163636,1,0,0:0:0:0:
256,192,163764,1,8,0:0:0:0:
256,192,163892,1,0,0:0:0:0:
256,192,163956,1,8,0:0:0:0:
256,192,164020,1,8,0:0:0:0:
256,192,164148,1,8,0:0:0:0:
256,192,164277,1,0,0:0:0:0:
256,192,164405,1,8,0:0:0:0:
256,192,164533,1,0,0:0:0:0:
256,192,164661,1,0,0:0:0:0:
256,192,164789,1,8,0:0:0:0:
256,192,164875,1,8,0:0:0:0:
256,192,164960,1,8,0:0:0:0:
256,192,165046,1,0,0:0:0:0:
256,192,165174,1,8,0:0:0:0:
256,192,165302,1,8,0:0:0:0:
256,192,165430,1,0,0:0:0:0:
256,192,165495,1,0,0:0:0:0:
256,192,165559,1,8,0:0:0:0:
256,192,165687,1,0,0:0:0:0:
256,192,165815,1,8,0:0:0:0:
256,192,165943,1,8,0:0:0:0:
256,192,166071,1,0,0:0:0:0:
256,192,166200,1,8,0:0:0:0:
256,192,166328,1,0,0:0:0:0:
256,192,166392,1,0,0:0:0:0:
256,192,166456,1,8,0:0:0:0:
256,192,166520,1,8,0:0:0:0:
256,192,166584,1,8,0:0:0:0:
256,192,166712,1,8,0:0:0:0:
256,192,166841,1,0,0:0:0:0:
256,192,166969,1,8,0:0:0:0:
256,192,167033,1,8,0:0:0:0:
256,192,167097,1,8,0:0:0:0:
256,192,167225,1,0,0:0:0:0:
256,192,167354,1,8,0:0:0:0:
256,192,167482,1,8,0:0:0:0:
256,192,167546,1,8,0:0:0:0:
256,192,167610,1,0,0:0:0:0:
256,192,167738,1,0,0:0:0:0:
256,192,167866,1,0,0:0:0:0:
256,192,167930,1,0,0:0:0:0:
256,192,167995,1,8,0:0:0:0:
256,192,168059,1,8,0:0:0:0:
256,192,168123,1,0,0:0:0:0:
256,192,168187,1,0,0:0:0:0:
256,192,168251,1,8,0:0:0:0:
256,192,168315,1,0,0:0:0:0:
256,192,168379,1,8,0:0:0:0:
256,192,168507,1,8,0:0:0:0:
256,192,168636,1,0,0:0:0:0:
256,192,168764,1,8,0:0:0:0:
256,192,168892,1,0,0:0:0:0:
256,192,169020,1,8,0:0:0:0:
256,192,169148,1,8,0:0:0:0:
256,192,169277,1,8,0:0:0:0:
256,192,169405,1,0,0:0:0:0:
256,192,169490,1,8,0:0:0:0:
256,192,169576,1,0,0:0:0:0:
256,192,169661,1,0,0:0:0:0:
256,192,169789,1,8,0:0:0:0:
256,192,169854,1,0,0:0:0:0:
256,192,169918,1,8,0:0:0:0:
256,192,170046,1,8,0:0:0:0:
256,192,170174,1,0,0:0:0:0:
256,192,170302,1,0,0:0:0:0:
256,192,170366,1,0,0:0:0:0:
256,192,170430,1,8,0:0:0:0:
256,192,170559,1,8,0:0:0:0:
256,192,170687,1,0,0:0:0:0:
256,192,170815,1,8,0:0:0:0:
256,192,170943,1,0,0:0:0:0:
256,192,171029,1,8,0:0:0:0:
256,192,171114,1,8,0:0:0:0:
256,192,171200,1,0,0:0:0:0:
256,192,171328,1,8,0:0:0:0:
256,192,171392,1,8,0:0:0:0:
256,192,171456,1,0,0:0:0:0:
256,192,171584,1,0,0:0:0:0:
256,192,171712,1,8,0:0:0:0:
256,192,171777,1,8,0:0:0:0:
256,192,171841,1,8,0:0:0:0:
256,192,171905,1,8,0:0:0:0:
256,192,171969,1,0,0:0:0:0:
256,192,172097,1,8,0:0:0:0:
256,192,172225,1,0,0:0:0:0:
256,192,172354,1,8,0:0:0:0:
256,192,172482,1,0,0:0:0:0:
256,192,172546,1,0,0:0:0:0:
256,192,172610,1,8,0:0:0:0:
256,192,172674,1,8,0:0:0:0:
256,192,172738,1,8,0:0:0:0:
256,192,172866,1,0,0:0:0:0:
256,192,172995,1,8,0:0:0:0:
256,192,173123,1,8,0:0:0:0:
256,192,173251,1,0,0:0:0:0:
256,192,173379,1,8,0:0:0:0:
256,192,173443,1,8,0:0:0:0:
256,192,173507,1,0,0:0:0:0:
256,192,173636,1,8,0:0:0:0:
256,192,173764,1,0,0:0:0:0:
256,192,173892,1,8,0:0:0:0:
256,192,174020,1,0,0:0:0:0:
256,192,174084,1,0,0:0:0:0:
256,192,174148,1,8,0:0:0:0:
256,192,174212,1,0,0:0:0:0:
256,192,174277,1,8,0:0:0:0:
256,192,174405,1,8,0:0:0:0:
256,192,174533,1,0,0:0:0:0:
256,192,174661,1,8,0:0:0:0:
256,192,174789,1,0,0:0:0:0:
256,192,174854,1,0,0:0:0:0:
256,192,174918,1,8,0:0:0:0:
256,192,174982,1,8,0:0:0:0:
256,192,175046,1,0,0:0:0:0:
256,192,175174,1,8,0:0:0:0:
256,192,175238,1,8,0:0:0:0:
256,192,175302,1,0,0:0:0:0:
256,192,175430,1,8,0:0:0:0:
256,192,175559,1,0,0:0:0:0:
256,192,175644,1,8,0:0:0:0:
256,192,175730,1,0,0:0:0:0:
256,192,175815,1,0,0:0:0:0:
256,192,175943,1,8,0:0:0:0:
256,192,176007,1,8,0:0:0:0:
256,192,176071,1,0,0:0:0:0:
256,192,176200,1,8,0:0:0:0:
256,192,176328,1,0,0:0:0:0:
256,192,176456,1,0,0:0:0:0:
256,192,176520,1,0,0:0:0:0:
256,192,176584,1,8,0:0:0:0:
256,192,176648,1,0,0:0:0:0:
256,192,176712,1,8,0:0:0:0:
256,192,176777,1,8,0:0:0:0:
256,192,176841,1,0,0:0:0:0:
256,192,176969,1,8,0:0:0:0:
256,192,177097,1,0,0:0:0:0:
256,192,177183,1,8,0:0:0:0:
256,192,177268,1,8,0:0:0:0:
256,192,177354,1,0,0:0:0:0:
256,192,177418,1,0,0:0:0:0:
256,192,177482,1,8,0:0:0:0:
256,192,177546,1,8,0:0:0:0:
256,192,177610,1,0,0:0:0:0:
256,192,177738,1,8,0:0:0:0:
256,192,177866,1,0,0:0:0:0:
256,192,177995,1,0,0:0:0:0:
256,192,178059,1,0,0:0:0:0:
256,192,178123,1,8,0:0:0:0:
256,192,178187,1,0,0:0:0:0:
256,192,178251,1,8,0:0:0:0:
256,192,178315,1,8,0:0:0:0:
256,192,178379,1,0,0:0:0:0:
256,192,178443,1,0,0:0:0:0:
256,192,178507,1,0,0:0:0:0:
256,192,178571,1,0,0:0:0:0:
256,192,178636,1,8,0:0:0:0:
256,192,178721,1,8,0:0:0:0:
256,192,178807,1,8,0:0:0:0:
256,192,178892,1,0,0:0:0:0:
256,192,178977,1,0,0:0:0:0:
256,192,179063,1,0,0:0:0:0:
256,192,179148,1,8,0:0:0:0:
256,192,179234,1,8,0:0:0:0:
256,192,179319,1,0,0:0:0:0:
256,192,179405,1,8,0:0:0:0:
256,192,179490,1,8,0:0:0:0:
256,192,179576,1,0,0:0:0:0:
256,192,179661,1,8,0:0:0:0:
256,192,179747,1,0,0:0:0:0:
256,192,179832,1,0,0:0:0:0:
256,192,179918,1,8,0:0:0:0:
256,192,180003,1,8,0:0:0:0:
256,192,180089,1,8,0:0:0:0:
256,192,180174,1,0,0:0:0:0:
256,192,180302,1,8,0:0:0:0:
256,192,180430,1,8,0:0:0:0:
256,192,180559,1,0,0:0:0:0:
256,192,180687,1,8,0:0:0:0:
256,192,180815,1,8,0:0:0:0:
256,192,180943,1,0,0:0:0:0:
256,192,181200,1,8,0:0:0:0:
