osu file format v14

[General]
AudioFilename: audio.mp3
AudioLeadIn: 0
PreviewTime: 29381
Countdown: 0
SampleSet: Normal
StackLeniency: 0.7
Mode: 1
LetterboxInBreaks: 0
WidescreenStoryboard: 0

[Editor]
Bookmarks: 29413,54028,78644,103259,132490
DistanceSpacing: 0.8
BeatDivisor: 16
GridSize: 32
TimelineZoom: 2.750001

[Metadata]
Title:lovely, lovely minute
TitleUnicode:lovely, lovely minute
Artist:linear ring
ArtistUnicode:linear ring
Creator:_Rise
Version:Muzukashii
Source:Lanota
Tags:uone electronic instrumental o!tfac #3 osu!taiko featured artist cup classical dubstep trap
BeatmapID:3944311
BeatmapSetID:1908858

[Difficulty]
HPDrainRate:6
CircleSize:3
OverallDifficulty:5
ApproachRate:9
SliderMultiplier:1.4
SliderTickRate:1

[Events]
//Background and Video events
0,0,"bg.jpg",0,50
//Break Periods
2,29605,34959
2,132682,141721
//Storyboard Layer 0 (Background)
//Storyboard Layer 1 (Fail)
//Storyboard Layer 2 (Pass)
//Storyboard Layer 3 (Foreground)
//Storyboard Layer 4 (Overlay)
//Storyboard Sound Samples

[TimingPoints]
1129,645.161290322581,3,1,0,60,1,0
1129,-49.6794871795,3,1,0,60,0,0
1774,387.096774193548,3,1,0,60,1,8
2161,262.008733624454,3,1,0,60,1,8
2423,276.497695852535,3,1,0,60,1,0
2423,-115.918803419,3,1,0,60,0,0
3252,256.410256410256,3,1,0,60,1,0
3252,-125,3,1,0,60,0,0
4757,-125,3,1,0,80,0,0
10976,-125,4,1,0,70,0,0
11697,-133.333333333333,4,1,0,70,0,0
12450,-142.857142857143,4,1,0,80,0,0
12723,-139.361892812332,4,1,0,80,0,0
12979,-136.236201156475,4,1,0,80,0,0
13235,-133.24764353042,4,1,0,80,0,0
13492,-130.376456778737,4,1,0,80,0,0
13620,-128.992119452509,4,1,0,80,0,0
13732,-127.804717678968,4,1,0,90,0,0
13876,-126.30980424011,4,1,0,90,0,0
14005,-125,4,1,0,90,0,0
14053,-125,4,1,0,80,0,0
15784,-122.444108520312,4,1,0,90,0,0
15928,-121.209734582972,4,1,0,90,0,0
16056,-120,4,1,0,90,0,0
16312,-117.651555691461,4,1,0,90,0,0
16569,-115.384615384615,4,1,0,90,0,0
16697,-114.287836031487,4,1,0,90,0,0
16825,-113.211711048992,4,1,0,90,0,0
16889,-112.681212476204,4,1,0,90,0,0
16953,-112.155662439878,4,1,0,90,0,0
17082,-111.111111111111,4,1,0,90,0,0
17130,-125,4,1,0,80,0,0
18604,-125,4,1,0,90,0,0
18876,-122.453851050286,4,1,0,90,0,0
19133,-120,4,1,0,90,0,0
19389,-117.651555691461,4,1,0,90,0,0
19518,-116.502649507949,4,1,0,90,0,0
19646,-115.384615384615,4,1,0,90,0,0
19774,-114.287836031487,4,1,0,90,0,0
19902,-113.211711048992,4,1,0,90,0,0
20030,-112.155662439878,4,1,0,90,0,0
20159,-111.111111111111,4,1,0,90,0,0
20207,-125,4,1,0,80,0,0
21937,-122.608418368012,4,1,0,90,0,0
22082,-121.20734494444,4,1,0,90,0,0
22210,-119.996879144886,4,1,0,90,0,0
22466,-117.647058823529,4,1,0,90,0,0
22723,-115.378844711178,4,1,0,90,0,0
22851,-114.28146827166,4,1,0,90,0,0
22915,-113.740570921461,4,1,0,90,0,0
22979,-113.204769615781,4,1,0,90,0,0
23107,-112.148169753537,4,1,0,90,0,0
23235,-111.111111111111,4,1,0,90,0,0
23284,-125,4,1,0,80,0,0
23620,-125,4,1,0,80,0,0
23748,-123.638838475499,4,1,0,80,0,0
24005,-120.993478562509,4,1,0,80,0,0
24261,-118.468603103008,4,1,0,80,0,0
24518,-116.037685633683,4,1,0,80,0,0
24646,-114.863796828073,4,1,0,80,0,0
24774,-113.713421313442,4,1,0,80,0,0
24902,-112.58585962919,4,1,0,80,0,0
25030,-111.480439785221,4,1,0,80,0,0
25159,-110.388130744107,4,1,0,80,0,0
25287,-109.325242596725,4,1,0,80,0,0
25543,-107.259711186007,4,1,0,80,0,0
25784,-105.385284733636,4,1,0,90,0,0
26056,-106.462186494223,4,1,0,90,0,0
26184,-107.072002864005,4,1,0,90,0,0
26312,-107.688845547971,4,1,0,90,0,0
26441,-108.317740085713,4,1,0,90,0,0
26697,-109.587786259542,4,1,0,90,0,0
26825,-110.234043860188,4,1,0,90,0,0
26953,-110.887968856207,4,1,0,90,0,0
27082,-111.55489937058,4,1,0,90,0,0
27338,-112.90246472781,4,1,0,90,0,0
27466,-113.5885303752,4,1,0,90,0,0
27594,-114.282984922543,4,1,0,90,0,0
27851,-115.703278635675,4,1,0,90,0,0
28107,-117.153582503672,4,1,0,90,0,0
28235,-117.892454751503,4,1,0,90,0,0
28364,-118.646589199821,4,1,0,90,0,0
28492,-119.404474756716,4,1,0,90,0,0
28620,-120.172104937135,4,1,0,90,0,0
28876,-121.737360717738,4,1,0,90,0,0
29005,-122.541655285441,4,1,0,90,0,0
29133,-123.350288699478,4,1,0,90,0,0
29389,-125,4,1,0,90,0,0
29437,-125,4,1,0,60,0,0
35543,-125,4,1,0,60,0,0
35800,-126.50942066438,4,1,0,60,0,0
36056,-128.049650449422,4,1,0,60,0,0
36312,-129.627846516778,4,1,0,60,0,0
36569,-131.251828019889,4,1,0,60,0,0
36825,-132.910455128838,4,1,0,60,0,0
37082,-134.618269086546,4,1,0,60,0,0
37338,-136.363636363636,4,1,0,60,0,0
37594,-138.154856585766,4,1,0,60,0,0
37851,-140.001039933444,4,1,0,60,0,0
38107,-141.889755480607,4,1,0,60,0,0
38620,-145.832204950441,4,1,0,60,0,0
38876,-147.882682484759,4,1,0,60,0,0
39389,-152.17022719566,4,1,0,60,0,0
39646,-154.413029764294,4,1,0,60,0,0
40159,-159.093594894824,4,1,0,60,0,0
40415,-161.537077033837,4,1,0,60,0,0
40671,-164.056787716305,4,1,0,60,0,0
40912,-166.666666666667,4,1,0,75,0,0
41681,-166.666666666667,4,1,0,90,0,0
42466,-159.576233680018,4,1,0,90,0,0
43235,-153.064473335102,4,1,0,90,0,0
44005,-147.055824624012,4,1,0,90,0,0
44518,-143.307829888712,4,1,0,90,0,0
44774,-141.508045525903,4,1,0,90,0,0
45287,-138.034167583864,4,1,0,90,0,0
45543,-136.363636363636,4,1,0,90,0,0
45800,-134.726763194769,4,1,0,90,0,0
46056,-133.134865688175,4,1,0,90,0,0
46312,-131.580147796734,4,1,0,90,0,0
46569,-130.055457865549,4,1,0,90,0,0
46697,-129.30918545748,4,1,0,90,0,0
46825,-128.571428571429,4,1,0,90,0,0
47082,-127.11528291909,4,1,0,90,0,0
47338,-125.697228516646,4,1,0,90,0,0
47466,-125,4,1,0,90,0,0
47594,-124.310463713153,4,1,0,90,0,0
47723,-123.623194617066,4,1,0,90,0,0
47851,-122.948723413324,4,1,0,90,0,0
48235,-120.968756552736,4,1,0,90,0,0
48364,-120.317844331359,4,1,0,90,0,0
48620,-119.046636401156,4,1,0,90,0,0
48876,-117.802009311443,4,1,0,90,0,0
49005,-117.184643510055,4,1,0,90,0,0
49133,-116.578426221558,4,1,0,90,0,0
49389,-115.384615384615,4,1,0,90,0,0
49774,-113.634572959344,4,1,0,90,0,0
49902,-113.064440263405,4,1,0,90,0,0
50159,-111.936823314836,4,1,0,90,0,0
50415,-110.835734870317,4,1,0,90,0,0
50543,-110.293274194165,4,1,0,90,0,0
50671,-109.756097560976,4,1,0,90,0,0
50800,-109.219992427111,4,1,0,90,0,0
50928,-108.693194664255,4,1,0,90,0,0
51184,-107.654698813167,4,1,0,90,0,0
51312,-107.142857142857,4,1,0,90,0,0
51441,-106.631917489187,4,1,0,90,0,0
51697,-105.632255465632,4,1,0,90,0,0
51825,-105.139420448332,4,1,0,90,0,0
51953,-104.651162790698,4,1,0,90,0,0
52082,-104.163657373971,4,1,0,90,0,0
52210,-103.684399712437,4,1,0,90,0,0
52466,-102.738994158712,4,1,0,90,0,0
52594,-102.272727272727,4,1,0,90,0,0
52723,-101.807080083295,4,1,0,90,0,0
52851,-101.349214714873,4,1,0,90,0,0
52979,-100.895449298681,4,1,0,90,0,0
53043,-100.670086901895,4,1,0,90,0,0
53107,-100.445729010691,4,1,0,90,0,0
53235,-100,4,1,0,90,0,0
53284,-100,4,1,0,70,0,0
53984,-100,4,1,0,100,0,0
54021,-100,4,1,0,100,0,1
54053,-100,4,1,0,80,0,1
54758,-100,4,1,0,100,0,1
55030,-101.691928093056,4,1,0,100,0,1
55159,-102.566381513165,4,1,0,100,0,1
55415,-104.347039808305,4,1,0,100,0,1
55543,-105.260757530842,4,1,0,100,0,1
55671,-106.190618601762,4,1,0,100,0,1
55800,-107.144515110719,4,1,0,100,0,1
55928,-108.108108108108,4,1,0,100,0,1
56056,-109.089190338895,4,1,0,100,0,1
56312,-111.105762287585,4,1,0,100,0,1
56441,-112.150440972813,4,1,0,100,0,1
56569,-113.206621704476,4,1,0,100,0,1
56697,-114.28288480107,4,1,0,100,0,1
56825,-115.379808533507,4,1,0,100,0,1
56889,-115.936204947884,4,1,0,100,0,1
56953,-116.497993589582,4,1,0,100,0,1
57082,-117.647058823529,4,1,0,100,0,1
57130,-100,4,1,0,80,0,1
57835,-100,4,1,0,100,0,1
58107,-101.691928093056,4,1,0,100,0,1
58235,-102.559544969783,4,1,0,100,0,1
58492,-104.347039808305,4,1,0,100,0,1
58620,-105.260757530842,4,1,0,100,0,1
58748,-106.190618601762,4,1,0,100,0,1
58876,-107.137054659394,4,1,0,100,0,1
59005,-108.108108108108,4,1,0,100,0,1
59133,-109.089190338895,4,1,0,100,0,1
59389,-111.105762287585,4,1,0,100,0,1
59518,-112.150440972813,4,1,0,100,0,1
59646,-113.206621704476,4,1,0,100,0,1
59774,-114.28288480107,4,1,0,100,0,1
59902,-115.379808533507,4,1,0,100,0,1
59966,-115.936204947884,4,1,0,100,0,1
60030,-116.497993589582,4,1,0,100,0,1
60159,-117.647058823529,4,1,0,100,0,1
60207,-100,4,1,0,80,0,1
60912,-100,4,1,0,100,0,1
61184,-101.692673895795,4,1,0,100,0,1
61441,-103.450595278133,4,1,0,100,0,1
61697,-105.263157894737,4,1,0,100,0,1
61953,-107.140369209335,4,1,0,100,0,1
62210,-109.093488438076,4,1,0,100,0,1
62466,-111.111111111111,4,1,0,100,0,1
62723,-113.213102686787,4,1,0,100,0,1
62979,-115.387500937805,4,1,0,100,0,1
63235,-117.647058823529,4,1,0,100,0,1
63284,-100,4,1,0,80,0,1
63989,-100,4,1,0,100,0,1
64261,-101.692673895795,4,1,0,100,0,1
64518,-103.450595278133,4,1,0,100,0,1
64646,-104.349006038402,4,1,0,100,0,1
64774,-105.263157894737,4,1,0,100,0,1
65030,-107.140369209335,4,1,0,100,0,1
65287,-109.093488438076,4,1,0,100,0,1
65415,-110.093056549749,4,1,0,100,0,1
65543,-111.111111111111,4,1,0,100,0,1
65800,-113.213102686787,4,1,0,100,0,1
65928,-114.289960615293,4,1,0,100,0,1
66056,-115.387500937805,4,1,0,100,0,1
66184,-116.506325278388,4,1,0,100,0,1
66312,-117.647058823529,4,1,0,100,0,1
66360,-100,4,1,0,80,0,1
67066,-100,4,1,0,100,0,1
67210,-100.839234198794,4,1,0,100,0,1
67338,-101.692673895795,4,1,0,100,0,1
67594,-103.443637341942,4,1,0,100,0,1
67723,-104.349006038402,4,1,0,100,0,1
67851,-105.263157894737,4,1,0,100,0,1
67979,-106.193468204101,4,1,0,100,0,1
68107,-107.140369209335,4,1,0,100,0,1
68235,-108.104308708793,4,1,0,100,0,1
68492,-110.093056549749,4,1,0,100,0,1
68620,-111.111111111111,4,1,0,100,0,1
68748,-112.148169753537,4,1,0,100,0,1
68876,-113.204769615781,4,1,0,100,0,1
69005,-114.289960615293,4,1,0,100,0,1
69133,-115.387500937805,4,1,0,100,0,1
69197,-115.944214097248,4,1,0,100,0,1
69261,-116.506325278388,4,1,0,100,0,1
69389,-117.647058823529,4,1,0,100,0,1
69437,-100,4,1,0,80,0,1
70143,-100,4,1,0,100,0,1
70287,-100.839234198794,4,1,0,100,0,1
70415,-101.692673895795,4,1,0,100,0,1
70671,-103.443637341942,4,1,0,100,0,1
70800,-104.349006038402,4,1,0,100,0,1
70928,-105.263157894737,4,1,0,100,0,1
71056,-106.193468204101,4,1,0,100,0,1
71184,-107.140369209335,4,1,0,100,0,1
71312,-108.104308708793,4,1,0,100,0,1
71569,-110.093056549749,4,1,0,100,0,1
71697,-111.111111111111,4,1,0,100,0,1
71825,-112.148169753537,4,1,0,100,0,1
71953,-113.204769615781,4,1,0,100,0,1
72082,-114.289960615293,4,1,0,100,0,1
72210,-115.387500937805,4,1,0,100,0,1
72274,-115.944214097248,4,1,0,100,0,1
72338,-116.506325278388,4,1,0,100,0,1
72466,-117.647058823529,4,1,0,100,0,1
72514,-100,4,1,0,80,0,1
73219,-100,4,1,0,100,0,1
73492,-101.698649452511,4,1,0,100,0,1
73748,-103.449048654221,4,1,0,100,0,1
74005,-105.267958950969,4,1,0,100,0,1
74261,-107.144515110719,4,1,0,100,0,1
74518,-109.096925149488,4,1,0,100,0,1
74774,-111.113785716005,4,1,0,100,0,1
75030,-113.206621704476,4,1,0,100,0,1
75271,-115.250174770263,4,1,0,90,0,1
75415,-116.50681474003,4,1,0,90,0,1
75543,-117.647058823529,4,1,0,90,0,1
78636,-117.647058823529,4,1,0,70,0,0
78860,-115.944759500349,4,1,0,73,0,0
79117,-114.284653097608,4,1,0,75,0,0
79373,-112.677603632635,4,1,0,77,0,0
79630,-111.109105024645,4,1,0,80,0,0
79886,-109.589528982281,4,1,0,82,0,0
80143,-108.105259459649,4,1,0,85,0,0
80399,-106.666204458003,4,1,0,88,0,0
80655,-105.264958434539,4,1,0,90,0,0
80912,-103.8947883781,4,1,0,93,0,0
81168,-102.564957250712,4,1,0,95,0,0
81425,-101.263739880208,4,1,0,98,0,0
81681,-100,4,1,0,100,0,0
81745,-100,4,1,0,80,0,0
82450,-100,4,1,0,100,0,0
82482,-100,4,1,0,100,0,1
82723,-101.698649452511,4,1,0,100,0,1
82851,-102.566381513165,4,1,0,100,0,1
82979,-103.449048654221,4,1,0,100,0,1
83107,-104.347039808305,4,1,0,100,0,1
83235,-105.260757530842,4,1,0,100,0,1
83492,-107.144515110719,4,1,0,100,0,1
83620,-108.108108108108,4,1,0,100,0,1
83748,-109.089190338895,4,1,0,100,0,1
83876,-110.08824230861,4,1,0,100,0,1
84005,-111.113785716005,4,1,0,100,0,1
84133,-112.150440972813,4,1,0,100,0,1
84261,-113.206621704476,4,1,0,100,0,1
84389,-114.28288480107,4,1,0,100,0,1
84518,-115.388461153885,4,1,0,100,0,1
84790,-117.647058823529,4,1,0,100,0,0
84822,-117.216814917811,4,1,0,70,0,0
85014,-115.944759500349,4,1,0,72,0,0
85271,-114.284653097608,4,1,0,75,0,0
85527,-112.677603632635,4,1,0,77,0,0
85784,-111.109105024645,4,1,0,80,0,0
86040,-109.589528982281,4,1,0,82,0,0
86296,-108.110956906699,4,1,0,85,0,0
86553,-106.666204458003,4,1,0,88,0,0
86809,-105.264958434539,4,1,0,90,0,0
87066,-103.8947883781,4,1,0,93,0,0
87322,-102.564957250712,4,1,0,95,0,0
87578,-101.268738995211,4,1,0,97,0,0
87835,-100,4,1,0,100,0,0
87899,-100,4,1,0,80,0,0
88604,-100,4,1,0,100,0,0
88636,-100,4,1,0,100,0,1
88748,-100.838867528836,4,1,0,100,0,1
88812,-101.263601263601,4,1,0,100,0,1
88876,-101.691928093056,4,1,0,100,0,1
89005,-102.566381513165,4,1,0,100,0,1
89133,-103.449048654221,4,1,0,100,0,1
89261,-104.347039808305,4,1,0,100,0,1
89389,-105.260757530842,4,1,0,100,0,1
89646,-107.144515110719,4,1,0,100,0,1
89774,-108.108108108108,4,1,0,100,0,1
89902,-109.089190338895,4,1,0,100,0,1
90030,-110.08824230861,4,1,0,100,0,1
90159,-111.113785716005,4,1,0,100,0,1
90415,-113.206621704476,4,1,0,100,0,1
90543,-114.28288480107,4,1,0,100,0,1
90671,-115.379808533507,4,1,0,100,0,1
90800,-116.50681474003,4,1,0,100,0,1
90944,-117.431542791718,4,1,0,100,0,0
90976,-117.216814917811,4,1,0,80,0,0
91425,-114.284653097608,4,1,0,83,0,0
91681,-112.677603632635,4,1,0,85,0,0
92194,-109.589528982281,4,1,0,88,0,0
92450,-108.110956906699,4,1,0,90,0,0
92707,-106.666204458003,4,1,0,92,0,0
93091,-104.578051184448,4,1,0,94,0,0
93219,-103.900050650008,4,1,0,95,0,0
93476,-102.564957250712,4,1,0,97,0,0
93732,-101.268738995211,4,1,0,98,0,0
93861,-100.6279024135,4,1,0,99,0,0
93989,-100,4,1,0,100,0,0
94053,-100,4,1,0,80,0,0
94566,-100,4,1,0,100,0,0
94790,-100.104094378904,4,1,0,100,0,1
94902,-100.838867528836,4,1,0,100,0,1
94966,-101.263601263601,4,1,0,100,0,1
95030,-101.691928093056,4,1,0,100,0,1
95159,-102.566381513165,4,1,0,100,0,1
95287,-103.449048654221,4,1,0,100,0,1
95415,-104.347039808305,4,1,0,100,0,1
95543,-105.260757530842,4,1,0,100,0,1
95800,-107.144515110719,4,1,0,100,0,1
95928,-108.108108108108,4,1,0,100,0,1
96056,-109.089190338895,4,1,0,100,0,1
96312,-111.105762287585,4,1,0,100,0,1
96441,-112.150440972813,4,1,0,100,0,1
96569,-113.206621704476,4,1,0,100,0,1
96697,-114.28288480107,4,1,0,100,0,1
96825,-115.379808533507,4,1,0,100,0,1
96953,-116.497993589582,4,1,0,100,0,1
97098,-117.431542791718,4,1,0,100,0,0
97130,-117.216814917811,4,1,0,80,0,0
97578,-114.291020521868,4,1,0,83,0,0
97835,-112.677603632635,4,1,0,85,0,0
98348,-109.589528982281,4,1,0,88,0,0
98604,-108.110956906699,4,1,0,90,0,0
98860,-106.671751226361,4,1,0,92,0,0
99245,-104.578051184448,4,1,0,94,0,0
99373,-103.900050650008,4,1,0,95,0,0
99630,-102.564957250712,4,1,0,97,0,0
99758,-101.912726670531,4,1,0,97,0,0
99886,-101.268738995211,4,1,0,98,0,0
100014,-100,4,1,0,99,0,0
100143,-100,4,1,0,100,0,0
100175,-100.078084331078,4,1,0,100,0,1
100287,-100.628107825177,4,1,0,100,0,1
100351,-100.945129955369,4,1,0,100,0,1
100415,-101.264155912563,4,1,0,100,0,1
100543,-101.908295785847,4,1,0,100,0,1
100671,-102.56068284876,4,1,0,100,0,1
100800,-103.226672483514,4,1,0,100,0,1
100928,-103.896103896104,4,1,0,100,0,1
101184,-105.261356831209,4,1,0,100,0,1
101312,-105.95752742805,4,1,0,100,0,1
101441,-106.668516142456,4,1,0,100,0,1
101569,-107.383487519637,4,1,0,100,0,1
101697,-108.108108108108,4,1,0,100,0,1
101825,-108.842574572733,4,1,0,100,0,1
101953,-109.58708895935,4,1,0,100,0,1
102082,-110.347796452082,4,1,0,100,0,1
102210,-111.113117922228,4,1,0,100,0,1
102450,-112.577085658865,4,1,0,70,0,1
102482,-112.676056338028,4,1,0,70,0,0
103219,-100,4,1,0,90,0,0
103989,-103.451367099955,4,1,0,90,0,0
104758,-107.144515110719,4,1,0,90,0,0
105527,-111.111111111111,4,1,0,90,0,0
106296,-115.382692596111,4,1,0,90,0,0
107066,-120.002079758748,4,1,0,90,0,0
107835,-125,4,1,0,90,0,0
117338,-123.08,4,1,0,90,0,0
117466,-122.141949825341,4,1,0,90,0,0
117594,-121.218090135518,4,1,0,90,0,0
117851,-119.404722637226,4,1,0,90,0,0
117979,-118.521657069122,4,1,0,90,0,0
118235,-116.794139416599,4,1,0,90,0,0
118364,-115.942575078187,4,1,0,90,0,0
118620,-114.28889796828,4,1,0,90,0,0
118876,-112.681729959351,4,1,0,90,0,0
119133,-111.113117270019,4,1,0,90,0,0
119261,-110.348042819488,4,1,0,90,0,0
119389,-109.593432229801,4,1,0,90,0,0
119518,-108.84329678104,4,1,0,90,0,0
119646,-108.109057690956,4,1,0,90,0,0
119710,-107.745640451012,4,1,0,90,0,0
119774,-107.384658337405,4,1,0,90,0,0
119902,-106.669902239479,4,1,0,90,0,0
120159,-105.263157894737,4,1,0,90,0,0
120928,-109.58904109589,4,1,0,90,0,0
121441,-112.678120077659,4,1,0,90,0,0
121697,-114.285714285714,4,1,0,90,0,0
121953,-115.939843956127,4,1,0,90,0,0
122082,-116.791646891315,4,1,0,90,0,0
122210,-117.649308676445,4,1,0,90,0,0
122338,-118.519660161443,4,1,0,90,0,0
122466,-119.402985074627,4,1,0,90,0,0
122594,-120.299575666321,4,1,0,90,0,0
122723,-121.216897856242,4,1,0,90,0,0
122851,-122.141041931385,4,1,0,90,0,0
122979,-123.079385403329,4,1,0,90,0,0
123235,-125,4,1,0,90,0,0
126312,-125,4,1,0,90,0,0
126569,-123.708231131127,4,1,0,90,0,0
126697,-123.074768972277,4,1,0,90,0,0
126825,-122.44776119403,4,1,0,90,0,0
127082,-121.207942636514,4,1,0,90,0,0
127338,-119.997659723847,4,1,0,90,0,0
127594,-118.811307638835,4,1,0,90,0,0
127723,-118.222341774584,4,1,0,90,0,0
127851,-117.643684753929,4,1,0,90,0,0
128107,-116.503199909115,4,1,0,90,0,0
128364,-115.380288028803,4,1,0,90,0,0
128492,-114.829053448791,4,1,0,90,0,0
128620,-114.283060921248,4,1,0,90,0,0
128748,-113.742236024845,4,1,0,90,0,0
128876,-113.206505740359,4,1,0,90,0,0
129133,-112.145955600919,4,1,0,90,0,0
129261,-111.625122455644,4,1,0,90,0,0
129389,-111.109104698617,4,1,0,90,0,0
129902,-109.088007942699,4,1,0,90,0,0
130159,-108.102884851892,4,1,0,90,0,0
130287,-107.618847727988,4,1,0,90,0,0
130415,-107.139125892391,4,1,0,90,0,0
130543,-106.6636618937,4,1,0,90,0,0
130671,-106.192399295848,4,1,0,90,0,0
130928,-105.258656083208,4,1,0,90,0,0
131184,-104.344729344729,4,1,0,90,0,0
131441,-103.443058404223,4,1,0,90,0,0
131569,-102.999765643309,4,1,0,90,0,0
131697,-102.560256025603,4,1,0,90,0,0
131825,-102.124481327801,4,1,0,90,0,0
131953,-101.69239414273,4,1,0,90,0,0
132018,-101.4743716604,4,1,0,90,0,0
132082,-101.260614837733,4,1,0,90,0,0
132210,-100.835791543756,4,1,0,90,0,0
132338,-100.414517918924,4,1,0,90,0,0
132482,256.410256410256,36,1,0,90,1,0
132482,-100,36,1,0,90,0,0
132514,-125,3,1,0,80,0,0
133219,-125,3,1,0,70,0,0
133988,-125,3,1,0,60,0,0
134757,-125,3,1,0,50,0,0
135526,-125,3,1,0,40,0,0
136296,-125,3,1,0,30,0,0
137065,-125,3,1,0,20,0,0
137834,-125,3,1,0,30,0,0
138603,-125,3,1,0,35,0,0
139373,-125,3,1,0,40,0,0
140142,-125,3,1,0,45,0,0
140911,-125,3,1,0,50,0,0
141680,-125,3,1,0,60,0,0
141712,256.410256410256,3,1,0,60,1,8
141713,256.410256410256,3,1,0,60,1,0
141713,-125,3,1,0,60,0,0
142450,-125,3,1,0,70,0,0
143219,-125,3,1,0,80,0,0
143988,-125,3,1,0,90,0,0
144757,-125,3,1,0,80,0,0
155527,-125,3,1,0,90,0,0
155799,-122.452229299363,4,1,0,90,0,0
156055,-120.006242197253,4,1,0,90,0,0
156184,-118.810351487061,4,1,0,90,0,0
156312,-117.647058823529,4,1,0,90,0,0
156440,-116.506325278388,4,1,0,90,0,0
156568,-115.387500937805,4,1,0,90,0,0
156696,-114.289960615293,4,1,0,90,0,0
156825,-113.204769615781,4,1,0,90,0,0
157081,-111.111111111111,4,1,0,90,0,0
168604,-111.111111111111,3,1,0,80,0,0
169373,-125,3,1,0,100,0,0
169405,-100.052025752748,4,1,0,100,0,1
169474,-100.277008310249,4,1,0,100,0,1
169560,-100.558841792215,4,1,0,100,0,1
169645,-100.838959166284,4,1,0,100,0,1
169902,-101.695475427174,4,1,0,100,0,1
170158,-102.563247891737,4,1,0,100,0,1
170286,-103.002711478593,4,1,0,100,0,1
170414,-103.445957303749,4,1,0,100,0,1
170543,-103.896542409508,4,1,0,100,0,1
170671,-104.347531199132,4,1,0,100,0,1
170927,-105.26135741653,4,1,0,100,0,1
171013,-105.571948123242,4,1,0,100,0,1
171098,-105.880733629263,4,1,0,100,0,1
171184,-106.194995685936,4,1,0,100,0,1
171440,-107.141613565932,4,1,0,100,0,1
171568,-107.621279423595,4,1,0,100,0,1
171696,-108.105259459649,4,1,0,100,0,1
171953,-109.090264482734,4,1,0,100,0,1
172466,-111.111111111111,4,1,0,100,0,1
172722,-112.147829573204,4,1,0,100,0,1
172850,-112.673477608115,4,1,0,100,0,1
172979,-113.208241353937,4,1,0,100,0,1
173107,-113.743900635813,4,1,0,100,0,1
173235,-114.284653097608,4,1,0,100,0,1
173491,-115.381730913454,4,1,0,100,0,1
173620,-115.942575078187,4,1,0,100,0,1
173748,-116.504486766877,4,1,0,100,0,1
174004,-117.644809787803,4,1,0,100,0,1
174132,-118.223383409536,4,1,0,100,0,1
174196,-118.514809536648,4,1,0,100,0,1
174261,-118.812263495251,4,1,0,100,0,1
174389,-119.402405898331,4,1,0,100,0,1
174517,-119.998440059278,4,1,0,100,0,1
174645,-120.600454652348,4,1,0,100,0,1
174773,-121.208540140235,4,1,0,100,0,1
175030,-122.448167455927,4,1,0,100,0,1
175543,-125,4,1,0,100,0,1
175628,-124.355891446238,4,1,0,100,0,1
175714,-123.710925721178,4,1,0,100,0,1
175799,-123.08,4,1,0,100,0,1
176055,-121.218090135518,4,1,0,100,0,1
176312,-119.404722637226,4,1,0,100,0,1
176440,-118.521657069122,4,1,0,100,0,1
176568,-117.651557152962,4,1,0,100,0,1
176696,-116.794139416599,4,1,0,100,0,1
176825,-115.942575078187,4,1,0,100,0,1
177081,-114.28889796828,4,1,0,100,0,1
177167,-113.743900635813,4,1,0,100,0,1
177252,-113.210323957394,4,1,0,100,0,1
177337,-112.681729959351,4,1,0,100,0,1
177594,-111.113117270019,4,1,0,100,0,1
177722,-110.348042819488,4,1,0,100,0,1
177850,-109.593432229801,4,1,0,100,0,1
177979,-108.84329678104,4,1,0,100,0,1
178107,-108.109057690956,4,1,0,100,0,1
178235,-107.384658337405,4,1,0,100,0,1
178363,-106.669902239479,4,1,0,100,0,1
178604,-105.349653342463,4,1,0,80,0,1
178636,-105.366976247226,4,1,0,80,0,0
178876,-106.949194961208,4,1,0,80,0,0
179132,-108.690122933446,4,1,0,80,0,0
179389,-110.495809002564,4,1,0,80,0,0
179645,-112.355119300629,4,1,0,80,0,0
179731,-112.993852323557,4,1,0,80,0,0
179816,-113.63233469243,4,1,0,80,0,0
179902,-114.285714285714,4,1,0,80,0,0
180158,-116.27590585461,4,1,0,80,0,0
180414,-118.336640974754,4,1,0,80,0,0
180543,-119.402985074627,4,1,0,80,0,0
180671,-120.480229307145,4,1,0,80,0,0
180799,-121.577088124422,4,1,0,80,0,0
180927,-122.694102165331,4,1,0,80,0,0
181184,-125,4,1,0,80,0,0

[HitObjects]
256,192,4790,5,4,0:0:0:0:
256,192,5303,1,0,0:0:0:0:
256,192,5559,1,8,0:0:0:0:
256,192,5816,1,0,0:0:0:0:
256,192,6072,1,0,0:0:0:0:
256,192,6585,1,0,0:0:0:0:
256,192,6841,1,0,0:0:0:0:
256,192,7098,1,8,0:0:0:0:
256,192,7354,1,8,0:0:0:0:
256,192,7482,1,8,0:0:0:0:
256,192,7610,1,8,0:0:0:0:
256,192,7867,1,0,0:0:0:0:
256,192,8380,1,0,0:0:0:0:
256,192,8636,1,8,0:0:0:0:
256,192,8893,1,0,0:0:0:0:
256,192,9149,1,0,0:0:0:0:
256,192,9662,1,0,0:0:0:0:
256,192,10046,1,0,0:0:0:0:
256,192,10175,1,8,0:0:0:0:
256,192,10431,1,8,0:0:0:0:
256,192,10559,1,0,0:0:0:0:
256,192,10687,1,8,0:0:0:0:
256,192,10944,1,0,0:0:0:0:
256,192,11713,1,0,0:0:0:0:
256,192,12482,1,0,0:0:0:0:
256,192,12739,1,0,0:0:0:0:
256,192,12995,1,0,0:0:0:0:
256,192,13251,1,0,0:0:0:0:
256,192,13508,1,0,0:0:0:0:
256,192,13636,1,0,0:0:0:0:
256,192,13764,1,8,0:0:0:0:
256,192,13893,1,8,0:0:0:0:
256,192,14021,1,4,0:0:0:0:
256,192,14534,1,0,0:0:0:0:
256,192,14790,1,8,0:0:0:0:
256,192,15046,1,0,0:0:0:0:
256,192,15303,1,0,0:0:0:0:
256,192,15816,1,0,0:0:0:0:
256,192,15944,1,8,0:0:0:0:
256,192,16072,1,8,0:0:0:0:
256,192,16328,1,8,0:0:0:0:
256,192,16585,1,8,0:0:0:0:
256,192,16713,1,0,0:0:0:0:
256,192,16841,1,8,0:0:0:0:
256,192,16905,1,8,0:0:0:0:
256,192,16969,1,8,0:0:0:0:
256,192,17098,1,8,0:0:0:0:
256,192,17610,1,0,0:0:0:0:
256,192,17867,1,8,0:0:0:0:
256,192,18123,1,0,0:0:0:0:
256,192,18380,1,0,0:0:0:0:
256,192,18636,1,8,0:0:0:0:
256,192,18893,1,0,0:0:0:0:
256,192,19149,1,8,0:0:0:0:
256,192,19405,1,0,0:0:0:0:
256,192,19534,1,8,0:0:0:0:
256,192,19662,1,0,0:0:0:0:
256,192,19790,1,8,0:0:0:0:
256,192,19918,1,8,0:0:0:0:
256,192,20046,1,0,0:0:0:0:
256,192,20175,1,8,0:0:0:0:
256,192,20687,1,0,0:0:0:0:
256,192,20944,1,8,0:0:0:0:
256,192,21200,1,0,0:0:0:0:
256,192,21457,1,8,0:0:0:0:
256,192,21585,1,0,0:0:0:0:
256,192,21713,1,0,0:0:0:0:
256,192,21969,1,0,0:0:0:0:
256,192,22098,1,8,0:0:0:0:
256,192,22226,1,8,0:0:0:0:
256,192,22482,1,8,0:0:0:0:
256,192,22739,1,8,0:0:0:0:
256,192,22867,1,0,0:0:0:0:
256,192,22931,1,0,0:0:0:0:
256,192,22995,1,0,0:0:0:0:
256,192,23123,1,8,0:0:0:0:
256,192,23251,1,8,0:0:0:0:
256,192,23636,1,0,0:0:0:0:
256,192,23764,1,8,0:0:0:0:
256,192,24021,1,8,0:0:0:0:
256,192,24277,1,0,0:0:0:0:
256,192,24534,1,0,0:0:0:0:
256,192,24662,1,8,0:0:0:0:
256,192,24790,1,8,0:0:0:0:
256,192,24918,1,8,0:0:0:0:
256,192,25046,1,0,0:0:0:0:
256,192,25175,1,0,0:0:0:0:
256,192,25303,1,8,0:0:0:0:
256,192,25559,1,0,0:0:0:0:
256,192,25816,1,12,0:0:0:0:
256,192,26072,1,8,0:0:0:0:
256,192,26200,1,8,0:0:0:0:
256,192,26328,1,0,0:0:0:0:
256,192,26457,1,8,0:0:0:0:
256,192,26713,1,0,0:0:0:0:
256,192,26841,1,8,0:0:0:0:
256,192,26969,1,8,0:0:0:0:
256,192,27098,1,8,0:0:0:0:
256,192,27354,1,8,0:0:0:0:
256,192,27482,1,8,0:0:0:0:
256,192,27610,1,0,0:0:0:0:
256,192,27867,1,8,0:0:0:0:
256,192,28123,1,0,0:0:0:0:
256,192,28251,1,8,0:0:0:0:
256,192,28380,1,0,0:0:0:0:
256,192,28508,1,0,0:0:0:0:
256,192,28636,1,8,0:0:0:0:
256,192,28893,1,8,0:0:0:0:
256,192,29021,1,0,0:0:0:0:
256,192,29149,1,8,0:0:0:0:
256,192,29405,1,0,0:0:0:0:
256,192,35559,5,0,0:0:0:0:
256,192,35816,1,0,0:0:0:0:
256,192,36072,1,8,0:0:0:0:
256,192,36328,1,0,0:0:0:0:
256,192,36585,1,0,0:0:0:0:
256,192,36841,1,8,0:0:0:0:
256,192,37098,1,0,0:0:0:0:
256,192,37354,1,8,0:0:0:0:
256,192,37610,1,8,0:0:0:0:
256,192,37867,1,0,0:0:0:0:
256,192,38123,1,8,0:0:0:0:
256,192,38636,1,0,0:0:0:0:
256,192,38893,1,8,0:0:0:0:
256,192,39405,1,0,0:0:0:0:
256,192,39662,1,8,0:0:0:0:
256,192,40175,1,0,0:0:0:0:
256,192,40431,1,8,0:0:0:0:
256,192,40687,1,8,0:0:0:0:
256,192,40944,5,0,0:0:0:0:
256,192,41713,1,0,0:0:0:0:
256,192,42482,1,0,0:0:0:0:
256,192,43251,1,0,0:0:0:0:
256,192,44021,1,0,0:0:0:0:
256,192,44534,1,8,0:0:0:0:
256,192,44790,1,0,0:0:0:0:
256,192,45303,1,8,0:0:0:0:
256,192,45559,1,0,0:0:0:0:
256,192,45816,1,8,0:0:0:0:
256,192,46072,1,8,0:0:0:0:
256,192,46328,1,0,0:0:0:0:
256,192,46585,1,8,0:0:0:0:
256,192,46713,1,8,0:0:0:0:
256,192,46841,1,8,0:0:0:0:
256,192,47098,1,0,0:0:0:0:
256,192,47354,1,8,0:0:0:0:
256,192,47482,1,8,0:0:0:0:
256,192,47610,1,8,0:0:0:0:
256,192,47739,1,8,0:0:0:0:
256,192,47867,1,0,0:0:0:0:
256,192,48251,1,8,0:0:0:0:
256,192,48380,1,0,0:0:0:0:
256,192,48636,1,0,0:0:0:0:
256,192,48893,1,8,0:0:0:0:
256,192,49021,1,8,0:0:0:0:
256,192,49149,1,0,0:0:0:0:
256,192,49405,1,0,0:0:0:0:
256,192,49790,1,8,0:0:0:0:
256,192,49918,1,0,0:0:0:0:
256,192,50175,1,0,0:0:0:0:
256,192,50431,1,8,0:0:0:0:
256,192,50559,1,8,0:0:0:0:
256,192,50687,1,0,0:0:0:0:
256,192,50816,1,8,0:0:0:0:
256,192,50944,1,0,0:0:0:0:
256,192,51200,1,0,0:0:0:0:
256,192,51328,1,8,0:0:0:0:
256,192,51457,1,0,0:0:0:0:
256,192,51713,1,0,0:0:0:0:
256,192,51841,1,0,0:0:0:0:
256,192,51969,1,8,0:0:0:0:
256,192,52098,1,0,0:0:0:0:
256,192,52226,1,8,0:0:0:0:
256,192,52482,1,0,0:0:0:0:
256,192,52610,1,8,0:0:0:0:
256,192,52739,1,0,0:0:0:0:
256,192,52867,1,0,0:0:0:0:
256,192,52995,1,8,0:0:0:0:
256,192,53059,1,8,0:0:0:0:
256,192,53123,1,8,0:0:0:0:
256,192,53251,1,8,0:0:0:0:
256,192,54021,5,4,0:0:0:0:
256,192,54534,1,0,0:0:0:0:
256,192,54790,1,8,0:0:0:0:
256,192,55046,1,0,0:0:0:0:
256,192,55175,1,8,0:0:0:0:
256,192,55431,1,0,0:0:0:0:
256,192,55559,1,8,0:0:0:0:
256,192,55687,1,8,0:0:0:0:
256,192,55816,1,0,0:0:0:0:
256,192,55944,1,8,0:0:0:0:
256,192,56072,1,0,0:0:0:0:
256,192,56328,1,8,0:0:0:0:
256,192,56457,1,0,0:0:0:0:
256,192,56585,1,8,0:0:0:0:
256,192,56713,1,0,0:0:0:0:
256,192,56841,1,8,0:0:0:0:
256,192,56905,1,8,0:0:0:0:
256,192,56969,1,8,0:0:0:0:
256,192,57098,1,0,0:0:0:0:
256,192,57867,1,8,0:0:0:0:
256,192,58123,1,0,0:0:0:0:
256,192,58251,1,8,0:0:0:0:
256,192,58508,1,0,0:0:0:0:
256,192,58636,1,8,0:0:0:0:
256,192,58764,1,8,0:0:0:0:
256,192,58893,1,0,0:0:0:0:
256,192,59021,1,8,0:0:0:0:
256,192,59149,1,0,0:0:0:0:
256,192,59405,1,8,0:0:0:0:
256,192,59534,1,0,0:0:0:0:
256,192,59662,1,8,0:0:0:0:
256,192,59790,1,0,0:0:0:0:
256,192,59918,1,8,0:0:0:0:
256,192,59982,1,8,0:0:0:0:
256,192,60046,1,8,0:0:0:0:
256,192,60175,1,0,0:0:0:0:
256,192,60944,1,12,0:0:0:0:
256,192,61200,1,12,0:0:0:0:
256,192,61457,1,12,0:0:0:0:
256,192,61713,1,12,0:0:0:0:
256,192,61969,1,12,0:0:0:0:
256,192,62226,1,12,0:0:0:0:
256,192,62482,1,12,0:0:0:0:
256,192,62739,1,12,0:0:0:0:
256,192,62995,1,12,0:0:0:0:
256,192,63251,1,0,0:0:0:0:
256,192,64021,1,8,0:0:0:0:
256,192,64277,1,8,0:0:0:0:
256,192,64534,1,8,0:0:0:0:
256,192,64662,1,8,0:0:0:0:
256,192,64790,1,8,0:0:0:0:
256,192,65046,1,0,0:0:0:0:
256,192,65303,1,8,0:0:0:0:
256,192,65431,1,0,0:0:0:0:
256,192,65559,1,8,0:0:0:0:
256,192,65816,1,8,0:0:0:0:
256,192,65944,1,8,0:0:0:0:
256,192,66072,1,8,0:0:0:0:
256,192,66200,1,8,0:0:0:0:
256,192,66328,1,4,0:0:0:0:
256,192,66841,1,0,0:0:0:0:
256,192,67098,1,8,0:0:0:0:
256,192,67226,1,0,0:0:0:0:
256,192,67354,1,8,0:0:0:0:
256,192,67610,1,8,0:0:0:0:
256,192,67739,1,0,0:0:0:0:
256,192,67867,1,8,0:0:0:0:
256,192,67995,1,8,0:0:0:0:
256,192,68123,1,0,0:0:0:0:
256,192,68251,1,8,0:0:0:0:
256,192,68508,1,0,0:0:0:0:
256,192,68636,1,8,0:0:0:0:
256,192,68764,1,8,0:0:0:0:
256,192,68893,1,0,0:0:0:0:
256,192,69021,1,0,0:0:0:0:
256,192,69149,1,8,0:0:0:0:
256,192,69213,1,8,0:0:0:0:
256,192,69277,1,8,0:0:0:0:
256,192,69405,1,0,0:0:0:0:
256,192,70175,1,8,0:0:0:0:
256,192,70303,1,0,0:0:0:0:
256,192,70431,1,8,0:0:0:0:
256,192,70687,1,8,0:0:0:0:
256,192,70816,1,0,0:0:0:0:
256,192,70944,1,8,0:0:0:0:
256,192,71072,1,8,0:0:0:0:
256,192,71200,1,0,0:0:0:0:
256,192,71328,1,8,0:0:0:0:
256,192,71585,1,0,0:0:0:0:
256,192,71713,1,8,0:0:0:0:
256,192,71841,1,8,0:0:0:0:
256,192,71969,1,0,0:0:0:0:
256,192,72098,1,0,0:0:0:0:
256,192,72226,1,8,0:0:0:0:
256,192,72290,1,8,0:0:0:0:
256,192,72354,1,8,0:0:0:0:
256,192,72482,1,0,0:0:0:0:
256,192,73251,1,12,0:0:0:0:
256,192,73508,1,4,0:0:0:0:
256,192,73764,1,12,0:0:0:0:
256,192,74021,1,4,0:0:0:0:
256,192,74277,1,12,0:0:0:0:
256,192,74534,1,4,0:0:0:0:
256,192,74790,1,12,0:0:0:0:
256,192,75046,1,4,0:0:0:0:
256,192,75303,1,8,0:0:0:0:
256,192,75431,1,8,0:0:0:0:
256,192,75559,1,4,0:0:0:0:
256,192,75944,1,8,0:0:0:0:
256,192,76072,1,0,0:0:0:0:
256,192,76328,1,8,0:0:0:0:
256,192,76585,1,8,0:0:0:0:
256,192,76713,1,8,0:0:0:0:
256,192,76841,1,0,0:0:0:0:
256,192,77098,1,8,0:0:0:0:
256,192,77354,1,0,0:0:0:0:
256,192,77482,1,8,0:0:0:0:
256,192,77610,1,0,0:0:0:0:
256,192,77739,1,0,0:0:0:0:
256,192,77867,1,8,0:0:0:0:
256,192,78123,1,8,0:0:0:0:
256,192,78251,1,8,0:0:0:0:
256,192,78380,1,0,0:0:0:0:
256,192,78893,5,8,0:0:0:0:
256,192,79149,1,8,0:0:0:0:
256,192,79662,1,8,0:0:0:0:
256,192,79918,1,8,0:0:0:0:
256,192,80431,1,8,0:0:0:0:
256,192,80687,1,8,0:0:0:0:
256,192,81200,1,8,0:0:0:0:
256,192,81457,1,8,0:0:0:0:
256,192,81713,1,0,0:0:0:0:
256,192,82482,1,4,0:0:0:0:
256,192,82739,1,8,0:0:0:0:
256,192,82867,1,8,0:0:0:0:
256,192,82995,1,0,0:0:0:0:
256,192,83123,1,8,0:0:0:0:
256,192,83251,1,0,0:0:0:0:
256,192,83508,1,8,0:0:0:0:
256,192,83636,1,8,0:0:0:0:
256,192,83764,1,0,0:0:0:0:
256,192,83893,1,0,0:0:0:0:
256,192,84021,1,8,0:0:0:0:
256,192,84149,1,0,0:0:0:0:
256,192,84277,1,0,0:0:0:0:
256,192,84405,1,8,0:0:0:0:
256,192,84534,1,0,0:0:0:0:
256,192,84790,1,0,0:0:0:0:
256,192,85046,1,8,0:0:0:0:
256,192,85303,1,8,0:0:0:0:
256,192,85816,1,8,0:0:0:0:
256,192,86072,1,8,0:0:0:0:
256,192,86328,1,0,0:0:0:0:
256,192,86585,1,8,0:0:0:0:
256,192,86841,1,8,0:0:0:0:
256,192,87098,1,0,0:0:0:0:
256,192,87354,1,8,0:0:0:0:
256,192,87610,1,8,0:0:0:0:
256,192,87867,1,0,0:0:0:0:
256,192,88636,1,8,0:0:0:0:
256,192,88764,1,8,0:0:0:0:
256,192,88828,1,8,0:0:0:0:
256,192,88893,1,8,0:0:0:0:
256,192,89021,1,8,0:0:0:0:
256,192,89149,1,8,0:0:0:0:
256,192,89277,1,8,0:0:0:0:
256,192,89405,1,0,0:0:0:0:
256,192,89662,1,0,0:0:0:0:
256,192,89790,1,8,0:0:0:0:
256,192,89918,1,0,0:0:0:0:
256,192,90046,1,0,0:0:0:0:
256,192,90175,1,8,0:0:0:0:
256,192,90431,1,8,0:0:0:0:
256,192,90559,1,0,0:0:0:0:
256,192,90687,1,8,0:0:0:0:
256,192,90816,1,8,0:0:0:0:
256,192,90944,1,0,0:0:0:0:
256,192,91457,1,0,0:0:0:0:
256,192,91713,1,8,0:0:0:0:
256,192,92226,1,0,0:0:0:0:
256,192,92739,1,0,0:0:0:0:
256,192,93123,1,0,0:0:0:0:
256,192,93251,1,8,0:0:0:0:
256,192,93508,1,0,0:0:0:0:
256,192,93764,1,0,0:0:0:0:
256,192,93893,1,0,0:0:0:0:
256,192,94021,1,0,0:0:0:0:
256,192,94790,1,8,0:0:0:0:
256,192,94918,1,0,0:0:0:0:
256,192,94982,1,0,0:0:0:0:
256,192,95046,1,0,0:0:0:0:
256,192,95175,1,0,0:0:0:0:
256,192,95303,1,8,0:0:0:0:
256,192,95431,1,0,0:0:0:0:
256,192,95559,1,8,0:0:0:0:
256,192,95816,1,0,0:0:0:0:
256,192,95944,1,0,0:0:0:0:
256,192,96072,1,8,0:0:0:0:
256,192,96328,1,8,0:0:0:0:
256,192,96457,1,0,0:0:0:0:
256,192,96585,1,8,0:0:0:0:
256,192,96713,1,0,0:0:0:0:
256,192,96841,1,8,0:0:0:0:
256,192,96969,1,8,0:0:0:0:
256,192,97098,1,0,0:0:0:0:
256,192,97610,1,0,0:0:0:0:
256,192,97867,1,8,0:0:0:0:
256,192,98380,1,0,0:0:0:0:
256,192,98893,1,0,0:0:0:0:
256,192,99277,1,0,0:0:0:0:
256,192,99405,1,8,0:0:0:0:
256,192,99662,1,0,0:0:0:0:
256,192,99790,1,0,0:0:0:0:
256,192,99918,1,8,0:0:0:0:
256,192,100175,1,0,0:0:0:0:
256,192,100303,1,8,0:0:0:0:
256,192,100367,1,8,0:0:0:0:
256,192,100431,1,8,0:0:0:0:
256,192,100559,1,8,0:0:0:0:
256,192,100687,1,0,0:0:0:0:
256,192,100816,1,0,0:0:0:0:
256,192,100944,1,8,0:0:0:0:
256,192,101200,1,0,0:0:0:0:
256,192,101328,1,8,0:0:0:0:
256,192,101457,1,0,0:0:0:0:
256,192,101585,1,0,0:0:0:0:
256,192,101713,1,8,0:0:0:0:
256,192,101841,1,8,0:0:0:0:
256,192,101969,1,0,0:0:0:0:
256,192,102098,1,8,0:0:0:0:
256,192,102226,1,0,0:0:0:0:
256,192,102482,1,8,0:0:0:0:
256,192,103251,5,12,0:0:0:0:
256,192,104021,1,12,0:0:0:0:
256,192,104790,1,12,0:0:0:0:
256,192,105559,1,12,0:0:0:0:
256,192,106328,1,12,0:0:0:0:
256,192,107098,1,12,0:0:0:0:
256,192,107867,1,4,0:0:0:0:
256,192,108380,1,0,0:0:0:0:
256,192,108636,1,8,0:0:0:0:
256,192,108893,1,0,0:0:0:0:
256,192,109149,1,0,0:0:0:0:
256,192,109405,1,8,0:0:0:0:
256,192,109918,1,8,0:0:0:0:
256,192,110046,1,0,0:0:0:0:
256,192,110175,1,8,0:0:0:0:
256,192,110431,1,0,0:0:0:0:
256,192,110687,1,8,0:0:0:0:
256,192,110944,1,0,0:0:0:0:
256,192,111200,1,8,0:0:0:0:
256,192,111457,1,0,0:0:0:0:
256,192,111585,1,8,0:0:0:0:
256,192,111713,1,8,0:0:0:0:
256,192,112226,1,0,0:0:0:0:
256,192,112482,1,8,0:0:0:0:
256,192,112610,1,8,0:0:0:0:
256,192,112739,1,0,0:0:0:0:
256,192,112995,1,0,0:0:0:0:
256,192,113123,1,8,0:0:0:0:
256,192,113251,1,0,0:0:0:0:
256,192,113444,1,8,0:0:0:0:
256,192,113508,1,8,0:0:0:0:
256,192,113636,1,8,0:0:0:0:
256,192,113764,1,0,0:0:0:0:
256,192,114021,1,0,0:0:0:0:
256,192,114277,1,0,0:0:0:0:
256,192,114405,1,8,0:0:0:0:
256,192,114534,1,0,0:0:0:0:
256,192,114790,1,8,0:0:0:0:
256,192,115046,1,8,0:0:0:0:
256,192,115303,1,0,0:0:0:0:
256,192,115816,1,8,0:0:0:0:
256,192,115944,1,0,0:0:0:0:
256,192,116200,1,0,0:0:0:0:
256,192,116328,1,8,0:0:0:0:
256,192,116585,1,0,0:0:0:0:
256,192,116713,1,8,0:0:0:0:
256,192,116841,1,8,0:0:0:0:
256,192,116969,1,8,0:0:0:0:
256,192,117098,1,0,0:0:0:0:
256,192,117354,1,0,0:0:0:0:
256,192,117482,1,8,0:0:0:0:
256,192,117610,1,0,0:0:0:0:
256,192,117867,1,8,0:0:0:0:
256,192,117995,1,8,0:0:0:0:
256,192,118251,1,8,0:0:0:0:
256,192,118380,1,0,0:0:0:0:
256,192,118636,1,8,0:0:0:0:
256,192,118893,1,0,0:0:0:0:
256,192,119149,1,8,0:0:0:0:
256,192,119277,1,0,0:0:0:0:
256,192,119405,1,8,0:0:0:0:
256,192,119534,1,8,0:0:0:0:
256,192,119662,1,0,0:0:0:0:
256,192,119726,1,0,0:0:0:0:
256,192,119790,1,0,0:0:0:0:
256,192,119918,1,8,0:0:0:0:
256,192,120175,1,12,0:0:0:0:
256,192,120944,1,12,0:0:0:0:
256,192,121457,1,0,0:0:0:0:
256,192,121713,1,0,0:0:0:0:
256,192,121969,1,0,0:0:0:0:
256,192,122098,1,0,0:0:0:0:
256,192,122226,1,0,0:0:0:0:
256,192,122354,1,0,0:0:0:0:
256,192,122482,1,0,0:0:0:0:
256,192,122610,1,0,0:0:0:0:
256,192,122739,1,0,0:0:0:0:
256,192,122867,1,0,0:0:0:0:
256,192,122995,1,0,0:0:0:0:
256,192,123251,1,4,0:0:0:0:
256,192,123508,1,8,0:0:0:0:
256,192,123764,1,0,0:0:0:0:
256,192,123893,1,8,0:0:0:0:
256,192,124021,1,8,0:0:0:0:
256,192,124534,1,0,0:0:0:0:
256,192,124790,1,8,0:0:0:0:
256,192,124918,1,8,0:0:0:0:
256,192,125046,1,0,0:0:0:0:
256,192,125303,1,0,0:0:0:0:
256,192,125431,1,8,0:0:0:0:
256,192,125559,1,0,0:0:0:0:
256,192,125751,1,8,0:0:0:0:
256,192,125816,1,8,0:0:0:0:
256,192,125944,1,8,0:0:0:0:
256,192,126072,1,0,0:0:0:0:
256,192,126328,1,0,0:0:0:0:
256,192,126585,1,0,0:0:0:0:
256,192,126713,1,8,0:0:0:0:
256,192,126841,1,0,0:0:0:0:
256,192,127098,1,8,0:0:0:0:
256,192,127354,1,8,0:0:0:0:
256,192,127610,1,0,0:0:0:0:
256,192,127739,1,8,0:0:0:0:
256,192,128123,1,0,0:0:0:0:
256,192,128380,1,8,0:0:0:0:
256,192,128508,1,0,0:0:0:0:
256,192,128636,1,8,0:0:0:0:
256,192,128764,1,8,0:0:0:0:
256,192,128893,1,0,0:0:0:0:
256,192,129149,1,0,0:0:0:0:
256,192,129277,1,8,0:0:0:0:
256,192,129405,1,0,0:0:0:0:
256,192,129918,1,0,0:0:0:0:
256,192,130175,1,8,0:0:0:0:
256,192,130303,1,8,0:0:0:0:
256,192,130431,1,0,0:0:0:0:
256,192,130559,1,8,0:0:0:0:
256,192,130687,1,0,0:0:0:0:
256,192,130944,1,8,0:0:0:0:
256,192,131200,1,0,0:0:0:0:
256,192,131457,1,8,0:0:0:0:
256,192,131585,1,0,0:0:0:0:
256,192,131713,1,8,0:0:0:0:
256,192,131841,1,8,0:0:0:0:
256,192,131969,1,0,0:0:0:0:
256,192,132034,1,0,0:0:0:0:
256,192,132098,1,0,0:0:0:0:
256,192,132226,1,8,0:0:0:0:
256,192,132354,1,0,0:0:0:0:
256,192,132482,1,8,0:0:0:0:
256,192,144789,5,0,0:0:0:0:
256,192,145302,1,8,0:0:0:0:
256,192,145559,1,8,0:0:0:0:
256,192,145815,1,0,0:0:0:0:
256,192,146071,1,8,0:0:0:0:
256,192,146584,1,0,0:0:0:0:
256,192,146969,1,0,0:0:0:0:
256,192,147097,1,8,0:0:0:0:
256,192,147354,1,8,0:0:0:0:
256,192,147482,1,0,0:0:0:0:
256,192,147610,1,8,0:0:0:0:
256,192,147866,1,0,0:0:0:0:
256,192,148379,1,8,0:0:0:0:
256,192,148636,1,8,0:0:0:0:
256,192,148892,1,0,0:0:0:0:
256,192,149148,1,8,0:0:0:0:
256,192,149661,1,0,0:0:0:0:
256,192,149918,1,8,0:0:0:0:
256,192,150174,1,8,0:0:0:0:
256,192,150430,1,8,0:0:0:0:
256,192,150559,1,0,0:0:0:0:
256,192,150687,1,8,0:0:0:0:
256,192,150815,1,8,0:0:0:0:
256,192,150943,1,0,0:0:0:0:
256,192,151456,1,8,0:0:0:0:
256,192,151712,1,8,0:0:0:0:
256,192,151969,1,0,0:0:0:0:
256,192,152225,1,8,0:0:0:0:
256,192,152738,1,0,0:0:0:0:
256,192,153123,1,0,0:0:0:0:
256,192,153251,1,8,0:0:0:0:
256,192,153507,1,8,0:0:0:0:
256,192,153636,1,0,0:0:0:0:
256,192,153764,1,8,0:0:0:0:
256,192,154020,1,0,0:0:0:0:
256,192,154533,1,8,0:0:0:0:
256,192,154789,1,8,0:0:0:0:
256,192,155046,1,0,0:0:0:0:
256,192,155302,1,8,0:0:0:0:
256,192,155815,1,0,0:0:0:0:
256,192,156071,1,0,0:0:0:0:
256,192,156200,1,8,0:0:0:0:
256,192,156328,1,8,0:0:0:0:
256,192,156456,1,8,0:0:0:0:
256,192,156584,1,0,0:0:0:0:
256,192,156712,1,0,0:0:0:0:
256,192,156841,1,8,0:0:0:0:
256,192,157097,1,0,0:0:0:0:
256,192,157183,1,0,0:0:0:0:
256,192,157268,1,0,0:0:0:0:
256,192,157354,1,0,0:0:0:0:
256,192,157610,1,0,0:0:0:0:
256,192,157738,1,0,0:0:0:0:
256,192,157866,1,8,0:0:0:0:
256,192,158123,1,0,0:0:0:0:
256,192,158379,1,8,0:0:0:0:
256,192,158636,1,8,0:0:0:0:
256,192,158721,1,8,0:0:0:0:
256,192,158807,1,8,0:0:0:0:
256,192,158892,1,8,0:0:0:0:
256,192,159148,1,0,0:0:0:0:
256,192,159277,1,8,0:0:0:0:
256,192,159405,1,8,0:0:0:0:
256,192,159661,1,0,0:0:0:0:
256,192,160174,1,0,0:0:0:0:
256,192,160430,1,8,0:0:0:0:
256,192,160559,1,8,0:0:0:0:
256,192,160687,1,0,0:0:0:0:
256,192,160815,1,0,0:0:0:0:
256,192,160943,1,8,0:0:0:0:
256,192,161200,1,8,0:0:0:0:
256,192,161328,1,8,0:0:0:0:
256,192,161456,1,0,0:0:0:0:
256,192,161712,1,0,0:0:0:0:
256,192,161841,1,8,0:0:0:0:
256,192,161969,1,0,0:0:0:0:
256,192,162097,1,8,0:0:0:0:
256,192,162225,1,8,0:0:0:0:
256,192,162354,1,0,0:0:0:0:
256,192,162482,1,8,0:0:0:0:
256,192,162738,1,0,0:0:0:0:
256,192,163251,1,0,0:0:0:0:
256,192,163336,1,0,0:0:0:0:
256,192,163422,1,0,0:0:0:0:
256,192,163507,1,0,0:0:0:0:
256,192,163764,1,0,0:0:0:0:
256,192,163892,1,0,0:0:0:0:
256,192,164020,1,8,0:0:0:0:
256,192,164277,1,0,0:0:0:0:
256,192,164533,1,8,0:0:0:0:
256,192,164789,1,8,0:0:0:0:
256,192,164875,1,8,0:0:0:0:
256,192,164960,1,8,0:0:0:0:
256,192,165046,1,8,0:0:0:0:
256,192,165302,1,0,0:0:0:0:
256,192,165430,1,8,0:0:0:0:
256,192,165559,1,8,0:0:0:0:
256,192,165815,1,0,0:0:0:0:
256,192,166328,1,0,0:0:0:0:
256,192,166584,1,0,0:0:0:0:
256,192,166712,1,8,0:0:0:0:
256,192,166841,1,0,0:0:0:0:
256,192,166969,1,0,0:0:0:0:
256,192,167097,1,8,0:0:0:0:
256,192,167354,1,8,0:0:0:0:
256,192,167482,1,8,0:0:0:0:
256,192,167610,1,0,0:0:0:0:
256,192,167866,1,0,0:0:0:0:
256,192,167995,1,8,0:0:0:0:
256,192,168123,1,0,0:0:0:0:
256,192,168251,1,8,0:0:0:0:
256,192,168379,1,8,0:0:0:0:
256,192,168507,1,8,0:0:0:0:
256,192,168636,1,0,0:0:0:0:
256,192,169405,1,0,0:0:0:0:
256,192,169490,1,0,0:0:0:0:
256,192,169576,1,0,0:0:0:0:
256,192,169661,1,0,0:0:0:0:
256,192,169918,1,8,0:0:0:0:
256,192,170174,1,0,0:0:0:0:
256,192,170302,1,0,0:0:0:0:
256,192,170430,1,8,0:0:0:0:
256,192,170559,1,8,0:0:0:0:
256,192,170687,1,0,0:0:0:0:
256,192,170943,1,8,0:0:0:0:
256,192,171029,1,8,0:0:0:0:
256,192,171114,1,8,0:0:0:0:
256,192,171200,1,8,0:0:0:0:
256,192,171456,1,0,0:0:0:0:
256,192,171584,1,8,0:0:0:0:
256,192,171712,1,8,0:0:0:0:
256,192,171969,1,0,0:0:0:0:
256,192,172482,1,0,0:0:0:0:
256,192,172738,1,8,0:0:0:0:
256,192,172866,1,0,0:0:0:0:
256,192,172995,1,8,0:0:0:0:
256,192,173123,1,8,0:0:0:0:
256,192,173251,1,0,0:0:0:0:
256,192,173507,1,8,0:0:0:0:
256,192,173636,1,0,0:0:0:0:
256,192,173764,1,0,0:0:0:0:
256,192,174020,1,0,0:0:0:0:
256,192,174148,1,8,0:0:0:0:
256,192,174212,1,8,0:0:0:0:
256,192,174277,1,8,0:0:0:0:
256,192,174405,1,8,0:0:0:0:
256,192,174533,1,0,0:0:0:0:
256,192,174661,1,8,0:0:0:0:
256,192,174789,1,0,0:0:0:0:
256,192,175046,1,0,0:0:0:0:
256,192,175559,1,0,0:0:0:0:
256,192,175644,1,0,0:0:0:0:
256,192,175730,1,0,0:0:0:0:
256,192,175815,1,0,0:0:0:0:
256,192,176071,1,8,0:0:0:0:
256,192,176328,1,0,0:0:0:0:
256,192,176456,1,0,0:0:0:0:
256,192,176584,1,8,0:0:0:0:
256,192,176712,1,8,0:0:0:0:
256,192,176841,1,0,0:0:0:0:
256,192,177097,1,8,0:0:0:0:
256,192,177183,1,8,0:0:0:0:
256,192,177268,1,8,0:0:0:0:
256,192,177354,1,8,0:0:0:0:
256,192,177610,1,0,0:0:0:0:
256,192,177738,1,8,0:0:0:0:
256,192,177866,1,0,0:0:0:0:
256,192,177995,1,0,0:0:0:0:
256,192,178123,1,8,0:0:0:0:
256,192,178251,1,8,0:0:0:0:
256,192,178379,1,8,0:0:0:0:
256,192,178636,1,8,0:0:0:0:
256,192,178892,1,8,0:0:0:0:
256,192,179148,1,0,0:0:0:0:
256,192,179405,1,8,0:0:0:0:
256,192,179661,1,0,0:0:0:0:
256,192,179747,1,0,0:0:0:0:
256,192,179832,1,0,0:0:0:0:
256,192,179918,1,0,0:0:0:0:
256,192,180174,1,0,0:0:0:0:
256,192,180430,1,8,0:0:0:0:
256,192,180559,1,8,0:0:0:0:
256,192,180687,1,8,0:0:0:0:
256,192,180815,1,8,0:0:0:0:
256,192,180943,1,0,0:0:0:0:
256,192,181200,1,8,0:0:0:0:
