osu file format v14

[General]
AudioFilename: audio.mp3
AudioLeadIn: 0
PreviewTime: 29381
Countdown: 0
SampleSet: Normal
StackLeniency: 0.7
Mode: 1
LetterboxInBreaks: 0
WidescreenStoryboard: 0

[Editor]
Bookmarks: 29413,54028,78644,103259,132490
DistanceSpacing: 0.8
BeatDivisor: 4
GridSize: 32
TimelineZoom: 2.750001

[Metadata]
Title:lovely, lovely minute
TitleUnicode:lovely, lovely minute
Artist:linear ring
ArtistUnicode:linear ring
Creator:_Rise
Version:Kantan
Source:Lanota
Tags:uone electronic instrumental o!tfac #3 osu!taiko featured artist cup classical dubstep trap
BeatmapID:3945206
BeatmapSetID:1908858

[Difficulty]
HPDrainRate:7
CircleSize:3
OverallDifficulty:3
ApproachRate:9
SliderMultiplier:1.4
SliderTickRate:1

[Events]
//Background and Video events
0,0,"bg.jpg",0,50
//Break Periods
2,29605,34959
2,78580,81113
2,84990,87267
2,91144,93421
2,97298,99575
2,132682,141721
//Storyboard Layer 0 (Background)
//Storyboard Layer 1 (Fail)
//Storyboard Layer 2 (Pass)
//Storyboard Layer 3 (Foreground)
//Storyboard Layer 4 (Overlay)
//Storyboard Sound Samples

[TimingPoints]
1129,645.161290322581,3,1,0,60,1,0
1129,-49.6794871795,3,1,0,60,0,0
1774,387.096774193548,3,1,0,60,1,8
2161,262.008733624454,3,1,0,60,1,8
2423,276.497695852535,3,1,0,60,1,0
2423,-115.918803419,3,1,0,60,0,0
3252,256.410256410256,3,1,0,60,1,0
3252,-125,3,1,0,60,0,0
4757,-125,3,1,0,80,0,0
10976,-125,4,1,0,70,0,0
12450,-125,4,1,0,80,0,0
13732,-125,4,1,0,90,0,0
14053,-125,4,1,0,80,0,0
15784,-125,4,1,0,90,0,0
17130,-125,4,1,0,80,0,0
18604,-125,4,1,0,90,0,0
20207,-125,4,1,0,80,0,0
21937,-125,4,1,0,90,0,0
23284,-125,4,1,0,80,0,0
25784,-125,4,1,0,90,0,0
29437,-125,4,1,0,60,0,0
40912,-125,4,1,0,75,0,0
41681,-125,4,1,0,90,0,0
53284,-125,4,1,0,70,0,0
53984,-125,4,1,0,100,0,0
54021,-125,4,1,0,100,0,1
54053,-125,4,1,0,80,0,1
54758,-125,4,1,0,100,0,1
57130,-125,4,1,0,80,0,1
57835,-125,4,1,0,100,0,1
60207,-125,4,1,0,80,0,1
60912,-125,4,1,0,100,0,1
63284,-125,4,1,0,80,0,1
63989,-125,4,1,0,100,0,1
66360,-125,4,1,0,80,0,1
67066,-125,4,1,0,100,0,1
69437,-125,4,1,0,80,0,1
70143,-125,4,1,0,100,0,1
72514,-125,4,1,0,80,0,1
73219,-125,4,1,0,100,0,1
75271,-125,4,1,0,90,0,1
78636,-125,4,1,0,70,0,0
78860,-125,4,1,0,73,0,0
79117,-125,4,1,0,75,0,0
79373,-125,4,1,0,77,0,0
79630,-125,4,1,0,80,0,0
79886,-125,4,1,0,82,0,0
80143,-125,4,1,0,85,0,0
80399,-125,4,1,0,88,0,0
80655,-125,4,1,0,90,0,0
80912,-125,4,1,0,93,0,0
81168,-125,4,1,0,95,0,0
81425,-125,4,1,0,98,0,0
81681,-125,4,1,0,100,0,0
81745,-125,4,1,0,80,0,0
82450,-125,4,1,0,100,0,0
82482,-125,4,1,0,100,0,1
84790,-125,4,1,0,100,0,0
84822,-125,4,1,0,70,0,0
85014,-125,4,1,0,72,0,0
85271,-125,4,1,0,75,0,0
85527,-125,4,1,0,77,0,0
85784,-125,4,1,0,80,0,0
86040,-125,4,1,0,82,0,0
86296,-125,4,1,0,85,0,0
86553,-125,4,1,0,88,0,0
86809,-125,4,1,0,90,0,0
87066,-125,4,1,0,93,0,0
87322,-125,4,1,0,95,0,0
87578,-125,4,1,0,97,0,0
87835,-125,4,1,0,100,0,0
87899,-125,4,1,0,80,0,0
88604,-125,4,1,0,100,0,0
88636,-125,4,1,0,100,0,1
90944,-125,4,1,0,100,0,0
90976,-125,4,1,0,80,0,0
91425,-125,4,1,0,83,0,0
91681,-125,4,1,0,85,0,0
92194,-125,4,1,0,88,0,0
92450,-125,4,1,0,90,0,0
92707,-125,4,1,0,92,0,0
93091,-125,4,1,0,94,0,0
93219,-125,4,1,0,95,0,0
93476,-125,4,1,0,97,0,0
93732,-125,4,1,0,98,0,0
93861,-125,4,1,0,99,0,0
93989,-125,4,1,0,100,0,0
94053,-125,4,1,0,80,0,0
94566,-125,4,1,0,100,0,0
94790,-125,4,1,0,100,0,1
97098,-125,4,1,0,100,0,0
97130,-125,4,1,0,80,0,0
97578,-125,4,1,0,83,0,0
97835,-125,4,1,0,85,0,0
98348,-125,4,1,0,88,0,0
98604,-125,4,1,0,90,0,0
98860,-125,4,1,0,92,0,0
99245,-125,4,1,0,94,0,0
99373,-125,4,1,0,95,0,0
99630,-125,4,1,0,97,0,0
99758,-125,4,1,0,97,0,0
99886,-125,4,1,0,98,0,0
100014,-125,4,1,0,99,0,0
100143,-125,4,1,0,100,0,0
100175,-125,4,1,0,100,0,1
102450,-125,4,1,0,70,0,1
102482,-125,4,1,0,70,0,0
103219,-125,4,1,0,90,0,0
132482,256.410256410256,36,1,0,90,1,0
132482,-125,36,1,0,90,0,0
132514,-125,3,1,0,80,0,0
133219,-125,3,1,0,70,0,0
133988,-125,3,1,0,60,0,0
134757,-125,3,1,0,50,0,0
135526,-125,3,1,0,40,0,0
136296,-125,3,1,0,30,0,0
137065,-125,3,1,0,20,0,0
137834,-125,3,1,0,30,0,0
138603,-125,3,1,0,35,0,0
139373,-125,3,1,0,40,0,0
140142,-125,3,1,0,45,0,0
140911,-125,3,1,0,50,0,0
141680,-125,3,1,0,60,0,0
141712,256.410256410256,3,1,0,60,1,8
141713,256.410256410256,3,1,0,60,1,0
141713,-125,3,1,0,60,0,0
142450,-125,3,1,0,70,0,0
143219,-125,3,1,0,80,0,0
143988,-125,3,1,0,90,0,0
144757,-125,3,1,0,80,0,0
155527,-125,3,1,0,90,0,0
168604,-125,3,1,0,80,0,0
169373,-125,3,1,0,100,0,0
169405,-125,4,1,0,100,0,1
178604,-125,4,1,0,80,0,1
178636,-125,4,1,0,80,0,0

[HitObjects]
256,192,4790,5,4,0:0:0:0:
256,192,5559,1,8,0:0:0:0:
256,192,6585,1,0,0:0:0:0:
256,192,6841,1,0,0:0:0:0:
256,192,7098,1,8,0:0:0:0:
256,192,7867,1,0,0:0:0:0:
256,192,8636,1,8,0:0:0:0:
256,192,9662,1,0,0:0:0:0:
256,192,9918,1,0,0:0:0:0:
256,192,10175,1,8,0:0:0:0:
256,192,10687,1,8,0:0:0:0:
256,192,10944,1,0,0:0:0:0:
256,192,12482,1,0,0:0:0:0:
256,192,13251,1,0,0:0:0:0:
256,192,13764,1,8,0:0:0:0:
256,192,14021,1,4,0:0:0:0:
256,192,14790,1,8,0:0:0:0:
256,192,15816,1,0,0:0:0:0:
256,192,16072,1,8,0:0:0:0:
256,192,16328,1,8,0:0:0:0:
256,192,17098,1,0,0:0:0:0:
256,192,17867,1,8,0:0:0:0:
256,192,18636,1,8,0:0:0:0:
256,192,18893,1,0,0:0:0:0:
256,192,19149,1,0,0:0:0:0:
256,192,19405,1,8,0:0:0:0:
256,192,20175,1,0,0:0:0:0:
256,192,20944,1,8,0:0:0:0:
256,192,21713,1,0,0:0:0:0:
256,192,21969,1,0,0:0:0:0:
256,192,22226,1,8,0:0:0:0:
256,192,22482,1,8,0:0:0:0:
256,192,23251,1,0,0:0:0:0:
256,192,24021,1,8,0:0:0:0:
256,192,24790,1,0,0:0:0:0:
256,192,25046,1,8,0:0:0:0:
256,192,25303,1,8,0:0:0:0:
256,192,25559,1,0,0:0:0:0:
256,192,25816,1,12,0:0:0:0:
256,192,26328,1,0,0:0:0:0:
256,192,27098,1,8,0:0:0:0:
256,192,27867,1,8,0:0:0:0:
256,192,28123,1,0,0:0:0:0:
256,192,28380,1,0,0:0:0:0:
256,192,28636,1,8,0:0:0:0:
256,192,29149,1,8,0:0:0:0:
256,192,29405,1,0,0:0:0:0:
256,192,35559,5,8,0:0:0:0:
256,192,37098,1,8,0:0:0:0:
256,192,38636,1,8,0:0:0:0:
256,192,39405,1,8,0:0:0:0:
256,192,40175,1,8,0:0:0:0:
256,192,41713,1,0,0:0:0:0:
256,192,42482,1,0,0:0:0:0:
256,192,43251,1,0,0:0:0:0:
256,192,44021,1,0,0:0:0:0:
256,192,44790,1,0,0:0:0:0:
256,192,45559,1,0,0:0:0:0:
256,192,46328,1,0,0:0:0:0:
256,192,47098,1,0,0:0:0:0:
256,192,47867,1,0,0:0:0:0:
256,192,48380,1,0,0:0:0:0:
256,192,48636,1,0,0:0:0:0:
256,192,49405,1,0,0:0:0:0:
256,192,49918,1,0,0:0:0:0:
256,192,50175,1,0,0:0:0:0:
256,192,50944,1,0,0:0:0:0:
256,192,51200,1,0,0:0:0:0:
256,192,51457,1,0,0:0:0:0:
256,192,51713,1,0,0:0:0:0:
256,192,52482,1,0,0:0:0:0:
256,192,52739,1,0,0:0:0:0:
256,192,52995,1,0,0:0:0:0:
256,192,53251,1,8,0:0:0:0:
256,192,54021,5,4,0:0:0:0:
256,192,54790,1,8,0:0:0:0:
256,192,55303,1,8,0:0:0:0:
256,192,55559,1,8,0:0:0:0:
256,192,55816,1,0,0:0:0:0:
256,192,56072,1,0,0:0:0:0:
256,192,56328,1,8,0:0:0:0:
256,192,56841,1,8,0:0:0:0:
256,192,57098,1,0,0:0:0:0:
256,192,57867,1,8,0:0:0:0:
256,192,58380,1,8,0:0:0:0:
256,192,58636,1,8,0:0:0:0:
256,192,58893,1,0,0:0:0:0:
256,192,59149,1,0,0:0:0:0:
256,192,59405,1,8,0:0:0:0:
256,192,59918,1,8,0:0:0:0:
256,192,60175,1,0,0:0:0:0:
256,192,60944,1,12,0:0:0:0:
256,192,61713,1,12,0:0:0:0:
256,192,62482,1,12,0:0:0:0:
256,192,63251,1,0,0:0:0:0:
256,192,64021,1,8,0:0:0:0:
256,192,64534,1,8,0:0:0:0:
256,192,64790,1,8,0:0:0:0:
256,192,65303,1,8,0:0:0:0:
256,192,65559,1,8,0:0:0:0:
256,192,66328,1,4,0:0:0:0:
256,192,67098,1,8,0:0:0:0:
256,192,67610,1,0,0:0:0:0:
256,192,67867,1,8,0:0:0:0:
256,192,68123,1,0,0:0:0:0:
256,192,68380,1,8,0:0:0:0:
256,192,68636,1,0,0:0:0:0:
256,192,69149,1,8,0:0:0:0:
256,192,69405,1,0,0:0:0:0:
256,192,70175,1,8,0:0:0:0:
256,192,70687,1,0,0:0:0:0:
256,192,70944,1,8,0:0:0:0:
256,192,71200,1,0,0:0:0:0:
256,192,71457,1,8,0:0:0:0:
256,192,71713,1,0,0:0:0:0:
256,192,72226,1,8,0:0:0:0:
256,192,72482,1,0,0:0:0:0:
256,192,73251,1,12,0:0:0:0:
256,192,74021,1,4,0:0:0:0:
256,192,74790,1,12,0:0:0:0:
256,192,75559,1,4,0:0:0:0:
256,192,76072,1,0,0:0:0:0:
256,192,76328,1,8,0:0:0:0:
256,192,76841,1,0,0:0:0:0:
256,192,77354,1,0,0:0:0:0:
256,192,77867,1,8,0:0:0:0:
256,192,78123,1,0,0:0:0:0:
256,192,78380,1,0,0:0:0:0:
256,192,81713,5,0,0:0:0:0:
256,192,82482,1,4,0:0:0:0:
256,192,82995,1,0,0:0:0:0:
256,192,83251,1,0,0:0:0:0:
256,192,83764,1,0,0:0:0:0:
256,192,84021,1,8,0:0:0:0:
256,192,84277,1,0,0:0:0:0:
256,192,84534,1,0,0:0:0:0:
256,192,84790,1,0,0:0:0:0:
256,192,87867,5,0,0:0:0:0:
256,192,88636,1,12,0:0:0:0:
256,192,89149,1,0,0:0:0:0:
256,192,89405,1,8,0:0:0:0:
256,192,89662,1,0,0:0:0:0:
256,192,89918,1,0,0:0:0:0:
256,192,90175,1,8,0:0:0:0:
256,192,90687,1,8,0:0:0:0:
256,192,90944,1,0,0:0:0:0:
256,192,94021,5,0,0:0:0:0:
256,192,94790,1,12,0:0:0:0:
256,192,95303,1,0,0:0:0:0:
256,192,95559,1,8,0:0:0:0:
256,192,95816,1,0,0:0:0:0:
256,192,96072,1,0,0:0:0:0:
256,192,96328,1,8,0:0:0:0:
256,192,96841,1,8,0:0:0:0:
256,192,97098,1,0,0:0:0:0:
256,192,100175,5,4,0:0:0:0:
256,192,100687,1,0,0:0:0:0:
256,192,100944,1,8,0:0:0:0:
256,192,101457,1,0,0:0:0:0:
256,192,101969,1,0,0:0:0:0:
256,192,102226,1,0,0:0:0:0:
256,192,102482,1,0,0:0:0:0:
256,192,103251,5,12,0:0:0:0:
256,192,104021,1,8,0:0:0:0:
256,192,104790,1,8,0:0:0:0:
256,192,105559,1,8,0:0:0:0:
256,192,106328,1,8,0:0:0:0:
256,192,107098,1,8,0:0:0:0:
256,192,107867,1,4,0:0:0:0:
256,192,108380,1,0,0:0:0:0:
256,192,108636,1,8,0:0:0:0:
256,192,109149,1,0,0:0:0:0:
256,192,109918,1,0,0:0:0:0:
256,192,110175,1,8,0:0:0:0:
256,192,110944,1,0,0:0:0:0:
256,192,111457,1,0,0:0:0:0:
256,192,111713,1,8,0:0:0:0:
256,192,112226,1,0,0:0:0:0:
256,192,112739,1,0,0:0:0:0:
256,192,113251,1,8,0:0:0:0:
256,192,113508,1,0,0:0:0:0:
256,192,113764,1,0,0:0:0:0:
256,192,114021,1,0,0:0:0:0:
256,192,114534,1,0,0:0:0:0:
256,192,114790,1,8,0:0:0:0:
256,192,115303,1,0,0:0:0:0:
256,192,116072,1,0,0:0:0:0:
256,192,116328,1,8,0:0:0:0:
256,192,116585,1,0,0:0:0:0:
256,192,116841,1,8,0:0:0:0:
256,192,117098,1,0,0:0:0:0:
256,192,117610,1,0,0:0:0:0:
256,192,117867,1,8,0:0:0:0:
256,192,118893,1,0,0:0:0:0:
256,192,119405,1,8,0:0:0:0:
256,192,119662,1,0,0:0:0:0:
256,192,119918,1,0,0:0:0:0:
256,192,120175,1,12,0:0:0:0:
256,192,120944,1,8,0:0:0:0:
256,192,121713,1,0,0:0:0:0:
256,192,122482,1,0,0:0:0:0:
256,192,122739,1,0,0:0:0:0:
256,192,122995,1,0,0:0:0:0:
256,192,123251,1,4,0:0:0:0:
256,192,123764,1,0,0:0:0:0:
256,192,124021,1,8,0:0:0:0:
256,192,124534,1,0,0:0:0:0:
256,192,125046,1,0,0:0:0:0:
256,192,125559,1,8,0:0:0:0:
256,192,125816,1,0,0:0:0:0:
256,192,126072,1,0,0:0:0:0:
256,192,126328,1,0,0:0:0:0:
256,192,126841,1,0,0:0:0:0:
256,192,127098,1,8,0:0:0:0:
256,192,127610,1,0,0:0:0:0:
256,192,128380,1,0,0:0:0:0:
256,192,128636,1,8,0:0:0:0:
256,192,128893,1,0,0:0:0:0:
256,192,129149,1,8,0:0:0:0:
256,192,129405,1,0,0:0:0:0:
256,192,129918,1,0,0:0:0:0:
256,192,130175,1,8,0:0:0:0:
256,192,130687,1,0,0:0:0:0:
256,192,131200,1,0,0:0:0:0:
256,192,131713,1,8,0:0:0:0:
256,192,131969,1,0,0:0:0:0:
256,192,132226,1,0,0:0:0:0:
256,192,132482,1,8,0:0:0:0:
256,192,144789,5,0,0:0:0:0:
256,192,145559,1,8,0:0:0:0:
256,192,146584,1,0,0:0:0:0:
256,192,146841,1,0,0:0:0:0:
256,192,147097,1,8,0:0:0:0:
256,192,147866,1,0,0:0:0:0:
256,192,148636,1,8,0:0:0:0:
256,192,149661,1,0,0:0:0:0:
256,192,149918,1,0,0:0:0:0:
256,192,150174,1,8,0:0:0:0:
256,192,150687,1,8,0:0:0:0:
256,192,150943,1,0,0:0:0:0:
256,192,151712,1,8,0:0:0:0:
256,192,152738,1,0,0:0:0:0:
256,192,152995,1,0,0:0:0:0:
256,192,153251,1,8,0:0:0:0:
256,192,154020,1,0,0:0:0:0:
256,192,154789,1,8,0:0:0:0:
256,192,155815,1,0,0:0:0:0:
256,192,156071,1,0,0:0:0:0:
256,192,156328,1,8,0:0:0:0:
256,192,156841,1,8,0:0:0:0:
256,192,157097,1,0,0:0:0:0:
256,192,157866,1,8,0:0:0:0:
256,192,158379,1,0,0:0:0:0:
256,192,158892,1,0,0:0:0:0:
256,192,159148,1,0,0:0:0:0:
256,192,159405,1,8,0:0:0:0:
256,192,160174,1,0,0:0:0:0:
256,192,160687,1,0,0:0:0:0:
256,192,160943,1,8,0:0:0:0:
256,192,161456,1,0,0:0:0:0:
256,192,161969,1,0,0:0:0:0:
256,192,162225,1,0,0:0:0:0:
256,192,162482,1,8,0:0:0:0:
256,192,163251,1,0,0:0:0:0:
256,192,164020,1,8,0:0:0:0:
256,192,164533,1,0,0:0:0:0:
256,192,165046,1,0,0:0:0:0:
256,192,165302,1,0,0:0:0:0:
256,192,165559,1,8,0:0:0:0:
256,192,166328,1,0,0:0:0:0:
256,192,166841,1,0,0:0:0:0:
256,192,167097,1,8,0:0:0:0:
256,192,167610,1,0,0:0:0:0:
256,192,168123,1,0,0:0:0:0:
256,192,168379,1,0,0:0:0:0:
256,192,168636,1,8,0:0:0:0:
256,192,169405,1,0,0:0:0:0:
256,192,170174,1,8,0:0:0:0:
256,192,170687,1,0,0:0:0:0:
256,192,170943,1,0,0:0:0:0:
256,192,171456,1,8,0:0:0:0:
256,192,171969,1,0,0:0:0:0:
256,192,172225,1,0,0:0:0:0:
256,192,172482,1,0,0:0:0:0:
256,192,173251,1,8,0:0:0:0:
256,192,173764,1,0,0:0:0:0:
256,192,174020,1,0,0:0:0:0:
256,192,174533,1,8,0:0:0:0:
256,192,174789,1,8,0:0:0:0:
256,192,175046,1,0,0:0:0:0:
256,192,175302,1,0,0:0:0:0:
256,192,175559,1,0,0:0:0:0:
256,192,176328,1,8,0:0:0:0:
256,192,176841,1,0,0:0:0:0:
256,192,177097,1,0,0:0:0:0:
256,192,177610,1,8,0:0:0:0:
256,192,177866,1,8,0:0:0:0:
256,192,178123,1,0,0:0:0:0:
256,192,178379,1,0,0:0:0:0:
256,192,178636,1,8,0:0:0:0:
256,192,180174,1,8,0:0:0:0:
256,192,180430,1,8,0:0:0:0:
256,192,180687,1,8,0:0:0:0:
256,192,180943,1,0,0:0:0:0:
256,192,181200,1,8,0:0:0:0:
