osu file format v14

[General]
AudioFilename: audio.mp3
AudioLeadIn: 0
PreviewTime: 29381
Countdown: 0
SampleSet: Normal
StackLeniency: 0.7
Mode: 1
LetterboxInBreaks: 0
WidescreenStoryboard: 0

[Editor]
Bookmarks: 29413,54028,78644,103259,132490
DistanceSpacing: 0.8
BeatDivisor: 16
GridSize: 32
TimelineZoom: 2.750001

[Metadata]
Title:lovely, lovely minute
TitleUnicode:lovely, lovely minute
Artist:linear ring
ArtistUnicode:linear ring
Creator:_Rise
Version:Inner Oni
Source:Lanota
Tags:uone electronic instrumental o!tfac #3 osu!taiko featured artist cup classical dubstep trap
BeatmapID:3942500
BeatmapSetID:1908858

[Difficulty]
HPDrainRate:6
CircleSize:3
OverallDifficulty:6.5
ApproachRate:9
SliderMultiplier:1.4
SliderTickRate:1

[Events]
//Background and Video events
0,0,"bg.jpg",0,50
//Break Periods
2,29605,34959
2,132682,141721
//Storyboard Layer 0 (Background)
//Storyboard Layer 1 (Fail)
//Storyboard Layer 2 (Pass)
//Storyboard Layer 3 (Foreground)
//Storyboard Layer 4 (Overlay)
//Storyboard Sound Samples

[TimingPoints]
1129,645.161290322581,3,1,0,60,1,0
1129,-49.6794871795,3,1,0,60,0,0
1774,387.096774193548,3,1,0,60,1,8
2161,262.008733624454,3,1,0,60,1,8
2423,276.497695852535,3,1,0,60,1,0
2423,-115.918803419,3,1,0,60,0,0
3252,256.410256410256,3,1,0,60,1,0
3252,-125,3,1,0,60,0,0
4757,-125,3,1,0,80,0,0
10976,-142.857142857143,4,1,0,70,0,0
12450,-166.666666666667,4,1,0,80,0,0
12723,-153.038916544827,4,1,0,80,0,0
12979,-140.572110883624,4,1,0,80,0,0
13235,-129.120872026625,4,1,0,80,0,0
13364,-123.708898849204,4,1,0,80,0,0
13492,-118.563110149668,4,1,0,80,0,0
13620,-113.631365399974,4,1,0,80,0,0
13732,-108.904761235822,4,1,0,90,0,0
13876,-104.374764651342,4,1,0,90,0,0
14005,-99.9999999999988,4,1,0,90,0,0
14053,-124.999999999998,4,1,0,80,0,0
15784,-119.990644004366,4,1,0,90,0,0
15928,-117.642562299343,4,1,0,90,0,0
16056,-115.384615384615,4,1,0,90,0,0
16120,-114.287836031487,4,1,0,90,0,0
16184,-113.211711048992,4,1,0,90,0,0
16312,-111.119133574007,4,1,0,90,0,0
16376,-110.101588210044,4,1,0,90,0,0
16505,-108.106209609441,4,1,0,90,0,0
16569,-107.142857142857,4,1,0,90,0,0
16697,-105.266757865937,4,1,0,90,0,0
16825,-103.455229900511,4,1,0,90,0,0
16889,-102.572647294055,4,1,0,90,0,0
16953,-101.704996034893,4,1,0,90,0,0
17082,-100,4,1,0,90,0,0
17130,-125,4,1,0,80,0,0
18604,-125,4,1,0,90,0,0
18876,-120.009357454772,4,1,0,90,0,0
19133,-115.384615384615,4,1,0,90,0,0
19325,-112.155662439878,4,1,0,90,0,0
19389,-111.119133574007,4,1,0,90,0,0
19518,-109.087042812589,4,1,0,90,0,0
19646,-107.142857142857,4,1,0,90,0,0
19774,-105.266757865937,4,1,0,90,0,0
19838,-104.353132628153,4,1,0,90,0,0
19902,-103.455229900511,4,1,0,90,0,0
19966,-102.572647294055,4,1,0,90,0,0
20030,-101.704996034893,4,1,0,90,0,0
20159,-100,4,1,0,90,0,0
20207,-125,4,1,0,80,0,0
21937,-120.306633292894,4,1,0,90,0,0
22082,-117.638060272296,4,1,0,90,0,0
22210,-115.378844711178,4,1,0,90,0,0
22338,-113.204769615781,4,1,0,90,0,0
22466,-111.111111111111,4,1,0,90,0,0
22594,-109.093488438076,4,1,0,90,0,0
22659,-108.096710711274,4,1,0,90,0,0
22723,-107.132906101978,4,1,0,90,0,0
22851,-105.255954010402,4,1,0,90,0,0
22915,-104.341926729986,4,1,0,90,0,0
22979,-103.443637341942,4,1,0,90,0,0
23043,-102.56068284876,4,1,0,90,0,0
23107,-101.692673895795,4,1,0,90,0,0
23235,-100,4,1,0,90,0,0
23284,-125,4,1,0,80,0,0
23492,-125,4,1,0,80,0,0
23620,-124.032414126754,4,1,0,80,0,0
23684,-123.55421686747,4,1,0,80,0,0
23748,-123.07969275084,4,1,0,80,0,0
24005,-121.210330358726,4,1,0,80,0,0
24261,-119.403853990802,4,1,0,80,0,0
24389,-118.520658769142,4,1,0,80,0,0
24518,-117.643684753929,4,1,0,80,0,0
24646,-116.786243024712,4,1,0,80,0,0
24774,-115.941209723007,4,1,0,80,0,0
24838,-115.523262363411,4,1,0,80,0,0
24902,-115.108317431811,4,1,0,80,0,0
25030,-114.287306363535,4,1,0,80,0,0
25159,-113.471645919779,4,1,0,80,0,0
25287,-112.67373509861,4,1,0,80,0,0
25351,-112.278973011441,4,1,0,80,0,0
25543,-111.111111111111,4,1,0,80,0,0
25784,-100,4,1,0,90,0,0
25928,-100.899634523475,4,1,0,90,0,0
25992,-101.355549279864,4,1,0,90,0,0
26056,-101.815602836879,4,1,0,90,0,0
26184,-102.748353850558,4,1,0,90,0,0
26312,-103.698353077145,4,1,0,90,0,0
26441,-104.673714910682,4,1,0,90,0,0
26569,-105.65982188857,4,1,0,90,0,0
26697,-106.664685340664,4,1,0,90,0,0
26825,-107.688845547971,4,1,0,90,0,0
26953,-108.732863743089,4,1,0,90,0,0
27082,-109.805721278874,4,1,0,90,0,0
27338,-111.998751755344,4,1,0,90,0,0
27466,-113.128447596533,4,1,0,90,0,0
27594,-114.281165419519,4,1,0,90,0,0
27723,-115.466902597925,4,1,0,90,0,0
27851,-116.668021129622,4,1,0,90,0,0
27979,-117.894391065123,4,1,0,90,0,0
28107,-119.14681716325,4,1,0,90,0,0
28235,-120.426138746749,4,1,0,90,0,0
28364,-121.74355495251,4,1,0,90,0,0
28492,-123.079561042524,4,1,0,90,0,0
28620,-124.445214979196,4,1,0,90,0,0
28748,-125.841514726508,4,1,0,90,0,0
28812,-126.551480959097,4,1,0,90,0,0
28876,-127.269503546099,4,1,0,90,0,0
29005,-128.74181687741,4,1,0,90,0,0
29133,-130.236777646739,4,1,0,90,0,0
29197,-130.997353773154,4,1,0,90,0,0
29261,-131.766865534649,4,1,0,90,0,0
29325,-132.545471332287,4,1,0,90,0,0
29389,-133.333333333333,4,1,0,90,0,0
29437,-166.666666666667,4,1,0,60,0,0
35543,-125,4,1,0,60,0,0
35629,-125.753117556396,4,1,0,60,0,0
35714,-126.506448657411,4,1,0,60,0,0
35800,-127.277884138127,4,1,0,60,0,0
35928,-128.443649373882,4,1,0,60,0,0
36056,-129.630966996461,4,1,0,60,0,0
36184,-130.840440265325,4,1,0,60,0,0
36312,-132.072695165919,4,1,0,60,0,0
36441,-133.338285544496,4,1,0,60,0,0
36569,-134.618269086546,4,1,0,60,0,0
36697,-135.923065273361,4,1,0,60,0,0
36825,-137.253402660957,4,1,0,60,0,0
37082,-140.004679822167,4,1,0,60,0,0
37167,-140.939070351759,4,1,0,60,0,0
37253,-141.897233201581,4,1,0,60,0,0
37338,-142.857142857143,4,1,0,60,0,0
37466,-144.327410147142,4,1,0,60,0,0
37594,-145.828255747827,4,1,0,60,0,0
37723,-147.372742200328,4,1,0,60,0,0
37851,-148.937935612346,4,1,0,60,0,0
37979,-150.536732640054,4,1,0,60,0,0
38107,-152.17022719566,4,1,0,60,0,0
38235,-153.839561193007,4,1,0,60,0,0
38364,-155.559407227663,4,1,0,60,0,0
38620,-159.088894797483,4,1,0,60,0,0
38748,-160.914388166741,4,1,0,60,0,0
38876,-162.78226172123,4,1,0,60,0,0
39005,-164.709120939622,4,1,0,60,0,0
39133,-166.666666666667,4,1,0,60,0,0
39261,-168.671302386769,4,1,0,60,0,0
39389,-170.724747955107,4,1,0,60,0,0
39518,-172.845450168512,4,1,0,60,0,0
39646,-175.002437359852,4,1,0,60,0,0
39774,-177.213940171784,4,1,0,60,0,0
39902,-179.482051794821,4,1,0,60,0,0
40030,-181.808973969412,4,1,0,60,0,0
40159,-184.215927750411,4,1,0,60,0,0
40287,-186.668053244592,4,1,0,60,0,0
40415,-189.186340640809,4,1,0,60,0,0
40543,-191.773504273504,4,1,0,60,0,0
40671,-194.432409012132,4,1,0,60,0,0
40800,-197.187740305394,4,1,0,60,0,0
40912,-199.644088532977,4,1,0,75,0,0
41681,-150.01500150015,4,1,0,90,0,0
47851,-150.01500150015,4,1,0,90,0,0
48107,-145.516471037465,4,1,0,90,0,0
48235,-143.366885018906,4,1,0,90,0,0
48364,-141.263816842331,4,1,0,90,0,0
48620,-137.267834684043,4,1,0,90,0,0
48876,-133.491705141816,4,1,0,90,0,0
49005,-131.666535424021,4,1,0,90,0,0
49133,-129.904184565086,4,1,0,90,0,0
49261,-128.188388551006,4,1,0,90,0,0
49389,-126.517326717085,4,1,0,90,0,0
49646,-123.290348266381,4,1,0,90,0,0
49774,-121.743777918365,4,1,0,90,0,0
49902,-120.235527642134,4,1,0,90,0,0
50030,-118.764190655349,4,1,0,90,0,0
50159,-117.317347958547,4,1,0,90,0,0
50287,-115.91614835958,4,1,0,90,0,0
50415,-114.548024642293,4,1,0,90,0,0
50543,-113.211819313936,4,1,0,90,0,0
50671,-111.90642826773,4,1,0,90,0,0
50800,-110.620946355621,4,1,0,90,0,0
50928,-109.374290890353,4,1,0,90,0,0
51184,-106.963417835625,4,1,0,90,0,0
51312,-105.797402925282,4,1,0,90,0,0
51441,-104.647719313359,4,1,0,90,0,0
51697,-102.438609705624,4,1,0,90,0,0
51825,-101.368665258601,4,1,0,90,0,0
51953,-100.320840357718,4,1,0,90,0,0
52082,-99.2865201324996,4,1,0,90,0,0
52210,-98.2810849983525,4,1,0,90,0,0
52338,-97.2958090047127,4,1,0,90,0,0
52466,-96.3300918782246,4,1,0,90,0,0
52530,-95.854386789186,4,1,0,90,0,0
52594,-95.3833569435487,4,1,0,90,0,0
52723,-94.4478687059547,4,1,0,90,0,0
52787,-93.9905277658912,4,1,0,90,0,0
52851,-93.537594607787,4,1,0,90,0,0
52915,-93.0890058149507,4,1,0,90,0,0
52979,-92.6446991814228,4,1,0,90,0,0
53043,-92.2046136832195,4,1,0,90,0,0
53107,-91.7686894503915,4,1,0,90,0,0
53171,-91.3368677398726,4,1,0,90,0,0
53235,-90.9090909090909,4,1,0,90,0,0
53284,-94.3618430751415,4,1,0,70,0,0
53492,-98.057212788741,4,1,0,70,0,0
53620,-102.053813087088,4,1,0,70,0,0
53748,-106.390041493776,4,1,0,70,0,0
53876,-111.111111111111,4,1,0,70,0,0
53984,-125,4,1,0,100,0,0
54021,-90.9090909090909,4,1,0,100,0,1
54053,-125,4,1,0,80,0,1
54758,-90.9090909090909,4,1,0,100,0,1
54838,-91.6018415621527,4,1,0,100,0,1
54902,-92.3052311630139,4,1,0,100,0,1
55030,-93.7449228269699,4,1,0,100,0,1
55159,-95.2420253373499,4,1,0,100,0,1
55223,-96.0026621188802,4,1,0,100,0,1
55287,-96.7755461444924,4,1,0,100,0,1
55415,-98.3592584700618,4,1,0,100,0,1
55543,-99.995667432087,4,1,0,100,0,1
55607,-100.834461968631,4,1,0,100,0,1
55671,-101.68744768031,4,1,0,100,0,1
55735,-102.554987780493,4,1,0,100,0,1
55800,-103.451367099955,4,1,0,100,0,1
55928,-105.263157894737,4,1,0,100,0,1
55992,-106.193061562529,4,1,0,100,0,1
56056,-107.139541361062,4,1,0,100,0,1
56184,-109.084034407789,4,1,0,100,0,1
56312,-111.100413979012,4,1,0,100,0,1
56376,-112.136818579341,4,1,0,100,0,1
56441,-113.209398145877,4,1,0,100,0,1
56569,-115.382692596111,4,1,0,100,0,1
56697,-117.641062235588,4,1,0,100,0,1
56761,-118.803726772018,4,1,0,100,0,1
56825,-119.989602287497,4,1,0,100,0,1
56889,-121.199390852282,4,1,0,100,0,1
56953,-122.433823139356,4,1,0,100,0,1
57018,-123.713550600343,4,1,0,100,0,1
57082,-125,4,1,0,100,0,1
57130,-125,4,1,0,80,0,1
57835,-90.9090909090909,4,1,0,100,0,1
57915,-91.6018415621527,4,1,0,100,0,1
57979,-92.3052311630139,4,1,0,100,0,1
58107,-93.7449228269699,4,1,0,100,0,1
58235,-95.2302360125433,4,1,0,100,0,1
58300,-96.0026621188802,4,1,0,100,0,1
58364,-96.7755461444924,4,1,0,100,0,1
58492,-98.3592584700618,4,1,0,100,0,1
58620,-99.995667432087,4,1,0,100,0,1
58684,-100.834461968631,4,1,0,100,0,1
58748,-101.68744768031,4,1,0,100,0,1
58812,-102.554987780493,4,1,0,100,0,1
58876,-103.437457984135,4,1,0,100,0,1
59005,-105.263157894737,4,1,0,100,0,1
59069,-106.193061562529,4,1,0,100,0,1
59133,-107.139541361062,4,1,0,100,0,1
59261,-109.084034407789,4,1,0,100,0,1
59389,-111.100413979012,4,1,0,100,0,1
59453,-112.136818579341,4,1,0,100,0,1
59518,-113.209398145877,4,1,0,100,0,1
59646,-115.382692596111,4,1,0,100,0,1
59774,-117.641062235588,4,1,0,100,0,1
59838,-118.803726772018,4,1,0,100,0,1
59902,-119.989602287497,4,1,0,100,0,1
59966,-121.199390852282,4,1,0,100,0,1
60030,-122.433823139356,4,1,0,100,0,1
60094,-123.693659896029,4,1,0,100,0,1
60159,-125,4,1,0,100,0,1
60207,-125,4,1,0,80,0,1
60912,-90.9090909090909,4,1,0,100,0,1
60971,-91.3735741444867,4,1,0,100,0,1
61184,-93.7461904181397,4,1,0,100,0,1
61227,-94.2401960784314,4,1,0,100,0,1
61441,-96.7782532091618,4,1,0,100,0,1
61483,-97.2925101214575,4,1,0,100,0,1
61697,-100,4,1,0,100,0,1
61740,-100.562312017785,4,1,0,100,0,1
61953,-103.443637341942,4,1,0,100,0,1
61996,-104.04546069544,4,1,0,100,0,1
62210,-107.147833356556,4,1,0,100,0,1
62253,-107.793664143538,4,1,0,100,0,1
62466,-111.111111111111,4,1,0,100,0,1
62509,-111.805757487642,4,1,0,100,0,1
62723,-115.396158463385,4,1,0,100,0,1
62765,-116.128057988523,4,1,0,100,0,1
62979,-120.006242197253,4,1,0,100,0,1
63022,-120.816967792616,4,1,0,100,0,1
63235,-125,4,1,0,100,0,1
63284,-125,4,1,0,80,0,1
63989,-90.9090909090909,4,1,0,100,0,1
64047,-91.3627183081858,4,1,0,100,0,1
64261,-93.7461904181397,4,1,0,100,0,1
64304,-94.2401960784314,4,1,0,100,0,1
64518,-96.7782532091618,4,1,0,100,0,1
64646,-98.362752622154,4,1,0,100,0,1
64774,-100,4,1,0,100,0,1
64817,-100.562312017785,4,1,0,100,0,1
65030,-103.443637341942,4,1,0,100,0,1
65201,-105.879113314058,4,1,0,100,0,1
65287,-107.147833356556,4,1,0,100,0,1
65415,-109.093488438076,4,1,0,100,0,1
65543,-111.111111111111,4,1,0,100,0,1
65671,-113.204769615781,4,1,0,100,0,1
65800,-90.9090909090909,4,1,0,100,0,1
65928,-95.2380952380952,4,1,0,100,0,1
66056,-100,4,1,0,100,0,1
66184,-105.263157894737,4,1,0,100,0,1
66312,-111.111111111111,4,1,0,100,0,1
66360,-133.333333333333,4,1,0,80,0,1
67066,-142.857142857143,4,1,0,100,0,1
67210,-141.178630438774,4,1,0,100,0,1
67274,-140.354079211535,4,1,0,100,0,1
67338,-139.53910361096,4,1,0,100,0,1
67466,-137.937219730942,4,1,0,100,0,1
67530,-137.149991082575,4,1,0,100,0,1
67594,-136.371697109417,4,1,0,100,0,1
67723,-134.829490663628,4,1,0,100,0,1
67851,-133.333333333333,4,1,0,100,0,1
67915,-134.077238252986,4,1,0,100,0,1
67979,-134.829490663628,4,1,0,100,0,1
68043,-135.59023186106,4,1,0,100,0,1
68107,-136.35960634808,4,1,0,100,0,1
68235,-137.924849789257,4,1,0,100,0,1
68300,-138.733537795418,4,1,0,100,0,1
68364,-139.53910361096,4,1,0,100,0,1
68492,-141.178630438774,4,1,0,100,0,1
68620,-142.857142857143,4,1,0,100,0,1
68748,-141.178630438774,4,1,0,100,0,1
68812,-140.354079211535,4,1,0,100,0,1
68876,-139.53910361096,4,1,0,100,0,1
68941,-138.721024623433,4,1,0,100,0,1
69005,-137.924849789257,4,1,0,100,0,1
69069,-137.137761925992,4,1,0,100,0,1
69133,-136.359606348081,4,1,0,100,0,1
69197,-135.59023186106,4,1,0,100,0,1
69261,-134.829490663628,4,1,0,100,0,1
69325,-134.077238252986,4,1,0,100,0,1
69389,-133.333333333333,4,1,0,100,0,1
69437,-133.333333333333,4,1,0,80,0,1
70143,-142.857142857143,4,1,0,100,0,1
70287,-141.178630438774,4,1,0,100,0,1
70351,-140.354079211535,4,1,0,100,0,1
70415,-139.53910361096,4,1,0,100,0,1
70543,-137.937219730942,4,1,0,100,0,1
70607,-137.149991082575,4,1,0,100,0,1
70671,-136.371697109417,4,1,0,100,0,1
70800,-134.829490663628,4,1,0,100,0,1
70928,-133.333333333333,4,1,0,100,0,1
70992,-134.077238252986,4,1,0,100,0,1
71056,-134.829490663628,4,1,0,100,0,1
71120,-135.59023186106,4,1,0,100,0,1
71184,-136.35960634808,4,1,0,100,0,1
71312,-137.924849789257,4,1,0,100,0,1
71376,-138.721024623433,4,1,0,100,0,1
71441,-139.53910361096,4,1,0,100,0,1
71569,-141.178630438774,4,1,0,100,0,1
71697,-142.857142857143,4,1,0,100,0,1
71825,-141.178630438774,4,1,0,100,0,1
71889,-140.354079211535,4,1,0,100,0,1
71953,-139.53910361096,4,1,0,100,0,1
72018,-138.721024623433,4,1,0,100,0,1
72082,-137.924849789257,4,1,0,100,0,1
72146,-137.137761925992,4,1,0,100,0,1
72210,-136.359606348081,4,1,0,100,0,1
72274,-135.59023186106,4,1,0,100,0,1
72338,-134.829490663628,4,1,0,100,0,1
72402,-134.077238252986,4,1,0,100,0,1
72466,-133.333333333333,4,1,0,100,0,1
72514,-133.333333333333,4,1,0,80,0,1
73219,-90.9090909090909,4,1,0,100,0,1
73278,-91.4007798415161,4,1,0,100,0,1
73492,-93.9290792365031,4,1,0,100,0,1
73535,-94.4540727902946,4,1,0,100,0,1
73748,-97.1436210507553,4,1,0,100,0,1
73791,-97.7052707063464,4,1,0,100,0,1
74005,-100.599907706507,4,1,0,100,0,1
74047,-101.188265874489,4,1,0,100,0,1
74261,-104.296239594297,4,1,0,100,0,1
74304,-104.943917585327,4,1,0,100,0,1
74518,-108.290695941583,4,1,0,100,0,1
74560,-108.972756810797,4,1,0,100,0,1
74774,-112.58585962919,4,1,0,100,0,1
74817,-113.340958718935,4,1,0,100,0,1
75030,-117.235816079591,4,1,0,100,0,1
75073,-118.054803422506,4,1,0,100,0,1
75271,-122.307001795195,4,1,0,90,0,1
75415,-125,4,1,0,90,0,1
75543,-100,4,1,0,90,0,1
75800,-102.570085669522,4,1,0,90,0,1
75928,-103.900050650008,4,1,0,90,0,1
76056,-105.264958434539,4,1,0,90,0,1
76184,-106.666204458003,4,1,0,90,0,1
76312,-108.105259459649,4,1,0,90,0,1
76441,-109.595383957829,4,1,0,90,0,1
76505,-110.350021517716,4,1,0,90,0,1
76569,-111.115123501372,4,1,0,90,0,1
76697,-112.677603632635,4,1,0,90,0,1
76825,-114.284653097608,4,1,0,90,0,1
76953,-115.938206480784,4,1,0,90,0,1
77082,-117.653806446679,4,1,0,90,0,1
77210,-119.407039466025,4,1,0,90,0,1
77338,-121.213314949773,4,1,0,90,0,1
77402,-122.137101575835,4,1,0,90,0,1
77466,-123.07507699692,4,1,0,90,0,1
77594,-124.99492220823,4,1,0,90,0,1
77723,-126.991333058192,4,1,0,90,0,1
77851,-129.036316363331,4,1,0,90,0,1
77979,-131.14823970676,4,1,0,90,0,1
78043,-132.230339492909,4,1,0,90,0,1
78107,-133.330444579253,4,1,0,90,0,1
78171,-134.449008127239,4,1,0,90,0,1
78235,-135.586498634,4,1,0,90,0,1
78300,-136.761633850393,4,1,0,90,0,1
78364,-137.938763616802,4,1,0,90,0,1
78492,-140.35487843817,4,1,0,90,0,1
78636,-142.223249364456,4,1,0,70,0,0
78860,-137.938763616802,4,1,0,73,0,0
79117,-133.330444579253,4,1,0,75,0,0
79373,-129.036316363331,4,1,0,77,0,0
79630,-124.99492220823,4,1,0,80,0,0
79886,-121.213314949773,4,1,0,82,0,0
80143,-117.640311974308,4,1,0,85,0,0
80399,-114.284653097608,4,1,0,88,0,0
80655,-111.115123501372,4,1,0,90,0,0
80912,-108.105259459649,4,1,0,93,0,0
81168,-105.264958434539,4,1,0,95,0,0
81425,-102.55982934471,4,1,0,98,0,0
81681,-100,4,1,0,100,0,0
81745,-100,4,1,0,80,0,0
82450,-83.3333333333333,4,1,0,100,0,0
82482,-83.3333333333333,4,1,0,100,0,1
82594,-85.304553518628,4,1,0,100,0,1
82659,-86.3417006471887,4,1,0,100,0,1
82723,-87.3878308280641,4,1,0,100,0,1
82851,-89.5580303441853,4,1,0,100,0,1
82979,-91.8387648720703,4,1,0,100,0,1
83107,-94.2386999305868,4,1,0,100,0,1
83235,-96.7674311349629,4,1,0,100,0,1
83364,-99.4570369731966,4,1,0,100,0,1
83428,-100.847679804247,4,1,0,100,0,1
83492,-102.277763006293,4,1,0,100,0,1
83556,-103.748988582217,4,1,0,100,0,1
83620,-105.263157894737,4,1,0,100,0,1
83684,-106.822179024345,4,1,0,100,0,1
83748,-108.428074790942,4,1,0,100,0,1
83876,-111.789208563402,4,1,0,100,0,1
84005,-115.394230288486,4,1,0,100,0,1
84133,-119.208718557926,4,1,0,100,0,1
84261,-123.284012606164,4,1,0,100,0,1
84325,-125.42796587142,4,1,0,100,0,1
84389,-127.647807090316,4,1,0,100,0,1
84518,-132.369809589355,4,1,0,100,0,1
84582,-134.844589857443,4,1,0,100,0,1
84646,-137.41366992141,4,1,0,100,0,1
84710,-140.082544306871,4,1,0,100,0,1
84758,-142.857142857143,4,1,0,100,0,1
84790,-142.857142857143,4,1,0,100,0,0
84822,-142.857142857143,4,1,0,70,0,0
85014,-137.938763616802,4,1,0,72,0,0
85271,-133.330444579253,4,1,0,75,0,0
85527,-129.036316363331,4,1,0,77,0,0
85784,-124.99492220823,4,1,0,80,0,0
86040,-121.213314949773,4,1,0,82,0,0
86296,-117.653806446679,4,1,0,85,0,0
86553,-114.284653097608,4,1,0,88,0,0
86809,-111.115123501372,4,1,0,90,0,0
87066,-108.105259459649,4,1,0,93,0,0
87322,-105.264958434539,4,1,0,95,0,0
87578,-102.570085669522,4,1,0,97,0,0
87835,-100,4,1,0,100,0,0
87899,-100,4,1,0,80,0,0
88604,-83.3333333333333,4,1,0,100,0,0
88636,-83.5747392815759,4,1,0,100,0,1
88748,-85.304553518628,4,1,0,100,0,1
88812,-86.3255535607421,4,1,0,100,0,1
88876,-87.3712901271956,4,1,0,100,0,1
89005,-89.5580303441853,4,1,0,100,0,1
89133,-91.8387648720703,4,1,0,100,0,1
89197,-93.0232558139535,4,1,0,100,0,1
89261,-94.2386999305868,4,1,0,100,0,1
89325,-95.486326589715,4,1,0,100,0,1
89389,-96.7674311349629,4,1,0,100,0,1
89453,-98.0833793718924,4,1,0,100,0,1
89518,-99.4570369731966,4,1,0,100,0,1
89582,-100.847679804247,4,1,0,100,0,1
89646,-102.277763006293,4,1,0,100,0,1
89774,-105.263157894737,4,1,0,100,0,1
89902,-108.428074790942,4,1,0,100,0,1
90030,-111.789208563402,4,1,0,100,0,1
90159,-115.394230288486,4,1,0,100,0,1
90287,-119.208718557926,4,1,0,100,0,1
90351,-121.212121212121,4,1,0,100,0,1
90415,-123.284012606164,4,1,0,100,0,1
90543,-127.647807090316,4,1,0,100,0,1
90671,-132.331861705177,4,1,0,100,0,1
90735,-134.805209976053,4,1,0,100,0,1
90800,-137.41366992141,4,1,0,100,0,1
90864,-140.082544306871,4,1,0,100,0,1
90912,-142.857142857143,4,1,0,100,0,1
90944,-142.857142857143,4,1,0,100,0,0
90976,-141.594956513736,4,1,0,80,0,0
91425,-133.330444579253,4,1,0,83,0,0
91681,-129.036316363331,4,1,0,85,0,0
92194,-121.213314949773,4,1,0,88,0,0
92450,-117.653806446679,4,1,0,90,0,0
92707,-114.284653097608,4,1,0,92,0,0
93091,-109.595383957829,4,1,0,94,0,0
93219,-108.116654954322,4,1,0,95,0,0
93476,-105.264958434539,4,1,0,97,0,0
93732,-102.570085669522,4,1,0,98,0,0
93861,-101.263739880208,4,1,0,99,0,0
93989,-100,4,1,0,100,0,0
94053,-100,4,1,0,80,0,0
94566,-83.3333333333333,4,1,0,100,0,0
94790,-83.5747392815759,4,1,0,100,0,1
94902,-85.304553518628,4,1,0,100,0,1
94966,-86.3255535607421,4,1,0,100,0,1
95030,-87.3712901271956,4,1,0,100,0,1
95094,-88.4426732066217,4,1,0,100,0,1
95159,-89.5580303441853,4,1,0,100,0,1
95223,-90.6840595654395,4,1,0,100,0,1
95287,-91.8387648720703,4,1,0,100,0,1
95415,-94.2386999305868,4,1,0,100,0,1
95543,-96.7674311349629,4,1,0,100,0,1
95607,-98.0833793718924,4,1,0,100,0,1
95671,-99.4356124251433,4,1,0,100,0,1
95735,-100.825652002971,4,1,0,100,0,1
95800,-102.277763006293,4,1,0,100,0,1
95928,-105.263157894737,4,1,0,100,0,1
96056,-108.428074790942,4,1,0,100,0,1
96184,-111.789208563402,4,1,0,100,0,1
96312,-115.365390382885,4,1,0,100,0,1
96441,-119.208718557926,4,1,0,100,0,1
96505,-121.212121212121,4,1,0,100,0,1
96569,-123.284012606164,4,1,0,100,0,1
96697,-127.647807090316,4,1,0,100,0,1
96761,-129.947638083441,4,1,0,100,0,1
96825,-132.331861705177,4,1,0,100,0,1
96889,-134.805209976053,4,1,0,100,0,1
96953,-137.372775430034,4,1,0,100,0,1
97018,-140.082544306871,4,1,0,100,0,1
97066,-142.857142857143,4,1,0,100,0,1
97098,-142.857142857143,4,1,0,100,0,0
97130,-141.106643691365,4,1,0,80,0,0
97578,-129.959442779051,4,1,0,83,0,0
97835,-124.325236167341,4,1,0,85,0,0
98348,-114.423226207111,4,1,0,88,0,0
98604,-110.049275795132,4,1,0,90,0,0
98860,-105.997411189415,4,1,0,92,0,0
99245,-100.43608612701,4,1,0,94,0,0
99373,-98.7141709081168,4,1,0,95,0,0
99630,-95.4292373430014,4,1,0,97,0,0
99758,-93.8733919245956,4,1,0,97,0,0
99886,-92.3674645945607,4,1,0,98,0,0
100014,-90.9090909090909,4,1,0,99,0,0
100143,-83.3333333333333,4,1,0,100,0,0
100175,-83.3333333333333,4,1,0,100,0,1
100223,-84.3078497295717,4,1,0,100,0,1
100287,-85.305428191096,4,1,0,100,0,1
100351,-86.3268971710822,4,1,0,100,0,1
100415,-87.3731252840479,4,1,0,100,0,1
100543,-89.5435491383326,4,1,0,100,0,1
100671,-91.824550230855,4,1,0,100,0,1
100800,-94.2440459169084,4,1,0,100,0,1
100864,-95.492363094499,4,1,0,100,0,1
100928,-96.7741935483871,4,1,0,100,0,1
100992,-98.0909052255623,4,1,0,100,0,1
101056,-99.4439415492047,4,1,0,100,0,1
101120,-100.834826696971,4,1,0,100,0,1
101184,-102.265171328516,4,1,0,100,0,1
101312,-105.251151968612,4,1,0,100,0,1
101376,-106.810500486134,4,1,0,100,0,1
101441,-108.442229952054,4,1,0,100,0,1
101505,-110.098310585091,4,1,0,100,0,1
101569,-111.805757487642,4,1,0,100,0,1
101633,-113.566998129369,4,1,0,100,0,1
101697,-115.384615384615,4,1,0,100,0,1
101825,-119.200165340498,4,1,0,100,0,1
101889,-121.204160975097,4,1,0,100,0,1
101953,-123.276691247195,4,1,0,100,0,1
102082,-127.677237257181,4,1,0,100,0,1
102210,-132.365597567273,4,1,0,100,0,1
102338,-137.411400321639,4,1,0,100,0,1
102450,-142.15293610204,4,1,0,70,0,1
102482,-142.857142857143,4,1,0,70,0,0
103219,-83.3333333333333,4,1,0,90,0,0
103989,-88.239792017128,4,1,0,90,0,0
104758,-93.7525387927533,4,1,0,90,0,0
105527,-100,4,1,0,90,0,0
106296,-107.139541361062,4,1,0,90,0,0
107066,-115.388461153885,4,1,0,90,0,0
107835,-125,4,1,0,90,0,0
117338,-122.453040432983,4,1,0,90,0,0
117402,-121.832435856826,4,1,0,90,0,0
117466,-121.218090135518,4,1,0,90,0,0
117594,-120.007800312012,4,1,0,90,0,0
117723,-118.812263495251,4,1,0,90,0,0
117851,-117.649307945247,4,1,0,90,0,0
117979,-116.508898144642,4,1,0,90,0,0
118235,-114.293143154298,4,1,0,90,0,0
118364,-113.208241353937,4,1,0,90,0,0
118492,-112.151917189095,4,1,0,90,0,0
118620,-111.115123501372,4,1,0,90,0,0
118748,-110.097323600973,4,1,0,90,0,0
118812,-109.595383957829,4,1,0,90,0,0
118876,-109.098000283648,4,1,0,90,0,0
119005,-108.109057690956,4,1,0,90,0,0
119133,-107.145344383314,4,1,0,90,0,0
119261,-106.198660868365,4,1,0,90,0,0
119389,-105.268559698939,4,1,0,90,0,0
119518,-104.347531199132,4,1,0,90,0,0
119582,-103.896542409508,4,1,0,90,0,0
119646,-103.449435180204,4,1,0,90,0,0
119710,-103.006159614355,4,1,0,90,0,0
119774,-102.566666666667,4,1,0,90,0,0
119902,-101.698836594395,4,1,0,90,0,0
120030,-100.845568956476,4,1,0,90,0,0
120159,-90.9090909090909,4,1,0,90,0,0
121441,-125,4,1,0,90,0,0
121697,-120.694294940797,4,1,0,90,0,0
121953,-116.675338189386,4,1,0,90,0,0
122082,-114.749904055264,4,1,0,90,0,0
122210,-112.901195720579,4,1,0,90,0,0
122338,-111.111111111111,4,1,0,90,0,0
122466,-109.376905255457,4,1,0,90,0,0
122594,-107.696001920999,4,1,0,90,0,0
122723,-106.053440529676,4,1,0,90,0,0
122851,-104.472396925227,4,1,0,90,0,0
122979,-102.937801239385,4,1,0,90,0,0
123107,-101.447636281384,4,1,0,90,0,0
123235,-100,4,1,0,90,0,0
123492,-125,4,1,0,90,0,0
126312,-125,4,1,0,90,0,0
126569,-123.072307230723,4,1,0,90,0,0
126697,-122.134222592747,4,1,0,90,0,0
126825,-121.210330358726,4,1,0,90,0,0
126953,-120.300310868673,4,1,0,90,0,0
127018,-119.843403061821,4,1,0,90,0,0
127082,-119.396903015485,4,1,0,90,0,0
127338,-117.643684753929,4,1,0,90,0,0
127466,-116.786243024712,4,1,0,90,0,0
127594,-115.941209723007,4,1,0,90,0,0
127723,-115.101857567765,4,1,0,90,0,0
127851,-114.280938318382,4,1,0,90,0,0
128107,-112.67373509861,4,1,0,90,0,0
128235,-111.886967432219,4,1,0,90,0,0
128300,-111.491628614916,4,1,0,90,0,0
128364,-111.105092091008,4,1,0,90,0,0
128492,-110.340004303852,4,1,0,90,0,0
128620,-109.585381491772,4,1,0,90,0,0
128748,-108.841010401189,4,1,0,90,0,0
128876,-108.106683533629,4,1,0,90,0,0
129133,-106.661812886786,4,1,0,90,0,0
129261,-105.956501523996,4,1,0,90,0,0
129389,-105.260456761612,4,1,0,90,0,0
129646,-103.890183365414,4,1,0,90,0,0
129902,-102.560256025603,4,1,0,90,0,0
130030,-101.907979727715,4,1,0,90,0,0
130159,-101.258948407801,4,1,0,90,0,0
130287,-100.623068243144,4,1,0,90,0,0
130351,-100.308113659706,4,1,0,90,0,0
130415,-99.9951245673054,4,1,0,90,0,0
130543,-99.3749697175251,4,1,0,90,0,0
130671,-98.7624596715944,4,1,0,90,0,0
130800,-98.1527565084227,4,1,0,90,0,0
130928,-97.5551750380517,4,1,0,90,0,0
131056,-96.96482602118,4,1,0,90,0,0
131120,-96.672322775264,4,1,0,90,0,0
131184,-96.3815789473684,4,1,0,90,0,0
131312,-95.8053064275037,4,1,0,90,0,0
131441,-95.2314621349306,4,1,0,90,0,0
131505,-94.9493079024119,4,1,0,90,0,0
131569,-94.6688206785137,4,1,0,90,0,0
131697,-94.112788510072,4,1,0,90,0,0
131825,-93.5632498517403,4,1,0,90,0,0
131889,-93.2908801455538,4,1,0,90,0,0
131953,-93.0200916141322,4,1,0,90,0,0
132018,-92.7466763136475,4,1,0,90,0,0
132082,-92.4790332762197,4,1,0,90,0,0
132146,-92.2129304918622,4,1,0,90,0,0
132210,-91.9483547027706,4,1,0,90,0,0
132338,-91.4237318356067,4,1,0,90,0,0
132482,256.410256410256,36,1,0,90,1,0
132482,-90.9090909090909,4,1,0,90,0,0
132514,-125,3,1,0,80,0,0
133219,-125,3,1,0,70,0,0
133988,-125,3,1,0,60,0,0
134757,-125,3,1,0,50,0,0
135526,-125,3,1,0,40,0,0
136296,-125,3,1,0,30,0,0
137065,-125,3,1,0,20,0,0
137834,-125,3,1,0,30,0,0
138603,-125,3,1,0,35,0,0
139373,-125,3,1,0,40,0,0
140142,-125,3,1,0,45,0,0
140911,-125,3,1,0,50,0,0
141680,-125,3,1,0,60,0,0
141712,256.410256410256,3,1,0,60,1,8
141713,256.410256410256,3,1,0,60,1,0
141713,-125,3,1,0,60,0,0
142450,-125,3,1,0,70,0,0
143219,-125,3,1,0,80,0,0
143988,-125,3,1,0,90,0,0
144757,-125,3,1,0,80,0,0
155527,-125,3,1,0,90,0,0
155799,-120.006242197253,4,1,0,90,0,0
155927,-117.65605875153,4,1,0,90,0,0
156055,-115.396158463385,4,1,0,90,0,0
156184,-113.204769615781,4,1,0,90,0,0
156312,-111.111111111111,4,1,0,90,0,0
156440,-109.093488438076,4,1,0,90,0,0
156504,-108.111907774497,4,1,0,90,0,0
156568,-107.147833356556,4,1,0,90,0,0
156696,-105.270362765229,4,1,0,90,0,0
156825,-103.443637341942,4,1,0,90,0,0
156953,-101.692673895795,4,1,0,90,0,0
157081,-100,4,1,0,90,0,0
157167,-100.586670304932,4,1,0,90,0,0
157252,-101.173322354879,4,1,0,90,0,0
157337,-101.766857616123,4,1,0,90,0,0
157466,-102.681058495822,4,1,0,90,0,0
157594,-103.60455311973,4,1,0,90,0,0
157722,-104.544809982984,4,1,0,90,0,0
157850,-105.502289639382,4,1,0,90,0,0
157979,-106.485159240269,4,1,0,90,0,0
158107,-107.478679204024,4,1,0,90,0,0
158235,-108.49091310426,4,1,0,90,0,0
158363,-109.522394711431,4,1,0,90,0,0
158620,-111.653793730123,4,1,0,90,0,0
158705,-112.377105403552,4,1,0,90,0,0
158790,-113.109849647131,4,1,0,90,0,0
158876,-113.861003861004,4,1,0,90,0,0
159004,-114.997660271409,4,1,0,90,0,0
159132,-116.157239640775,4,1,0,90,0,0
159261,-117.349781138082,4,1,0,90,0,0
159389,-118.557529950953,4,1,0,90,0,0
159517,-119.79039727029,4,1,0,90,0,0
159645,-121.049174944586,4,1,0,90,0,0
159773,-122.334688459305,4,1,0,90,0,0
159902,-123.658168399866,4,1,0,90,0,0
160158,-126.371271854645,4,1,0,90,0,0
160286,-127.772963604853,4,1,0,90,0,0
160414,-129.206098843323,4,1,0,90,0,0
160543,-130.683328901888,4,1,0,90,0,0
160671,-132.182877633348,4,1,0,90,0,0
160799,-133.717239503038,4,1,0,90,0,0
160927,-135.287641067988,4,1,0,90,0,0
161055,-136.895367189676,4,1,0,90,0,0
161184,-138.554782935538,4,1,0,90,0,0
161312,-140.241582651702,4,1,0,90,0,0
161440,-141.969959560947,4,1,0,90,0,0
161568,-143.741470072139,4,1,0,90,0,0
161696,-145.557749259625,4,1,0,90,0,0
161825,-147.435256474353,4,1,0,90,0,0
161953,-149.346703129748,4,1,0,90,0,0
162081,-151.308363263212,4,1,0,90,0,0
162209,-153.322241863367,4,1,0,90,0,0
162337,-155.390452102434,4,1,0,90,0,0
162466,-157.532051282051,4,1,0,90,0,0
162594,-159.716204506066,4,1,0,90,0,0
162722,-161.961775043937,4,1,0,90,0,0
162850,-164.271390374332,4,1,0,90,0,0
162979,-166.666666666667,4,1,0,90,0,0
163235,-100,4,1,0,90,0,0
163320,-100.635395253224,4,1,0,90,0,0
163406,-101.286536508295,4,1,0,90,0,0
163491,-101.938439404839,4,1,0,90,0,0
163620,-102.943987765246,4,1,0,90,0,0
163748,-103.961542916715,4,1,0,90,0,0
163876,-104.999415045042,4,1,0,90,0,0
163940,-105.526161081717,4,1,0,90,0,0
164004,-106.058218773388,4,1,0,90,0,0
164132,-107.138593768652,4,1,0,90,0,0
164261,-108.249909540466,4,1,0,90,0,0
164389,-109.375634723971,4,1,0,90,0,0
164517,-110.525019498379,4,1,0,90,0,0
164773,-112.89781542203,4,1,0,90,0,0
164859,-113.717954132703,4,1,0,90,0,0
164944,-114.540349683073,4,1,0,90,0,0
165030,-115.384615384615,4,1,0,90,0,0
165158,-116.664500194982,4,1,0,90,0,0
165286,-117.973097314113,4,1,0,90,0,0
165414,-119.311383879116,4,1,0,90,0,0
165479,-120.002674154299,4,1,0,90,0,0
165543,-120.691200860639,4,1,0,90,0,0
165671,-122.09223234934,4,1,0,90,0,0
165799,-123.526173326605,4,1,0,90,0,0
165927,-124.994197112483,4,1,0,90,0,0
166055,-126.497533474278,4,1,0,90,0,0
166312,-129.627846516778,4,1,0,90,0,0
166440,-131.245430173044,4,1,0,90,0,0
166504,-132.069456025899,4,1,0,90,0,0
166568,-132.903894565378,4,1,0,90,0,0
166696,-134.604809278608,4,1,0,90,0,0
166825,-136.363636363636,4,1,0,90,0,0
166953,-138.154856585766,4,1,0,90,0,0
167081,-139.993760723756,4,1,0,90,0,0
167209,-141.882278547716,4,1,0,90,0,0
167337,-143.822445382191,4,1,0,90,0,0
167466,-145.832204950441,4,1,0,90,0,0
167530,-146.850286337606,4,1,0,90,0,0
167594,-147.882682484759,4,1,0,90,0,0
167722,-149.991643919559,4,1,0,90,0,0
167786,-151.068843629019,4,1,0,90,0,0
167850,-152.161627578412,4,1,0,90,0,0
167979,-154.413029764294,4,1,0,90,0,0
168107,-156.713811768814,4,1,0,90,0,0
168171,-157.890107312496,4,1,0,90,0,0
168235,-159.084194977843,4,1,0,90,0,0
168299,-160.296481514556,4,1,0,90,0,0
168363,-161.527386165937,4,1,0,90,0,0
168491,-164.046792176933,4,1,0,90,0,0
168604,-166.666666666667,3,1,0,80,0,0
169373,-125,3,1,0,100,0,0
169405,-100,4,1,0,100,0,1
169474,-100.555555555556,4,1,0,100,0,1
169560,-101.123964769291,4,1,0,100,0,1
169645,-101.69211448212,4,1,0,100,0,1
169773,-102.55982934471,4,1,0,100,0,1
169837,-102.999263573676,4,1,0,100,0,1
169902,-103.449435180204,4,1,0,100,0,1
170030,-104.347531199132,4,1,0,100,0,1
170158,-105.26135741653,4,1,0,100,0,1
170286,-106.191330756488,4,1,0,100,0,1
170414,-107.137883008357,4,1,0,100,0,1
170543,-108.109057690956,4,1,0,100,0,1
170671,-109.090264482734,4,1,0,100,0,1
170927,-111.107099010616,4,1,0,100,0,1
171013,-111.801467916576,4,1,0,100,0,1
171098,-112.496343960222,4,1,0,100,0,1
171184,-113.208241353937,4,1,0,100,0,1
171312,-114.284653097608,4,1,0,100,0,1
171376,-114.830571727123,4,1,0,100,0,1
171440,-115.381730913454,4,1,0,100,0,1
171568,-116.500075723156,4,1,0,100,0,1
171696,-117.640311974308,4,1,0,100,0,1
171825,-118.812263495251,4,1,0,100,0,1
171953,-119.998440059278,4,1,0,100,0,1
172081,-121.208540140235,4,1,0,100,0,1
172209,-122.443294866693,4,1,0,100,0,1
172466,-125,4,1,0,100,0,1
172594,-126.313628899836,4,1,0,100,0,1
172658,-126.980851766259,4,1,0,100,0,1
172722,-127.655160969134,4,1,0,100,0,1
172850,-129.025494800403,4,1,0,100,0,1
172979,-130.436625688851,4,1,0,100,0,1
173107,-131.867660923974,4,1,0,100,0,1
173235,-133.330444579253,4,1,0,100,0,1
173363,-134.826045044256,4,1,0,100,0,1
173491,-136.355579189932,4,1,0,100,0,1
173620,-137.932580240273,4,1,0,100,0,1
173748,-139.533829131145,4,1,0,100,0,1
173876,-141.172692237108,4,1,0,100,0,1
174004,-142.850510677809,4,1,0,100,0,1
174132,-144.568690095847,4,1,0,100,0,1
174196,-145.443373038382,4,1,0,100,0,1
174261,-146.342623418625,4,1,0,100,0,1
174389,-148.146364949446,4,1,0,100,0,1
174517,-149.995125280296,4,1,0,100,0,1
174645,-151.890611116596,4,1,0,100,0,1
174773,-153.834616538346,4,1,0,100,0,1
174837,-154.825400020127,4,1,0,100,0,1
174902,-155.844813614263,4,1,0,100,0,1
174966,-156.861745513866,4,1,0,100,0,1
175030,-157.892036124795,4,1,0,100,0,1
175158,-159.993760399334,4,1,0,100,0,1
175286,-162.152192242833,4,1,0,100,0,1
175543,-166.666666666667,4,1,0,100,0,1
175628,-163.652802893309,4,1,0,100,0,1
175714,-160.712420348898,4,1,0,100,0,1
175799,-157.908241814636,4,1,0,100,0,1
175927,-153.865386538654,4,1,0,100,0,1
175991,-151.920608274909,4,1,0,100,0,1
176055,-150.024378352023,4,1,0,100,0,1
176184,-146.342623418625,4,1,0,100,0,1
176312,-142.863775652335,4,1,0,100,0,1
176440,-139.546485260771,4,1,0,100,0,1
176504,-137.944947547745,4,1,0,100,0,1
176568,-136.379753567946,4,1,0,100,0,1
176696,-133.353558117362,4,1,0,100,0,1
176825,-130.436625688851,4,1,0,100,0,1
177081,-125.010156821321,4,1,0,100,0,1
177167,-123.287122365574,4,1,0,100,0,1
177252,-121.630168392758,4,1,0,100,0,1
177337,-120.017162025119,4,1,0,100,0,1
177466,-117.649307945247,4,1,0,100,0,1
177530,-116.508898144642,4,1,0,100,0,1
177594,-115.390384759619,4,1,0,100,0,1
177722,-113.216572227537,4,1,0,100,0,1
177850,-111.123149151318,4,1,0,100,0,1
177979,-109.090264482734,4,1,0,100,0,1
178043,-108.109057690956,4,1,0,100,0,1
178107,-107.145344383314,4,1,0,100,0,1
178235,-105.268559698939,4,1,0,100,0,1
178299,-104.354608966967,4,1,0,100,0,1
178363,-103.456391634725,4,1,0,100,0,1
178427,-102.573504900327,4,1,0,100,0,1
178491,-101.705559595425,4,1,0,100,0,1
178604,-100,4,1,0,80,0,1
178636,-100,4,1,0,80,0,0
178705,-100.667451904201,4,1,0,80,0,0
178790,-101.343873517787,4,1,0,80,0,0
178876,-102.037567653614,4,1,0,80,0,0
178961,-102.732590752464,4,1,0,80,0,0
179047,-103.445493423707,4,1,0,80,0,0
179132,-104.1598960026,4,1,0,80,0,0
179218,-104.892816233022,4,1,0,80,0,0
179303,-105.627420285079,4,1,0,80,0,0
179389,-106.38121317733,4,1,0,80,0,0
179560,-107.912457912458,4,1,0,80,0,0
179645,-108.690122933446,4,1,0,80,0,0
179731,-109.488427705184,4,1,0,80,0,0
179816,-110.289057123193,4,1,0,80,0,0
179902,-111.111111111111,4,1,0,80,0,0
179987,-111.93573736139,4,1,0,80,0,0
180073,-112.782616345562,4,1,0,80,0,0
180158,-113.63233469243,4,1,0,80,0,0
180286,-114.936345705576,4,1,0,80,0,0
180414,-116.270633049157,4,1,0,80,0,0
180543,-117.647058823529,4,1,0,80,0,0
180671,-119.045408115888,4,1,0,80,0,0
180799,-120.47739874072,4,1,0,80,0,0
180927,-121.944259488253,4,1,0,80,0,0
181184,-125,4,1,0,80,0,0

[HitObjects]
256,192,4790,5,4,0:0:0:0:
256,192,5046,1,0,0:0:0:0:
256,192,5303,1,0,0:0:0:0:
256,192,5559,1,8,0:0:0:0:
256,192,5816,1,0,0:0:0:0:
256,192,6072,1,0,0:0:0:0:
256,192,6585,1,0,0:0:0:0:
256,192,6841,1,0,0:0:0:0:
256,192,7098,1,8,0:0:0:0:
256,192,7354,1,8,0:0:0:0:
256,192,7482,1,8,0:0:0:0:
256,192,7610,1,8,0:0:0:0:
256,192,7739,1,8,0:0:0:0:
256,192,7867,1,0,0:0:0:0:
256,192,8123,1,0,0:0:0:0:
256,192,8380,1,0,0:0:0:0:
256,192,8636,1,8,0:0:0:0:
256,192,8893,1,0,0:0:0:0:
256,192,9149,1,0,0:0:0:0:
256,192,9662,1,0,0:0:0:0:
256,192,9790,1,0,0:0:0:0:
256,192,10046,1,0,0:0:0:0:
256,192,10175,1,8,0:0:0:0:
256,192,10431,1,8,0:0:0:0:
256,192,10559,1,0,0:0:0:0:
256,192,10687,1,8,0:0:0:0:
256,192,10816,1,0,0:0:0:0:
256,192,10944,1,0,0:0:0:0:
256,192,11713,1,0,0:0:0:0:
256,192,12482,1,0,0:0:0:0:
256,192,12739,1,0,0:0:0:0:
256,192,12995,1,0,0:0:0:0:
256,192,13251,1,0,0:0:0:0:
256,192,13380,1,0,0:0:0:0:
256,192,13508,1,0,0:0:0:0:
256,192,13636,1,0,0:0:0:0:
256,192,13764,1,8,0:0:0:0:
256,192,13893,1,8,0:0:0:0:
256,192,14021,1,4,0:0:0:0:
256,192,14277,1,0,0:0:0:0:
256,192,14534,1,0,0:0:0:0:
256,192,14790,1,8,0:0:0:0:
256,192,15046,1,0,0:0:0:0:
256,192,15303,1,0,0:0:0:0:
256,192,15816,1,0,0:0:0:0:
256,192,15944,1,8,0:0:0:0:
256,192,16072,1,8,0:0:0:0:
256,192,16136,1,8,0:0:0:0:
256,192,16200,1,8,0:0:0:0:
256,192,16328,1,8,0:0:0:0:
256,192,16393,1,8,0:0:0:0:
256,192,16521,1,0,0:0:0:0:
256,192,16585,1,8,0:0:0:0:
256,192,16713,1,0,0:0:0:0:
256,192,16841,1,0,0:0:0:0:
256,192,16905,1,8,0:0:0:0:
256,192,16969,1,8,0:0:0:0:
256,192,17098,1,8,0:0:0:0:
256,192,17354,1,0,0:0:0:0:
256,192,17610,1,0,0:0:0:0:
256,192,17867,1,8,0:0:0:0:
256,192,18123,1,0,0:0:0:0:
256,192,18380,1,0,0:0:0:0:
256,192,18508,1,0,0:0:0:0:
256,192,18636,1,8,0:0:0:0:
256,192,18893,1,0,0:0:0:0:
256,192,19149,1,8,0:0:0:0:
256,192,19341,1,8,0:0:0:0:
256,192,19405,1,0,0:0:0:0:
256,192,19534,1,12,0:0:0:0:
256,192,19662,1,0,0:0:0:0:
256,192,19790,1,8,0:0:0:0:
256,192,19854,1,0,0:0:0:0:
256,192,19918,1,0,0:0:0:0:
256,192,19982,1,8,0:0:0:0:
256,192,20046,1,8,0:0:0:0:
256,192,20175,1,8,0:0:0:0:
256,192,20431,1,0,0:0:0:0:
256,192,20559,1,0,0:0:0:0:
256,192,20687,1,0,0:0:0:0:
256,192,20816,1,0,0:0:0:0:
256,192,20944,1,8,0:0:0:0:
256,192,21200,1,0,0:0:0:0:
256,192,21328,1,0,0:0:0:0:
256,192,21457,1,8,0:0:0:0:
256,192,21585,1,0,0:0:0:0:
256,192,21713,1,0,0:0:0:0:
256,192,21969,1,0,0:0:0:0:
256,192,22098,1,8,0:0:0:0:
256,192,22226,1,8,0:0:0:0:
256,192,22354,1,8,0:0:0:0:
256,192,22482,1,8,0:0:0:0:
256,192,22610,1,0,0:0:0:0:
256,192,22675,1,0,0:0:0:0:
256,192,22739,1,8,0:0:0:0:
256,192,22867,1,0,0:0:0:0:
256,192,22931,1,8,0:0:0:0:
256,192,22995,1,0,0:0:0:0:
256,192,23059,1,0,0:0:0:0:
256,192,23123,1,8,0:0:0:0:
256,192,23251,1,8,0:0:0:0:
256,192,23508,1,0,0:0:0:0:
256,192,23636,1,8,0:0:0:0:
256,192,23700,1,8,0:0:0:0:
256,192,23764,1,8,0:0:0:0:
256,192,24021,1,8,0:0:0:0:
256,192,24277,1,0,0:0:0:0:
256,192,24405,1,0,0:0:0:0:
256,192,24534,1,0,0:0:0:0:
256,192,24662,1,8,0:0:0:0:
256,192,24790,1,8,0:0:0:0:
256,192,24854,1,0,0:0:0:0:
256,192,24918,1,8,0:0:0:0:
256,192,25046,1,0,0:0:0:0:
256,192,25175,1,8,0:0:0:0:
256,192,25303,1,8,0:0:0:0:
256,192,25367,1,8,0:0:0:0:
256,192,25559,1,0,0:0:0:0:
256,192,25816,1,12,0:0:0:0:
256,192,25944,1,8,0:0:0:0:
256,192,26008,1,8,0:0:0:0:
256,192,26072,1,8,0:0:0:0:
256,192,26200,1,8,0:0:0:0:
256,192,26328,1,0,0:0:0:0:
256,192,26457,1,8,0:0:0:0:
256,192,26585,1,8,0:0:0:0:
256,192,26713,1,0,0:0:0:0:
256,192,26841,1,8,0:0:0:0:
256,192,26969,1,0,0:0:0:0:
256,192,27098,1,8,0:0:0:0:
256,192,27354,1,8,0:0:0:0:
256,192,27482,1,8,0:0:0:0:
256,192,27610,1,8,0:0:0:0:
256,192,27739,1,0,0:0:0:0:
256,192,27867,1,8,0:0:0:0:
256,192,27995,1,8,0:0:0:0:
256,192,28123,1,0,0:0:0:0:
256,192,28251,1,8,0:0:0:0:
256,192,28380,1,0,0:0:0:0:
256,192,28508,1,0,0:0:0:0:
256,192,28636,1,8,0:0:0:0:
256,192,28764,1,0,0:0:0:0:
256,192,28828,1,0,0:0:0:0:
256,192,28893,1,8,0:0:0:0:
256,192,29021,1,0,0:0:0:0:
256,192,29149,1,8,0:0:0:0:
256,192,29213,1,8,0:0:0:0:
256,192,29277,1,8,0:0:0:0:
256,192,29341,1,8,0:0:0:0:
256,192,29405,1,0,0:0:0:0:
256,192,35559,5,0,0:0:0:0:
256,192,35645,1,8,0:0:0:0:
256,192,35730,1,0,0:0:0:0:
256,192,35816,1,0,0:0:0:0:
256,192,35944,1,0,0:0:0:0:
256,192,36072,1,8,0:0:0:0:
256,192,36200,1,8,0:0:0:0:
256,192,36328,1,0,0:0:0:0:
256,192,36457,1,0,0:0:0:0:
256,192,36585,1,8,0:0:0:0:
256,192,36713,1,0,0:0:0:0:
256,192,36841,1,8,0:0:0:0:
256,192,37098,1,0,0:0:0:0:
256,192,37183,1,8,0:0:0:0:
256,192,37269,1,8,0:0:0:0:
256,192,37354,1,0,0:0:0:0:
256,192,37482,1,0,0:0:0:0:
256,192,37610,1,8,0:0:0:0:
256,192,37739,1,0,0:0:0:0:
256,192,37867,1,8,0:0:0:0:
256,192,37995,1,8,0:0:0:0:
256,192,38123,1,0,0:0:0:0:
256,192,38251,1,0,0:0:0:0:
256,192,38380,1,8,0:0:0:0:
256,192,38636,1,8,0:0:0:0:
256,192,38764,1,8,0:0:0:0:
256,192,38893,1,0,0:0:0:0:
256,192,39021,1,8,0:0:0:0:
256,192,39149,1,0,0:0:0:0:
256,192,39277,1,0,0:0:0:0:
256,192,39405,1,8,0:0:0:0:
256,192,39534,1,0,0:0:0:0:
256,192,39662,1,0,0:0:0:0:
256,192,39790,1,8,0:0:0:0:
256,192,39918,1,8,0:0:0:0:
256,192,40046,1,0,0:0:0:0:
256,192,40175,1,8,0:0:0:0:
256,192,40303,1,0,0:0:0:0:
256,192,40431,1,0,0:0:0:0:
256,192,40559,1,8,0:0:0:0:
256,192,40687,1,8,0:0:0:0:
256,192,40816,1,8,0:0:0:0:
256,192,40944,1,0,0:0:0:0:
256,192,41072,1,8,0:0:0:0:
256,192,41200,1,0,0:0:0:0:
256,192,41328,1,8,0:0:0:0:
256,192,41457,1,8,0:0:0:0:
256,192,41585,1,8,0:0:0:0:
256,192,41713,1,0,0:0:0:0:
256,192,42482,1,0,0:0:0:0:
256,192,42995,1,8,0:0:0:0:
256,192,43251,1,0,0:0:0:0:
256,192,43764,1,8,0:0:0:0:
256,192,44021,1,0,0:0:0:0:
256,192,44277,1,8,0:0:0:0:
256,192,44534,1,8,0:0:0:0:
256,192,44790,1,0,0:0:0:0:
256,192,45046,1,8,0:0:0:0:
256,192,45303,1,8,0:0:0:0:
256,192,45559,1,0,0:0:0:0:
256,192,45816,1,8,0:0:0:0:
256,192,45944,1,8,0:0:0:0:
256,192,46072,1,8,0:0:0:0:
256,192,46328,1,0,0:0:0:0:
256,192,46585,1,8,0:0:0:0:
256,192,46713,1,8,0:0:0:0:
256,192,46841,1,8,0:0:0:0:
256,192,46969,1,8,0:0:0:0:
256,192,47098,1,0,0:0:0:0:
256,192,47226,1,0,0:0:0:0:
256,192,47354,1,8,0:0:0:0:
256,192,47482,1,8,0:0:0:0:
256,192,47610,1,8,0:0:0:0:
256,192,47739,1,8,0:0:0:0:
256,192,47867,1,0,0:0:0:0:
256,192,48123,1,8,0:0:0:0:
256,192,48251,1,8,0:0:0:0:
256,192,48380,1,0,0:0:0:0:
256,192,48636,1,0,0:0:0:0:
256,192,48893,1,8,0:0:0:0:
256,192,49021,1,8,0:0:0:0:
256,192,49149,1,0,0:0:0:0:
256,192,49277,1,8,0:0:0:0:
256,192,49405,1,0,0:0:0:0:
256,192,49662,5,8,0:0:0:0:
256,192,49790,1,8,0:0:0:0:
256,192,49918,1,0,0:0:0:0:
256,192,50046,1,8,0:0:0:0:
256,192,50175,1,0,0:0:0:0:
256,192,50303,1,8,0:0:0:0:
256,192,50431,1,8,0:0:0:0:
256,192,50559,1,8,0:0:0:0:
256,192,50687,1,0,0:0:0:0:
256,192,50816,1,8,0:0:0:0:
256,192,50944,1,0,0:0:0:0:
256,192,51200,1,0,0:0:0:0:
256,192,51328,1,8,0:0:0:0:
256,192,51457,1,0,0:0:0:0:
256,192,51713,1,0,0:0:0:0:
256,192,51841,1,0,0:0:0:0:
256,192,51969,1,8,0:0:0:0:
256,192,52098,1,0,0:0:0:0:
256,192,52226,1,8,0:0:0:0:
256,192,52354,1,8,0:0:0:0:
256,192,52482,1,0,0:0:0:0:
256,192,52546,1,0,0:0:0:0:
256,192,52610,1,8,0:0:0:0:
256,192,52739,1,0,0:0:0:0:
256,192,52803,1,8,0:0:0:0:
256,192,52867,1,0,0:0:0:0:
256,192,52931,1,0,0:0:0:0:
256,192,52995,1,8,0:0:0:0:
256,192,53059,1,8,0:0:0:0:
256,192,53123,1,0,0:0:0:0:
256,192,53187,1,0,0:0:0:0:
256,192,53251,1,8,0:0:0:0:
256,192,53380,1,8,0:0:0:0:
256,192,53508,1,8,0:0:0:0:
256,192,53636,1,8,0:0:0:0:
256,192,53764,1,8,0:0:0:0:
256,192,53893,1,8,0:0:0:0:
256,192,54021,5,4,0:0:0:0:
256,192,54534,1,8,0:0:0:0:
256,192,54790,1,8,0:0:0:0:
256,192,54854,1,8,0:0:0:0:
256,192,54918,1,0,0:0:0:0:
256,192,55046,1,0,0:0:0:0:
256,192,55175,1,8,0:0:0:0:
256,192,55239,1,8,0:0:0:0:
256,192,55303,1,0,0:0:0:0:
256,192,55431,1,0,0:0:0:0:
256,192,55559,1,8,0:0:0:0:
256,192,55623,1,8,0:0:0:0:
256,192,55687,1,0,0:0:0:0:
256,192,55751,1,8,0:0:0:0:
256,192,55816,1,0,0:0:0:0:
256,192,55944,1,8,0:0:0:0:
256,192,56008,1,8,0:0:0:0:
256,192,56072,1,8,0:0:0:0:
256,192,56200,1,0,0:0:0:0:
256,192,56328,1,8,0:0:0:0:
256,192,56393,1,8,0:0:0:0:
256,192,56457,1,0,0:0:0:0:
256,192,56585,1,0,0:0:0:0:
256,192,56713,1,8,0:0:0:0:
256,192,56777,1,0,0:0:0:0:
256,192,56841,1,8,0:0:0:0:
256,192,56905,1,8,0:0:0:0:
256,192,56969,1,0,0:0:0:0:
256,192,57034,1,8,0:0:0:0:
256,192,57098,1,0,0:0:0:0:
256,192,57482,1,8,0:0:0:0:
256,192,57546,1,8,0:0:0:0:
256,192,57610,1,0,0:0:0:0:
256,192,57675,1,0,0:0:0:0:
256,192,57739,1,0,0:0:0:0:
256,192,57867,1,8,0:0:0:0:
256,192,57931,1,8,0:0:0:0:
256,192,57995,1,0,0:0:0:0:
256,192,58123,1,0,0:0:0:0:
256,192,58251,1,8,0:0:0:0:
256,192,58316,1,8,0:0:0:0:
256,192,58380,1,0,0:0:0:0:
256,192,58508,1,0,0:0:0:0:
256,192,58636,1,8,0:0:0:0:
256,192,58700,1,8,0:0:0:0:
256,192,58764,1,0,0:0:0:0:
256,192,58828,1,8,0:0:0:0:
256,192,58893,1,0,0:0:0:0:
256,192,59021,1,8,0:0:0:0:
256,192,59085,1,8,0:0:0:0:
256,192,59149,1,8,0:0:0:0:
256,192,59277,1,0,0:0:0:0:
256,192,59405,1,8,0:0:0:0:
256,192,59469,1,8,0:0:0:0:
256,192,59534,1,0,0:0:0:0:
256,192,59662,1,0,0:0:0:0:
256,192,59790,1,8,0:0:0:0:
256,192,59854,1,0,0:0:0:0:
256,192,59918,1,0,0:0:0:0:
256,192,59982,1,8,0:0:0:0:
256,192,60046,1,8,0:0:0:0:
256,192,60110,1,8,0:0:0:0:
256,192,60175,1,0,0:0:0:0:
256,192,60367,1,0,0:0:0:0:
256,192,60431,1,8,0:0:0:0:
256,192,60495,1,8,0:0:0:0:
256,192,60559,1,0,0:0:0:0:
256,192,60687,1,8,0:0:0:0:
256,192,60816,1,0,0:0:0:0:
256,192,60944,1,8,0:0:0:0:
256,192,60987,1,8,0:0:0:0:
256,192,61200,1,8,0:0:0:0:
256,192,61243,1,8,0:0:0:0:
256,192,61457,1,8,0:0:0:0:
256,192,61499,1,8,0:0:0:0:
256,192,61713,1,8,0:0:0:0:
256,192,61756,1,8,0:0:0:0:
256,192,61969,1,8,0:0:0:0:
256,192,62012,1,8,0:0:0:0:
256,192,62226,1,8,0:0:0:0:
256,192,62269,1,8,0:0:0:0:
256,192,62482,1,8,0:0:0:0:
256,192,62525,1,8,0:0:0:0:
256,192,62739,1,8,0:0:0:0:
256,192,62781,1,8,0:0:0:0:
256,192,62995,1,8,0:0:0:0:
256,192,63038,1,8,0:0:0:0:
256,192,63251,1,0,0:0:0:0:
256,192,63764,1,0,0:0:0:0:
256,192,63828,1,0,0:0:0:0:
256,192,63893,1,0,0:0:0:0:
256,192,64021,1,8,0:0:0:0:
256,192,64063,1,8,0:0:0:0:
256,192,64277,1,8,0:0:0:0:
256,192,64320,1,8,0:0:0:0:
256,192,64534,1,8,0:0:0:0:
256,192,64662,1,8,0:0:0:0:
256,192,64790,1,8,0:0:0:0:
256,192,64833,1,8,0:0:0:0:
256,192,65046,1,0,0:0:0:0:
256,192,65217,1,8,0:0:0:0:
256,192,65303,1,8,0:0:0:0:
256,192,65431,1,0,0:0:0:0:
256,192,65559,1,8,0:0:0:0:
256,192,65687,1,0,0:0:0:0:
256,192,65816,1,8,0:0:0:0:
256,192,65944,1,8,0:0:0:0:
256,192,66072,1,0,0:0:0:0:
256,192,66200,1,8,0:0:0:0:
256,192,66328,1,4,0:0:0:0:
256,192,66841,1,8,0:0:0:0:
256,192,67098,1,8,0:0:0:0:
256,192,67226,1,0,0:0:0:0:
256,192,67290,1,0,0:0:0:0:
256,192,67354,1,8,0:0:0:0:
256,192,67482,1,0,0:0:0:0:
256,192,67546,1,0,0:0:0:0:
256,192,67610,1,8,0:0:0:0:
256,192,67739,1,0,0:0:0:0:
256,192,67867,1,8,0:0:0:0:
256,192,67931,1,8,0:0:0:0:
256,192,67995,1,0,0:0:0:0:
256,192,68059,1,8,0:0:0:0:
256,192,68123,1,0,0:0:0:0:
256,192,68251,1,0,0:0:0:0:
256,192,68316,1,0,0:0:0:0:
256,192,68380,1,8,0:0:0:0:
256,192,68508,1,0,0:0:0:0:
256,192,68636,1,8,0:0:0:0:
256,192,68764,1,0,0:0:0:0:
256,192,68828,1,0,0:0:0:0:
256,192,68893,1,8,0:0:0:0:
256,192,68957,1,8,0:0:0:0:
256,192,69021,1,0,0:0:0:0:
256,192,69085,1,0,0:0:0:0:
256,192,69149,1,8,0:0:0:0:
256,192,69213,1,8,0:0:0:0:
256,192,69277,1,0,0:0:0:0:
256,192,69341,1,8,0:0:0:0:
256,192,69405,1,0,0:0:0:0:
256,192,69790,1,8,0:0:0:0:
256,192,69854,1,8,0:0:0:0:
256,192,69918,1,0,0:0:0:0:
256,192,69982,1,0,0:0:0:0:
256,192,70046,1,0,0:0:0:0:
256,192,70175,1,8,0:0:0:0:
256,192,70303,1,0,0:0:0:0:
256,192,70367,1,0,0:0:0:0:
256,192,70431,1,8,0:0:0:0:
256,192,70559,1,0,0:0:0:0:
256,192,70623,1,0,0:0:0:0:
256,192,70687,1,8,0:0:0:0:
256,192,70816,1,0,0:0:0:0:
256,192,70944,1,8,0:0:0:0:
256,192,71008,1,0,0:0:0:0:
256,192,71072,1,8,0:0:0:0:
256,192,71136,1,8,0:0:0:0:
256,192,71200,1,0,0:0:0:0:
256,192,71328,1,0,0:0:0:0:
256,192,71393,1,0,0:0:0:0:
256,192,71457,1,8,0:0:0:0:
256,192,71585,1,0,0:0:0:0:
256,192,71713,1,8,0:0:0:0:
256,192,71841,1,0,0:0:0:0:
256,192,71905,1,0,0:0:0:0:
256,192,71969,1,8,0:0:0:0:
256,192,72034,1,8,0:0:0:0:
256,192,72098,1,0,0:0:0:0:
256,192,72162,1,0,0:0:0:0:
256,192,72226,1,8,0:0:0:0:
256,192,72290,1,0,0:0:0:0:
256,192,72354,1,8,0:0:0:0:
256,192,72418,1,8,0:0:0:0:
256,192,72482,1,0,0:0:0:0:
256,192,72675,1,0,0:0:0:0:
256,192,72739,1,8,0:0:0:0:
256,192,72803,1,8,0:0:0:0:
256,192,72867,1,0,0:0:0:0:
256,192,72995,1,8,0:0:0:0:
256,192,73123,1,0,0:0:0:0:
256,192,73251,1,8,0:0:0:0:
256,192,73294,1,8,0:0:0:0:
256,192,73508,1,0,0:0:0:0:
256,192,73551,1,0,0:0:0:0:
256,192,73764,1,8,0:0:0:0:
256,192,73807,1,8,0:0:0:0:
256,192,74021,1,0,0:0:0:0:
256,192,74063,1,0,0:0:0:0:
256,192,74277,1,8,0:0:0:0:
256,192,74320,1,8,0:0:0:0:
256,192,74534,1,0,0:0:0:0:
256,192,74576,1,0,0:0:0:0:
256,192,74790,1,8,0:0:0:0:
256,192,74833,1,8,0:0:0:0:
256,192,75046,1,0,0:0:0:0:
256,192,75089,1,0,0:0:0:0:
256,192,75303,1,8,0:0:0:0:
256,192,75431,1,8,0:0:0:0:
256,192,75559,1,4,0:0:0:0:
256,192,75816,1,8,0:0:0:0:
256,192,75944,1,8,0:0:0:0:
256,192,76072,1,0,0:0:0:0:
256,192,76200,1,0,0:0:0:0:
256,192,76328,1,8,0:0:0:0:
256,192,76457,1,8,0:0:0:0:
256,192,76521,1,8,0:0:0:0:
256,192,76585,1,0,0:0:0:0:
256,192,76713,1,8,0:0:0:0:
256,192,76841,1,0,0:0:0:0:
256,192,76969,1,0,0:0:0:0:
256,192,77098,1,8,0:0:0:0:
256,192,77226,1,8,0:0:0:0:
256,192,77354,1,0,0:0:0:0:
256,192,77418,1,0,0:0:0:0:
256,192,77482,1,0,0:0:0:0:
256,192,77610,1,8,0:0:0:0:
256,192,77739,1,0,0:0:0:0:
256,192,77867,1,8,0:0:0:0:
256,192,77995,1,0,0:0:0:0:
256,192,78059,1,8,0:0:0:0:
256,192,78123,1,0,0:0:0:0:
256,192,78187,1,0,0:0:0:0:
256,192,78251,1,8,0:0:0:0:
256,192,78316,1,8,0:0:0:0:
256,192,78380,1,0,0:0:0:0:
256,192,78508,1,0,0:0:0:0:
256,192,78893,5,8,0:0:0:0:
256,192,79149,1,8,0:0:0:0:
256,192,79662,1,8,0:0:0:0:
256,192,79918,1,8,0:0:0:0:
256,192,80431,1,8,0:0:0:0:
256,192,80687,1,8,0:0:0:0:
256,192,81200,1,8,0:0:0:0:
256,192,81457,1,8,0:0:0:0:
256,192,81713,1,0,0:0:0:0:
256,192,82482,1,4,0:0:0:0:
256,192,82610,1,8,0:0:0:0:
256,192,82675,1,8,0:0:0:0:
256,192,82739,1,8,0:0:0:0:
256,192,82867,1,8,0:0:0:0:
256,192,82995,1,0,0:0:0:0:
256,192,83123,1,8,0:0:0:0:
256,192,83251,1,0,0:0:0:0:
256,192,83380,1,0,0:0:0:0:
256,192,83444,1,0,0:0:0:0:
256,192,83508,1,8,0:0:0:0:
256,192,83572,1,8,0:0:0:0:
256,192,83636,1,8,0:0:0:0:
256,192,83700,1,8,0:0:0:0:
256,192,83764,1,0,0:0:0:0:
256,192,83893,1,0,0:0:0:0:
256,192,84021,1,8,0:0:0:0:
256,192,84149,1,8,0:0:0:0:
256,192,84277,1,0,0:0:0:0:
256,192,84341,1,0,0:0:0:0:
256,192,84405,1,8,0:0:0:0:
256,192,84534,1,0,0:0:0:0:
256,192,84598,1,8,0:0:0:0:
256,192,84662,1,8,0:0:0:0:
256,192,84726,1,8,0:0:0:0:
256,192,84790,1,0,0:0:0:0:
256,192,85046,1,8,0:0:0:0:
256,192,85303,1,8,0:0:0:0:
256,192,85816,1,8,0:0:0:0:
256,192,86072,1,8,0:0:0:0:
256,192,86328,1,0,0:0:0:0:
256,192,86585,1,8,0:0:0:0:
256,192,86841,1,8,0:0:0:0:
256,192,87098,1,0,0:0:0:0:
256,192,87354,1,8,0:0:0:0:
256,192,87610,1,8,0:0:0:0:
256,192,87867,1,0,0:0:0:0:
256,192,88636,1,12,0:0:0:0:
256,192,88764,1,8,0:0:0:0:
256,192,88828,1,8,0:0:0:0:
256,192,88893,1,0,0:0:0:0:
256,192,89021,1,0,0:0:0:0:
256,192,89149,1,8,0:0:0:0:
256,192,89213,1,8,0:0:0:0:
256,192,89277,1,8,0:0:0:0:
256,192,89341,1,8,0:0:0:0:
256,192,89405,1,0,0:0:0:0:
256,192,89469,1,0,0:0:0:0:
256,192,89534,1,8,0:0:0:0:
256,192,89598,1,8,0:0:0:0:
256,192,89662,1,0,0:0:0:0:
256,192,89790,1,0,0:0:0:0:
256,192,89918,1,8,0:0:0:0:
256,192,90046,1,0,0:0:0:0:
256,192,90175,1,8,0:0:0:0:
256,192,90303,1,0,0:0:0:0:
256,192,90367,1,0,0:0:0:0:
256,192,90431,1,8,0:0:0:0:
256,192,90559,1,0,0:0:0:0:
256,192,90687,1,8,0:0:0:0:
256,192,90751,1,8,0:0:0:0:
256,192,90816,1,8,0:0:0:0:
256,192,90880,1,8,0:0:0:0:
256,192,90944,1,0,0:0:0:0:
256,192,91457,1,0,0:0:0:0:
256,192,91713,1,8,0:0:0:0:
256,192,92226,1,0,0:0:0:0:
256,192,92739,1,0,0:0:0:0:
256,192,93123,1,0,0:0:0:0:
256,192,93251,1,8,0:0:0:0:
256,192,93508,1,0,0:0:0:0:
256,192,93764,1,0,0:0:0:0:
256,192,93893,1,0,0:0:0:0:
256,192,94021,1,0,0:0:0:0:
256,192,94790,1,12,0:0:0:0:
256,192,94918,1,0,0:0:0:0:
256,192,94982,1,0,0:0:0:0:
256,192,95046,1,8,0:0:0:0:
256,192,95110,1,8,0:0:0:0:
256,192,95175,1,0,0:0:0:0:
256,192,95239,1,0,0:0:0:0:
256,192,95303,1,8,0:0:0:0:
256,192,95431,1,0,0:0:0:0:
256,192,95559,1,8,0:0:0:0:
256,192,95623,1,0,0:0:0:0:
256,192,95687,1,8,0:0:0:0:
256,192,95751,1,8,0:0:0:0:
256,192,95816,1,0,0:0:0:0:
256,192,95944,1,0,0:0:0:0:
256,192,96072,1,8,0:0:0:0:
256,192,96200,1,0,0:0:0:0:
256,192,96328,1,8,0:0:0:0:
256,192,96457,1,0,0:0:0:0:
256,192,96521,1,0,0:0:0:0:
256,192,96585,1,8,0:0:0:0:
256,192,96713,1,0,0:0:0:0:
256,192,96777,1,0,0:0:0:0:
256,192,96841,1,8,0:0:0:0:
256,192,96905,1,8,0:0:0:0:
256,192,96969,1,8,0:0:0:0:
256,192,97034,1,8,0:0:0:0:
256,192,97098,1,0,0:0:0:0:
256,192,97610,1,0,0:0:0:0:
256,192,97867,1,8,0:0:0:0:
256,192,98380,1,0,0:0:0:0:
256,192,98893,1,0,0:0:0:0:
256,192,99277,1,0,0:0:0:0:
256,192,99405,1,8,0:0:0:0:
256,192,99662,1,0,0:0:0:0:
256,192,99790,1,0,0:0:0:0:
256,192,99918,1,8,0:0:0:0:
256,192,100046,1,8,0:0:0:0:
256,192,100175,1,0,0:0:0:0:
256,192,100239,1,8,0:0:0:0:
256,192,100303,1,8,0:0:0:0:
256,192,100367,1,8,0:0:0:0:
256,192,100431,1,0,0:0:0:0:
256,192,100559,1,8,0:0:0:0:
256,192,100687,1,0,0:0:0:0:
256,192,100816,1,0,0:0:0:0:
256,192,100880,1,0,0:0:0:0:
256,192,100944,1,8,0:0:0:0:
256,192,101008,1,0,0:0:0:0:
256,192,101072,1,8,0:0:0:0:
256,192,101136,1,8,0:0:0:0:
256,192,101200,1,0,0:0:0:0:
256,192,101328,1,8,0:0:0:0:
256,192,101393,1,8,0:0:0:0:
256,192,101457,1,0,0:0:0:0:
256,192,101521,1,8,0:0:0:0:
256,192,101585,1,0,0:0:0:0:
256,192,101649,1,0,0:0:0:0:
256,192,101713,1,8,0:0:0:0:
256,192,101841,1,8,0:0:0:0:
256,192,101905,1,8,0:0:0:0:
256,192,101969,1,0,0:0:0:0:
256,192,102098,1,0,0:0:0:0:
256,192,102226,1,8,0:0:0:0:
256,192,102354,1,0,0:0:0:0:
256,192,102482,1,8,0:0:0:0:
256,192,102610,1,8,0:0:0:0:
256,192,102739,1,0,0:0:0:0:
256,192,102867,1,0,0:0:0:0:
256,192,102995,1,8,0:0:0:0:
256,192,103123,1,0,0:0:0:0:
256,192,103251,5,12,0:0:0:0:
256,192,104021,1,12,0:0:0:0:
256,192,104790,1,12,0:0:0:0:
256,192,105559,1,12,0:0:0:0:
256,192,106328,1,12,0:0:0:0:
256,192,107098,1,12,0:0:0:0:
256,192,107867,1,4,0:0:0:0:
256,192,108123,1,8,0:0:0:0:
256,192,108380,1,0,0:0:0:0:
256,192,108508,1,0,0:0:0:0:
256,192,108636,1,8,0:0:0:0:
256,192,108893,1,8,0:0:0:0:
256,192,109149,1,0,0:0:0:0:
256,192,109405,1,8,0:0:0:0:
256,192,109662,1,0,0:0:0:0:
256,192,109918,1,8,0:0:0:0:
256,192,110046,1,0,0:0:0:0:
256,192,110175,1,8,0:0:0:0:
256,192,110431,1,0,0:0:0:0:
256,192,110687,1,8,0:0:0:0:
256,192,110816,1,0,0:0:0:0:
256,192,110880,1,0,0:0:0:0:
256,192,110944,1,0,0:0:0:0:
256,192,111200,1,8,0:0:0:0:
256,192,111457,1,0,0:0:0:0:
256,192,111585,1,8,0:0:0:0:
256,192,111713,1,8,0:0:0:0:
256,192,111969,1,8,0:0:0:0:
256,192,112226,1,0,0:0:0:0:
256,192,112482,1,8,0:0:0:0:
256,192,112610,1,8,0:0:0:0:
256,192,112739,1,0,0:0:0:0:
256,192,112867,1,0,0:0:0:0:
256,192,112995,1,8,0:0:0:0:
256,192,113059,1,8,0:0:0:0:
256,192,113123,1,0,0:0:0:0:
256,192,113251,1,0,0:0:0:0:
256,192,113444,1,8,0:0:0:0:
256,192,113508,1,0,0:0:0:0:
256,192,113636,1,8,0:0:0:0:
256,192,113764,1,0,0:0:0:0:
256,192,113828,1,8,0:0:0:0:
256,192,113893,1,0,0:0:0:0:
256,192,114021,1,0,0:0:0:0:
256,192,114277,1,8,0:0:0:0:
256,192,114405,1,8,0:0:0:0:
256,192,114534,1,0,0:0:0:0:
256,192,114662,1,0,0:0:0:0:
256,192,114790,1,8,0:0:0:0:
256,192,115046,1,8,0:0:0:0:
256,192,115303,1,0,0:0:0:0:
256,192,115431,1,8,0:0:0:0:
256,192,115559,1,0,0:0:0:0:
256,192,115816,1,8,0:0:0:0:
256,192,115944,1,0,0:0:0:0:
256,192,116200,1,0,0:0:0:0:
256,192,116328,1,8,0:0:0:0:
256,192,116457,1,8,0:0:0:0:
256,192,116585,1,0,0:0:0:0:
256,192,116713,1,8,0:0:0:0:
256,192,116841,1,8,0:0:0:0:
256,192,116969,1,8,0:0:0:0:
256,192,117098,1,0,0:0:0:0:
256,192,117354,1,0,0:0:0:0:
256,192,117418,1,0,0:0:0:0:
256,192,117482,1,8,0:0:0:0:
256,192,117610,1,0,0:0:0:0:
256,192,117739,1,0,0:0:0:0:
256,192,117867,1,8,0:0:0:0:
256,192,117995,1,8,0:0:0:0:
256,192,118251,1,8,0:0:0:0:
256,192,118380,1,0,0:0:0:0:
256,192,118508,1,8,0:0:0:0:
256,192,118636,1,0,0:0:0:0:
256,192,118764,1,8,0:0:0:0:
256,192,118828,1,8,0:0:0:0:
256,192,118893,1,0,0:0:0:0:
256,192,119021,1,0,0:0:0:0:
256,192,119149,1,8,0:0:0:0:
256,192,119277,1,0,0:0:0:0:
256,192,119405,1,8,0:0:0:0:
256,192,119534,1,8,0:0:0:0:
256,192,119598,1,8,0:0:0:0:
256,192,119662,1,0,0:0:0:0:
256,192,119726,1,0,0:0:0:0:
256,192,119790,1,0,0:0:0:0:
256,192,119918,1,8,0:0:0:0:
256,192,120046,1,0,0:0:0:0:
256,192,120175,1,12,0:0:0:0:
256,192,120944,1,12,0:0:0:0:
256,192,121457,1,0,0:0:0:0:
256,192,121713,1,0,0:0:0:0:
256,192,121969,1,0,0:0:0:0:
256,192,122098,1,0,0:0:0:0:
256,192,122226,1,0,0:0:0:0:
256,192,122354,1,0,0:0:0:0:
256,192,122482,1,0,0:0:0:0:
256,192,122610,1,0,0:0:0:0:
256,192,122739,1,0,0:0:0:0:
256,192,122867,1,0,0:0:0:0:
256,192,122995,1,0,0:0:0:0:
256,192,123123,1,0,0:0:0:0:
256,192,123251,1,4,0:0:0:0:
256,192,123508,1,8,0:0:0:0:
256,192,123764,1,0,0:0:0:0:
256,192,123893,1,8,0:0:0:0:
256,192,124021,1,8,0:0:0:0:
256,192,124277,1,8,0:0:0:0:
256,192,124534,1,0,0:0:0:0:
256,192,124790,1,8,0:0:0:0:
256,192,124918,1,8,0:0:0:0:
256,192,125046,1,0,0:0:0:0:
256,192,125175,1,0,0:0:0:0:
256,192,125303,1,8,0:0:0:0:
256,192,125367,1,8,0:0:0:0:
256,192,125431,1,0,0:0:0:0:
256,192,125559,1,0,0:0:0:0:
256,192,125751,1,8,0:0:0:0:
256,192,125816,1,0,0:0:0:0:
256,192,125944,1,8,0:0:0:0:
256,192,126072,1,0,0:0:0:0:
256,192,126136,1,8,0:0:0:0:
256,192,126200,1,0,0:0:0:0:
256,192,126328,1,0,0:0:0:0:
256,192,126585,1,8,0:0:0:0:
256,192,126713,1,8,0:0:0:0:
256,192,126841,1,0,0:0:0:0:
256,192,126969,1,0,0:0:0:0:
256,192,127034,1,0,0:0:0:0:
256,192,127098,1,8,0:0:0:0:
256,192,127354,1,8,0:0:0:0:
256,192,127482,1,8,0:0:0:0:
256,192,127610,1,0,0:0:0:0:
256,192,127739,1,8,0:0:0:0:
256,192,127867,1,0,0:0:0:0:
256,192,128123,1,8,0:0:0:0:
256,192,128251,1,0,0:0:0:0:
256,192,128316,1,0,0:0:0:0:
256,192,128380,1,8,0:0:0:0:
256,192,128508,1,0,0:0:0:0:
256,192,128636,1,8,0:0:0:0:
256,192,128764,1,8,0:0:0:0:
256,192,128893,1,0,0:0:0:0:
256,192,129149,1,0,0:0:0:0:
256,192,129277,1,8,0:0:0:0:
256,192,129405,1,0,0:0:0:0:
256,192,129662,1,8,0:0:0:0:
256,192,129918,1,0,0:0:0:0:
256,192,130046,1,0,0:0:0:0:
256,192,130175,1,8,0:0:0:0:
256,192,130303,1,8,0:0:0:0:
256,192,130367,1,8,0:0:0:0:
256,192,130431,1,0,0:0:0:0:
256,192,130559,1,8,0:0:0:0:
256,192,130687,1,0,0:0:0:0:
256,192,130816,1,0,0:0:0:0:
256,192,130944,1,8,0:0:0:0:
256,192,131072,1,8,0:0:0:0:
256,192,131136,1,8,0:0:0:0:
256,192,131200,1,0,0:0:0:0:
256,192,131328,1,0,0:0:0:0:
256,192,131457,1,8,0:0:0:0:
256,192,131521,1,0,0:0:0:0:
256,192,131585,1,0,0:0:0:0:
256,192,131713,1,8,0:0:0:0:
256,192,131841,1,8,0:0:0:0:
256,192,131905,1,8,0:0:0:0:
256,192,131969,1,0,0:0:0:0:
256,192,132034,1,8,0:0:0:0:
256,192,132098,1,0,0:0:0:0:
256,192,132162,1,0,0:0:0:0:
256,192,132226,1,8,0:0:0:0:
256,192,132354,1,0,0:0:0:0:
256,192,132482,1,12,0:0:0:0:
256,192,144789,5,0,0:0:0:0:
256,192,145046,1,8,0:0:0:0:
256,192,145302,1,8,0:0:0:0:
256,192,145559,1,8,0:0:0:0:
256,192,145815,1,0,0:0:0:0:
256,192,146071,1,8,0:0:0:0:
256,192,146584,1,0,0:0:0:0:
256,192,146841,1,8,0:0:0:0:
256,192,146969,1,0,0:0:0:0:
256,192,147097,1,8,0:0:0:0:
256,192,147354,1,8,0:0:0:0:
256,192,147482,1,0,0:0:0:0:
256,192,147610,1,8,0:0:0:0:
256,192,147738,1,0,0:0:0:0:
256,192,147866,1,0,0:0:0:0:
256,192,148123,1,8,0:0:0:0:
256,192,148251,1,0,0:0:0:0:
256,192,148379,1,8,0:0:0:0:
256,192,148507,1,8,0:0:0:0:
256,192,148636,1,8,0:0:0:0:
256,192,148892,1,0,0:0:0:0:
256,192,149148,1,8,0:0:0:0:
256,192,149661,1,0,0:0:0:0:
256,192,149789,1,0,0:0:0:0:
256,192,149918,1,8,0:0:0:0:
256,192,150174,1,8,0:0:0:0:
256,192,150302,1,0,0:0:0:0:
256,192,150430,1,8,0:0:0:0:
256,192,150559,1,0,0:0:0:0:
256,192,150687,1,8,0:0:0:0:
256,192,150815,1,8,0:0:0:0:
256,192,150943,1,0,0:0:0:0:
256,192,151200,1,8,0:0:0:0:
256,192,151456,1,8,0:0:0:0:
256,192,151712,1,8,0:0:0:0:
256,192,151969,1,0,0:0:0:0:
256,192,152225,1,8,0:0:0:0:
256,192,152738,1,0,0:0:0:0:
256,192,152995,1,8,0:0:0:0:
256,192,153123,1,0,0:0:0:0:
256,192,153251,1,8,0:0:0:0:
256,192,153507,1,8,0:0:0:0:
256,192,153636,1,0,0:0:0:0:
256,192,153764,1,8,0:0:0:0:
256,192,153892,1,0,0:0:0:0:
256,192,154020,1,0,0:0:0:0:
256,192,154277,1,8,0:0:0:0:
256,192,154405,1,0,0:0:0:0:
256,192,154533,1,8,0:0:0:0:
256,192,154661,1,8,0:0:0:0:
256,192,154789,1,8,0:0:0:0:
256,192,155046,1,0,0:0:0:0:
256,192,155302,1,8,0:0:0:0:
256,192,155815,1,0,0:0:0:0:
256,192,155943,1,8,0:0:0:0:
256,192,156071,1,8,0:0:0:0:
256,192,156200,1,0,0:0:0:0:
256,192,156328,1,8,0:0:0:0:
256,192,156456,1,8,0:0:0:0:
256,192,156520,1,8,0:0:0:0:
256,192,156584,1,0,0:0:0:0:
256,192,156712,1,0,0:0:0:0:
256,192,156841,1,8,0:0:0:0:
256,192,156969,1,8,0:0:0:0:
256,192,157097,1,0,0:0:0:0:
256,192,157183,1,8,0:0:0:0:
256,192,157268,1,0,0:0:0:0:
256,192,157354,1,0,0:0:0:0:
256,192,157482,1,0,0:0:0:0:
256,192,157610,1,8,0:0:0:0:
256,192,157738,1,0,0:0:0:0:
256,192,157866,1,8,0:0:0:0:
256,192,157995,1,8,0:0:0:0:
256,192,158123,1,0,0:0:0:0:
256,192,158251,1,0,0:0:0:0:
256,192,158379,1,8,0:0:0:0:
256,192,158636,1,0,0:0:0:0:
256,192,158721,1,8,0:0:0:0:
256,192,158807,1,8,0:0:0:0:
256,192,158892,1,0,0:0:0:0:
256,192,159020,1,0,0:0:0:0:
256,192,159148,1,8,0:0:0:0:
256,192,159277,1,0,0:0:0:0:
256,192,159405,1,8,0:0:0:0:
256,192,159533,1,8,0:0:0:0:
256,192,159661,1,8,0:0:0:0:
256,192,159789,1,0,0:0:0:0:
256,192,159918,1,8,0:0:0:0:
256,192,160174,1,8,0:0:0:0:
256,192,160302,1,8,0:0:0:0:
256,192,160430,1,0,0:0:0:0:
256,192,160559,1,8,0:0:0:0:
256,192,160687,1,0,0:0:0:0:
256,192,160815,1,0,0:0:0:0:
256,192,160943,1,8,0:0:0:0:
256,192,161071,1,0,0:0:0:0:
256,192,161200,1,8,0:0:0:0:
256,192,161328,1,8,0:0:0:0:
256,192,161456,1,0,0:0:0:0:
256,192,161584,1,0,0:0:0:0:
256,192,161712,1,0,0:0:0:0:
256,192,161841,1,8,0:0:0:0:
256,192,161969,1,0,0:0:0:0:
256,192,162097,1,8,0:0:0:0:
256,192,162225,1,8,0:0:0:0:
256,192,162354,1,0,0:0:0:0:
256,192,162482,1,8,0:0:0:0:
256,192,162610,1,8,0:0:0:0:
256,192,162738,1,0,0:0:0:0:
256,192,162866,1,0,0:0:0:0:
256,192,162995,1,8,0:0:0:0:
256,192,163251,1,0,0:0:0:0:
256,192,163336,1,8,0:0:0:0:
256,192,163422,1,0,0:0:0:0:
256,192,163507,1,0,0:0:0:0:
256,192,163636,1,0,0:0:0:0:
256,192,163764,1,8,0:0:0:0:
256,192,163892,1,0,0:0:0:0:
256,192,163956,1,0,0:0:0:0:
256,192,164020,1,8,0:0:0:0:
256,192,164148,1,8,0:0:0:0:
256,192,164277,1,0,0:0:0:0:
256,192,164405,1,0,0:0:0:0:
256,192,164533,1,8,0:0:0:0:
256,192,164789,1,0,0:0:0:0:
256,192,164875,1,8,0:0:0:0:
256,192,164960,1,8,0:0:0:0:
256,192,165046,1,0,0:0:0:0:
256,192,165174,1,0,0:0:0:0:
256,192,165302,1,8,0:0:0:0:
256,192,165430,1,0,0:0:0:0:
256,192,165495,1,8,0:0:0:0:
256,192,165559,1,8,0:0:0:0:
256,192,165687,1,0,0:0:0:0:
256,192,165815,1,8,0:0:0:0:
256,192,165943,1,8,0:0:0:0:
256,192,166071,1,0,0:0:0:0:
256,192,166328,1,0,0:0:0:0:
256,192,166456,1,8,0:0:0:0:
256,192,166520,1,8,0:0:0:0:
256,192,166584,1,8,0:0:0:0:
256,192,166712,1,8,0:0:0:0:
256,192,166841,1,0,0:0:0:0:
256,192,166969,1,0,0:0:0:0:
256,192,167097,1,8,0:0:0:0:
256,192,167225,1,0,0:0:0:0:
256,192,167354,1,8,0:0:0:0:
256,192,167482,1,8,0:0:0:0:
256,192,167546,1,8,0:0:0:0:
256,192,167610,1,0,0:0:0:0:
256,192,167738,1,0,0:0:0:0:
256,192,167802,1,0,0:0:0:0:
256,192,167866,1,0,0:0:0:0:
256,192,167995,1,8,0:0:0:0:
256,192,168123,1,0,0:0:0:0:
256,192,168187,1,0,0:0:0:0:
256,192,168251,1,0,0:0:0:0:
256,192,168315,1,0,0:0:0:0:
256,192,168379,1,8,0:0:0:0:
256,192,168507,1,8,0:0:0:0:
256,192,168636,1,0,0:0:0:0:
256,192,168764,1,8,0:0:0:0:
256,192,168892,1,0,0:0:0:0:
256,192,169020,1,8,0:0:0:0:
256,192,169148,1,8,0:0:0:0:
256,192,169277,1,8,0:0:0:0:
256,192,169405,1,0,0:0:0:0:
256,192,169490,1,8,0:0:0:0:
256,192,169576,1,0,0:0:0:0:
256,192,169661,1,0,0:0:0:0:
256,192,169789,1,0,0:0:0:0:
256,192,169854,1,0,0:0:0:0:
256,192,169918,1,8,0:0:0:0:
256,192,170046,1,8,0:0:0:0:
256,192,170174,1,0,0:0:0:0:
256,192,170302,1,0,0:0:0:0:
256,192,170430,1,8,0:0:0:0:
256,192,170559,1,8,0:0:0:0:
256,192,170687,1,0,0:0:0:0:
256,192,170943,1,0,0:0:0:0:
256,192,171029,1,8,0:0:0:0:
256,192,171114,1,8,0:0:0:0:
256,192,171200,1,0,0:0:0:0:
256,192,171328,1,8,0:0:0:0:
256,192,171392,1,8,0:0:0:0:
256,192,171456,1,0,0:0:0:0:
256,192,171584,1,0,0:0:0:0:
256,192,171712,1,8,0:0:0:0:
256,192,171841,1,8,0:0:0:0:
256,192,171969,1,0,0:0:0:0:
256,192,172097,1,8,0:0:0:0:
256,192,172225,1,0,0:0:0:0:
256,192,172482,1,0,0:0:0:0:
256,192,172610,1,8,0:0:0:0:
256,192,172674,1,8,0:0:0:0:
256,192,172738,1,8,0:0:0:0:
256,192,172866,1,0,0:0:0:0:
256,192,172995,1,8,0:0:0:0:
256,192,173123,1,0,0:0:0:0:
256,192,173251,1,0,0:0:0:0:
256,192,173379,1,8,0:0:0:0:
256,192,173507,1,8,0:0:0:0:
256,192,173636,1,8,0:0:0:0:
256,192,173764,1,0,0:0:0:0:
256,192,173892,1,8,0:0:0:0:
256,192,174020,1,0,0:0:0:0:
256,192,174148,1,0,0:0:0:0:
256,192,174212,1,0,0:0:0:0:
256,192,174277,1,8,0:0:0:0:
256,192,174405,1,8,0:0:0:0:
256,192,174533,1,0,0:0:0:0:
256,192,174661,1,8,0:0:0:0:
256,192,174789,1,0,0:0:0:0:
256,192,174854,1,0,0:0:0:0:
256,192,174918,1,8,0:0:0:0:
256,192,174982,1,8,0:0:0:0:
256,192,175046,1,0,0:0:0:0:
256,192,175174,1,8,0:0:0:0:
256,192,175302,1,0,0:0:0:0:
256,192,175559,1,0,0:0:0:0:
256,192,175644,1,8,0:0:0:0:
256,192,175730,1,0,0:0:0:0:
256,192,175815,1,0,0:0:0:0:
256,192,175943,1,8,0:0:0:0:
256,192,176007,1,8,0:0:0:0:
256,192,176071,1,0,0:0:0:0:
256,192,176200,1,8,0:0:0:0:
256,192,176328,1,0,0:0:0:0:
256,192,176456,1,0,0:0:0:0:
256,192,176520,1,0,0:0:0:0:
256,192,176584,1,8,0:0:0:0:
256,192,176712,1,8,0:0:0:0:
256,192,176841,1,0,0:0:0:0:
256,192,177097,1,0,0:0:0:0:
256,192,177183,1,8,0:0:0:0:
256,192,177268,1,8,0:0:0:0:
256,192,177354,1,0,0:0:0:0:
256,192,177482,1,8,0:0:0:0:
256,192,177546,1,8,0:0:0:0:
256,192,177610,1,0,0:0:0:0:
256,192,177738,1,8,0:0:0:0:
256,192,177866,1,0,0:0:0:0:
256,192,177995,1,0,0:0:0:0:
256,192,178059,1,8,0:0:0:0:
256,192,178123,1,0,0:0:0:0:
256,192,178251,1,8,0:0:0:0:
256,192,178315,1,8,0:0:0:0:
256,192,178379,1,0,0:0:0:0:
256,192,178443,1,0,0:0:0:0:
256,192,178507,1,0,0:0:0:0:
256,192,178636,1,8,0:0:0:0:
256,192,178721,1,8,0:0:0:0:
256,192,178807,1,8,0:0:0:0:
256,192,178892,1,0,0:0:0:0:
256,192,178977,1,0,0:0:0:0:
256,192,179063,1,0,0:0:0:0:
256,192,179148,1,8,0:0:0:0:
256,192,179234,1,8,0:0:0:0:
256,192,179319,1,8,0:0:0:0:
256,192,179405,1,0,0:0:0:0:
256,192,179576,1,0,0:0:0:0:
256,192,179661,1,8,0:0:0:0:
256,192,179747,1,0,0:0:0:0:
256,192,179832,1,0,0:0:0:0:
256,192,179918,1,8,0:0:0:0:
256,192,180003,1,8,0:0:0:0:
256,192,180089,1,8,0:0:0:0:
256,192,180174,1,0,0:0:0:0:
256,192,180302,1,8,0:0:0:0:
256,192,180430,1,8,0:0:0:0:
256,192,180559,1,0,0:0:0:0:
256,192,180687,1,8,0:0:0:0:
256,192,180815,1,8,0:0:0:0:
256,192,180943,1,0,0:0:0:0:
256,192,181200,1,8,0:0:0:0:
