osu file format v14

[General]
AudioFilename: audio.mp3
AudioLeadIn: 0
PreviewTime: 128016
Countdown: 0
SampleSet: Normal
StackLeniency: 0.7
Mode: 1
LetterboxInBreaks: 0
WidescreenStoryboard: 1

[Editor]
Bookmarks: 52564
DistanceSpacing: 2.6
BeatDivisor: 4
GridSize: 16
TimelineZoom: 3.949999

[Metadata]
Title:little witch in permafrost garden
TitleUnicode:little witch in permafrost garden
Artist:linear ring
ArtistUnicode:linear ring
Creator:Naverlyn
Version:Oni
Source:BOFXVII
Tags:instrumental electronic fa featured artist angelion yama_ko BMS OF FIGHTERS XVII -VISION THE RETRO FUTURE-
BeatmapID:3336428
BeatmapSetID:1634667

[Difficulty]
HPDrainRate:5
CircleSize:4
OverallDifficulty:6
ApproachRate:10
SliderMultiplier:1.4
SliderTickRate:1

[Events]
//Background and Video events
0,0,"oni.jpg",0,0
//Break Periods
//Storyboard Layer 0 (Background)
//Storyboard Layer 1 (Fail)
//Storyboard Layer 2 (Pass)
//Storyboard Layer 3 (Foreground)
//Storyboard Layer 4 (Overlay)
//Storyboard Sound Samples

[TimingPoints]
1029,352.941176470588,6,1,0,50,1,0
1029,-105.263157894737,3,1,0,50,0,0
9499,-100,3,1,0,50,0,0
10087,-97.7020478349226,3,1,0,50,0,0
10205,-97.253559480277,3,1,0,50,0,0
10440,-96.3725376816622,3,1,0,50,0,0
10558,-95.9361449019533,3,1,0,50,0,0
10793,-95.0787251844527,3,1,0,50,0,0
10911,-94.6539451764349,3,1,0,50,0,0
11146,-93.8191916538447,3,1,0,50,0,0
11264,-93.4055669717915,3,1,0,50,0,0
11499,-92.5925925925926,3,1,0,50,0,0
11617,329.67032967033,6,1,0,70,1,0
11617,-98.0392156862745,3,1,0,70,0,0
11946,-96.6204823693278,3,1,0,70,0,0
12276,-95.2380952380952,3,1,0,70,0,0
12605,307.692307692308,6,1,0,80,1,0
12605,-101.010101010101,3,1,0,80,0,0
12810,-100,3,1,0,80,0,0
12912,-99.5049024366566,3,1,0,80,0,0
13117,-98.5245350122555,3,1,0,80,0,0
13220,-98.0392156862745,3,1,0,80,0,0
13425,-97.0873786407767,3,1,0,80,0,0
13528,285.714285714286,6,1,0,80,1,0
13528,-104.166666666667,3,1,0,80,0,0
13813,-102.615352458588,3,1,0,80,0,0
13956,-101.854253112033,3,1,0,80,0,0
14099,-101.10436080935,3,1,0,80,0,0
14194,-100.365429827251,3,1,0,80,0,0
14289,-100.365429827251,3,1,0,80,0,0
14385,-99.009900990099,3,1,0,80,0,0
14670,-98.2169650895269,3,1,0,80,0,0
14813,-97.5194914833391,3,1,0,80,0,0
14956,-96.8318540433925,3,1,0,80,0,0
15099,-96.1538461538461,3,1,0,80,0,0
15242,266.666666666667,6,1,0,80,1,0
15242,-103.092783505155,3,1,0,80,0,0
15508,-101.281043333488,3,1,0,80,0,0
15642,-100.392269860708,3,1,0,80,0,0
15775,-99.5254202076205,3,1,0,80,0,0
15908,-98.6734122463166,3,1,0,80,0,0
16042,-97.8296245716364,3,1,0,80,0,0
16175,-97.0062835772728,3,1,0,80,0,0
16242,-96.5967448220238,3,1,0,80,0,0
16308,-96.1966855127666,3,1,0,80,0,0
16442,-95.3945526163496,3,1,0,80,0,0
16575,-94.6115249551012,3,1,0,80,0,0
16642,-94.221916275868,3,1,0,80,0,0
16708,-93.8412472989269,3,1,0,80,0,0
16775,-93.4579439252336,3,1,0,80,0,0
16842,247.933884297521,6,1,0,80,1,0
52544,-100,3,1,0,80,0,1
61470,-100,3,1,0,80,0,0
64445,-100,3,1,0,80,0,1
72627,-102.567642186637,3,1,0,80,0,1
72875,-108.119906868452,3,1,0,80,0,1
72999,-111.102803738318,3,1,0,80,0,1
73122,-114.281319695455,3,1,0,80,0,1
73246,-115.939767496294,3,1,0,80,0,1
73370,270.27027027027,6,1,0,80,1,0
73370,-113.636363636364,3,1,0,80,0,0
74991,288.461538461538,6,1,0,50,1,0
74991,-107.52688172043,3,1,0,50,0,0
75135,-107.52688172043,3,1,0,50,0,0
75279,-108.909123370827,3,1,0,50,0,0
75423,-110.327364803762,3,1,0,50,0,0
75567,-111.783030969397,3,1,0,50,0,0
75856,-114.823529411765,3,1,0,50,0,0
76144,-118.022637128761,3,1,0,50,0,0
76289,-119.701726844584,3,1,0,50,0,0
76433,-121.417197452229,3,1,0,50,0,0
76577,-123.182552504039,3,1,0,50,0,0
76721,319.148936170213,6,1,0,50,1,0
76721,-112.980769230769,3,1,0,50,0,0
84380,300,6,1,0,60,1,0
84380,-112.359550561798,3,1,0,60,0,0
84880,-111.289300224795,3,1,0,60,0,0
84980,-111.07769215611,3,1,0,60,0,0
85180,-110.656881011996,3,1,0,60,0,0
85280,-110.44766884262,3,1,0,60,0,0
85480,-110.031608831295,3,1,0,60,0,0
85580,-109.824752099591,3,1,0,60,0,0
85780,-109.413363209459,3,1,0,60,0,0
85880,-109.208822359767,3,1,0,60,0,0
86080,-108.802026365782,3,1,0,60,0,0
86180,275.229357798165,6,1,0,70,1,0
86180,-118.373741368296,3,1,0,70,0,0
86455,-117.771661182468,3,1,0,70,0,0
86730,-117.175674680978,3,1,0,70,0,0
87005,-116.58568981789,3,1,0,70,0,0
87189,-116.194242659,3,1,0,70,0,0
87280,-116.001616391803,3,1,0,70,0,0
87464,-115.614075049766,3,1,0,70,0,0
87556,-115.421273790887,3,1,0,70,0,0
87739,-115.039672307235,3,1,0,70,0,0
87831,247.933884297521,6,1,0,80,1,0
87831,-127.551020408163,6,1,0,80,0,0
88075,-125.271597244446,6,1,0,80,0,0
88199,-123.848933442126,6,1,0,80,0,0
88323,-122.458220136659,6,1,0,80,0,0
88447,-121.544658980414,6,1,0,80,0,0
88571,-119.768434274304,6,1,0,80,0,0
88819,-117.194270677403,6,1,0,80,0,0
88943,-115.948242263621,6,1,0,80,0,0
89067,-114.728431054962,6,1,0,80,0,0
89191,-113.534018226503,6,1,0,80,0,0
89315,-112.364218700428,6,1,0,80,0,0
89563,-110.095477758863,6,1,0,80,0,0
89687,-108.995119949587,6,1,0,80,0,0
89811,-107.916539706032,6,1,0,80,0,0
89935,-106.859096852057,6,1,0,80,0,0
90059,-105.822176059645,6,1,0,80,0,0
90183,-104.8051856549,6,1,0,80,0,0
90245,-104.303985639357,6,1,0,80,0,0
90307,-103.807556492247,6,1,0,80,0,0
90431,-102.828740892312,6,1,0,80,0,0
90555,-101.868211639342,6,1,0,80,0,0
90617,-101.394644999455,6,1,0,80,0,0
90679,-100.925461034291,6,1,0,80,0,0
90741,-100.460599184159,6,1,0,80,0,0
90806,-100,6,1,0,80,0,1
104194,-100,3,1,0,80,0,0
105682,-125,3,1,0,80,0,0
107169,-100,3,1,0,80,0,1
122045,-100,3,1,0,80,0,0
123533,-100,3,1,0,80,0,1
127996,-100,3,1,0,80,0,0
133946,240,6,1,0,80,1,0
133946,-105.263157894737,3,1,0,80,0,0
135386,230.769230769231,6,1,0,80,1,0
135386,-111.111111111111,3,1,0,80,0,0
136770,214.285714285714,6,1,0,80,1,0
136770,-117.64705882353,3,1,0,80,0,0
138055,200,6,1,0,80,1,0
138055,-117.647058823529,3,1,0,80,0,0
139255,-117.647058823529,3,1,0,80,0,1
146455,-117.647058823529,3,1,0,80,0,0
148855,-117.647058823529,3,1,0,80,0,1
150055,189.873417721519,6,1,0,80,1,1
150055,-125,3,1,0,80,0,1
151194,181.818181818182,6,1,0,80,1,1
151194,-125,3,1,0,80,0,1
152284,171.428571428571,6,1,0,80,1,1
152284,-133.333333333333,3,1,0,80,0,1
155284,-133.333333333333,3,1,0,80,0,0
155369,171.428571428571,6,1,0,50,1,8
155883,171.428571428571,6,1,0,50,1,8
155883,-166.666666666667,3,1,0,50,0,0

[HitObjects]
256,192,1029,5,8,0:0:0:0:
256,192,1617,1,0,0:0:0:0:
256,192,1734,1,0,0:0:0:0:
256,192,1970,1,0,0:0:0:0:
256,192,2087,1,8,0:0:0:0:
256,192,2440,1,8,0:0:0:0:
256,192,2793,1,8,0:0:0:0:
288,208,3146,1,0,0:0:0:0:
272,208,3499,1,8,0:0:0:0:
272,208,3852,1,8,0:0:0:0:
272,208,4205,1,8,0:0:0:0:
256,176,4793,1,8,0:0:0:0:
256,192,4911,1,8,0:0:0:0:
256,176,5146,1,8,0:0:0:0:
256,176,5264,1,0,0:0:0:0:
256,176,5499,1,0,0:0:0:0:
256,176,5617,1,8,0:0:0:0:
256,176,5852,1,0,0:0:0:0:
256,176,5970,1,8,0:0:0:0:
256,176,6087,1,8,0:0:0:0:
256,176,6205,1,0,0:0:0:0:
256,176,6323,1,8,0:0:0:0:
256,176,6676,1,8,0:0:0:0:
256,176,7028,1,8,0:0:0:0:
256,176,7381,1,0,0:0:0:0:
256,176,7734,1,8,0:0:0:0:
256,160,7970,1,8,0:0:0:0:
256,176,8087,1,8,0:0:0:0:
256,176,8323,1,0,0:0:0:0:
256,176,8440,1,8,0:0:0:0:
256,160,8793,1,0,0:0:0:0:
256,160,9146,1,8,0:0:0:0:
256,160,9499,1,0,0:0:0:0:
256,160,10087,1,8,0:0:0:0:
256,160,10205,1,8,0:0:0:0:
256,160,10440,1,8,0:0:0:0:
256,160,10558,1,0,0:0:0:0:
256,144,10793,1,0,0:0:0:0:
256,144,10911,1,8,0:0:0:0:
256,144,11146,1,0,0:0:0:0:
256,144,11264,1,8,0:0:0:0:
256,144,11499,1,8,0:0:0:0:
256,144,11617,1,0,0:0:0:0:
256,144,11946,1,8,0:0:0:0:
256,144,12276,1,8,0:0:0:0:
256,144,12605,1,8,0:0:0:0:
256,144,12810,1,0,0:0:0:0:
256,144,12912,1,8,0:0:0:0:
256,144,13117,1,0,0:0:0:0:
256,144,13220,1,8,0:0:0:0:
256,144,13425,1,0,0:0:0:0:
256,144,13528,1,8,0:0:0:0:
256,144,13813,1,8,0:0:0:0:
256,144,13956,1,0,0:0:0:0:
256,144,14099,1,8,0:0:0:0:
256,144,14194,1,8,0:0:0:0:
255,150,14289,1,8,0:0:0:0:
256,144,14385,1,0,0:0:0:0:
256,144,14670,1,8,0:0:0:0:
256,144,14813,1,0,0:0:0:0:
256,144,14956,1,8,0:0:0:0:
256,144,15099,1,8,0:0:0:0:
256,144,15242,1,8,0:0:0:0:
256,144,15508,1,0,0:0:0:0:
256,144,15642,1,0,0:0:0:0:
256,144,15775,1,8,0:0:0:0:
256,144,15908,1,0,0:0:0:0:
256,144,16042,1,8,0:0:0:0:
256,144,16175,1,8,0:0:0:0:
256,144,16242,1,8,0:0:0:0:
256,144,16308,1,8,0:0:0:0:
256,144,16442,1,0,0:0:0:0:
256,144,16575,1,8,0:0:0:0:
256,144,16642,1,0,0:0:0:0:
256,144,16708,1,8,0:0:0:0:
256,144,16775,1,8,0:0:0:0:
256,144,16842,1,4,0:0:0:0:
256,192,17213,1,0,0:0:0:0:
256,192,17337,1,8,0:0:0:0:
256,192,17461,1,8,0:0:0:0:
256,192,17585,1,0,0:0:0:0:
256,192,17709,1,0,0:0:0:0:
452,98,17771,1,0,0:0:0:0:
256,192,17833,1,8,0:0:0:0:
256,192,17957,1,0,0:0:0:0:
256,192,18081,1,8,0:0:0:0:
256,192,18205,1,8,0:0:0:0:
256,192,18329,1,0,0:0:0:0:
256,192,18577,1,8,0:0:0:0:
256,192,18701,1,0,0:0:0:0:
485,145,18763,1,0,0:0:0:0:
256,192,18825,1,8,0:0:0:0:
256,192,18949,1,0,0:0:0:0:
256,192,19073,1,8,0:0:0:0:
397,161,19197,1,8,0:0:0:0:
346,290,19259,1,8,0:0:0:0:
256,192,19321,1,8,0:0:0:0:
256,192,19445,1,0,0:0:0:0:
256,192,19569,1,8,0:0:0:0:
256,192,19693,1,8,0:0:0:0:
256,192,19817,1,0,0:0:0:0:
256,144,19941,1,0,0:0:0:0:
256,192,20065,1,8,0:0:0:0:
240,208,20189,1,0,0:0:0:0:
240,192,20313,1,8,0:0:0:0:
240,192,20395,1,8,0:0:0:0:
240,192,20478,1,0,0:0:0:0:
240,192,20561,1,8,0:0:0:0:
240,192,20808,1,8,0:0:0:0:
240,192,20932,1,0,0:0:0:0:
240,192,21056,1,8,0:0:0:0:
240,192,21180,1,8,0:0:0:0:
240,192,21304,1,0,0:0:0:0:
240,208,21552,1,8,0:0:0:0:
240,208,21676,1,0,0:0:0:0:
461,111,21738,1,0,0:0:0:0:
240,192,21800,1,8,0:0:0:0:
240,192,21924,1,8,0:0:0:0:
240,192,22048,1,0,0:0:0:0:
240,208,22172,1,8,0:0:0:0:
240,208,22234,1,8,0:0:0:0:
240,208,22296,1,0,0:0:0:0:
240,192,22420,1,0,0:0:0:0:
240,192,22544,1,8,0:0:0:0:
240,160,22668,1,8,0:0:0:0:
240,192,22792,1,4,0:0:0:0:
240,192,23164,1,8,0:0:0:0:
240,192,23288,1,8,0:0:0:0:
240,192,23412,1,8,0:0:0:0:
240,208,23536,1,0,0:0:0:0:
240,208,23660,1,0,0:0:0:0:
240,208,23722,1,0,0:0:0:0:
240,208,23784,1,8,0:0:0:0:
240,208,23908,1,0,0:0:0:0:
240,208,24032,1,8,0:0:0:0:
240,208,24156,1,8,0:0:0:0:
240,208,24280,1,0,0:0:0:0:
240,208,24527,1,8,0:0:0:0:
240,208,24651,1,0,0:0:0:0:
409,99,24713,1,0,0:0:0:0:
224,208,24775,1,8,0:0:0:0:
224,208,24899,1,8,0:0:0:0:
224,208,25023,1,0,0:0:0:0:
224,192,25271,1,8,0:0:0:0:
224,208,25395,1,0,0:0:0:0:
224,208,25519,1,8,0:0:0:0:
224,208,25643,1,8,0:0:0:0:
224,208,25767,1,0,0:0:0:0:
378,118,25891,1,0,0:0:0:0:
224,208,26015,1,8,0:0:0:0:
224,208,26139,1,0,0:0:0:0:
224,208,26263,1,8,0:0:0:0:
224,208,26346,1,8,0:0:0:0:
224,208,26428,1,0,0:0:0:0:
224,208,26511,1,8,0:0:0:0:
224,208,26635,1,0,0:0:0:0:
391,260,26697,1,0,0:0:0:0:
224,208,26759,1,8,0:0:0:0:
424,144,26883,1,0,0:0:0:0:
224,208,27007,1,8,0:0:0:0:
224,208,27131,1,8,0:0:0:0:
224,208,27255,1,0,0:0:0:0:
224,208,27503,1,8,0:0:0:0:
224,208,27627,1,0,0:0:0:0:
449,147,27689,1,0,0:0:0:0:
224,208,27751,1,8,0:0:0:0:
224,208,27875,1,0,0:0:0:0:
224,208,27999,1,8,0:0:0:0:
224,208,28061,1,8,0:0:0:0:
224,208,28122,1,8,0:0:0:0:
224,208,28246,1,8,0:0:0:0:
224,208,28370,1,0,0:0:0:0:
240,208,28494,1,8,0:0:0:0:
240,192,28742,1,4,0:0:0:0:
240,192,30230,1,8,0:0:0:0:
240,192,30478,1,0,0:0:0:0:
240,192,30602,1,8,0:0:0:0:
240,192,30726,1,0,0:0:0:0:
240,192,30850,1,0,0:0:0:0:
240,192,30974,1,8,0:0:0:0:
240,192,31222,1,8,0:0:0:0:
240,192,31470,1,0,0:0:0:0:
240,192,31594,1,0,0:0:0:0:
240,192,31718,1,12,0:0:0:0:
256,192,31965,1,8,0:0:0:0:
256,192,32089,1,0,0:0:0:0:
256,192,32213,1,8,0:0:0:0:
256,192,32337,1,0,0:0:0:0:
256,192,32461,1,0,0:0:0:0:
256,192,32709,1,8,0:0:0:0:
256,192,32833,1,8,0:0:0:0:
256,192,32957,1,0,0:0:0:0:
256,192,33081,1,0,0:0:0:0:
256,192,33205,1,8,0:0:0:0:
256,192,33453,1,0,0:0:0:0:
272,176,33577,1,8,0:0:0:0:
256,192,33825,1,0,0:0:0:0:
256,192,33949,1,8,0:0:0:0:
256,192,34073,1,0,0:0:0:0:
256,192,34135,1,8,0:0:0:0:
256,192,34197,1,0,0:0:0:0:
256,192,34321,1,8,0:0:0:0:
256,192,34445,1,8,0:0:0:0:
256,192,34569,1,0,0:0:0:0:
256,192,34693,1,12,0:0:0:0:
256,192,35065,1,0,0:0:0:0:
256,192,35189,1,8,0:0:0:0:
256,192,35437,1,0,0:0:0:0:
459,107,35561,1,0,0:0:0:0:
256,192,35622,1,0,0:0:0:0:
256,192,35684,1,8,0:0:0:0:
256,192,35808,1,0,0:0:0:0:
256,192,35932,1,8,0:0:0:0:
256,192,36056,1,8,0:0:0:0:
256,192,36180,1,0,0:0:0:0:
256,192,36428,1,8,0:0:0:0:
256,192,36552,1,0,0:0:0:0:
256,192,36676,1,8,0:0:0:0:
256,192,36924,1,8,0:0:0:0:
256,192,37048,1,0,0:0:0:0:
256,176,37110,1,0,0:0:0:0:
256,192,37172,1,0,0:0:0:0:
256,192,37296,1,8,0:0:0:0:
256,192,37420,1,0,0:0:0:0:
256,192,37544,1,0,0:0:0:0:
256,192,37668,1,8,0:0:0:0:
256,192,38040,1,0,0:0:0:0:
256,192,38164,1,8,0:0:0:0:
256,192,38412,1,0,0:0:0:0:
256,192,38536,1,8,0:0:0:0:
462,102,38598,1,8,0:0:0:0:
256,176,38660,1,8,0:0:0:0:
256,192,38784,1,0,0:0:0:0:
256,192,38908,1,8,0:0:0:0:
256,192,39032,1,8,0:0:0:0:
256,192,39156,1,0,0:0:0:0:
256,192,39403,1,8,0:0:0:0:
256,192,39527,1,0,0:0:0:0:
256,192,39651,1,8,0:0:0:0:
256,192,39775,1,8,0:0:0:0:
256,192,39899,1,0,0:0:0:0:
256,192,40147,1,8,0:0:0:0:
466,85,40271,1,0,0:0:0:0:
256,192,40395,1,8,0:0:0:0:
256,224,40457,1,8,0:0:0:0:
256,192,40519,1,8,0:0:0:0:
256,192,40643,1,4,0:0:0:0:
256,192,40891,1,8,0:0:0:0:
256,192,41015,1,0,0:0:0:0:
256,192,41139,1,8,0:0:0:0:
256,192,41263,1,0,0:0:0:0:
256,192,41387,1,0,0:0:0:0:
256,192,41635,1,8,0:0:0:0:
256,192,41759,1,0,0:0:0:0:
256,192,41883,1,8,0:0:0:0:
256,192,42007,1,8,0:0:0:0:
256,192,42131,1,0,0:0:0:0:
256,192,42379,1,8,0:0:0:0:
256,176,42441,1,8,0:0:0:0:
256,192,42503,1,0,0:0:0:0:
256,192,42627,1,8,0:0:0:0:
256,192,42751,1,8,0:0:0:0:
256,192,42875,1,8,0:0:0:0:
256,192,42999,1,0,0:0:0:0:
256,192,43122,1,0,0:0:0:0:
256,192,43246,1,8,0:0:0:0:
256,192,43370,1,0,0:0:0:0:
256,192,43432,1,0,0:0:0:0:
256,192,43494,1,0,0:0:0:0:
256,192,43618,1,8,0:0:0:0:
256,192,43866,1,8,0:0:0:0:
256,192,43990,1,0,0:0:0:0:
256,192,44114,1,8,0:0:0:0:
256,192,44238,1,8,0:0:0:0:
256,192,44362,1,0,0:0:0:0:
256,192,44486,1,0,0:0:0:0:
256,208,44548,1,8,0:0:0:0:
256,192,44610,1,8,0:0:0:0:
256,192,44734,1,0,0:0:0:0:
256,192,44858,1,8,0:0:0:0:
436,100,44982,1,8,0:0:0:0:
256,192,45106,1,0,0:0:0:0:
256,192,45354,1,8,0:0:0:0:
256,192,45478,1,0,0:0:0:0:
256,192,45602,1,8,0:0:0:0:
256,192,45664,1,8,0:0:0:0:
256,192,45726,1,0,0:0:0:0:
256,192,45850,1,0,0:0:0:0:
256,192,45974,1,0,0:0:0:0:
256,192,46098,1,8,0:0:0:0:
256,192,46346,1,0,0:0:0:0:
256,192,46470,1,8,0:0:0:0:
256,192,46594,1,4,0:0:0:0:
256,192,46842,1,8,0:0:0:0:
256,192,47089,1,8,0:0:0:0:
256,192,47337,1,0,0:0:0:0:
256,192,47461,1,0,0:0:0:0:
256,192,47523,1,0,0:0:0:0:
256,192,47585,1,8,0:0:0:0:
256,192,47709,1,0,0:0:0:0:
256,192,47833,1,8,0:0:0:0:
256,192,47895,1,8,0:0:0:0:
256,192,47957,1,0,0:0:0:0:
256,192,48081,1,0,0:0:0:0:
256,192,48329,1,8,0:0:0:0:
256,192,48453,1,0,0:0:0:0:
256,192,48577,1,8,0:0:0:0:
256,192,48639,1,8,0:0:0:0:
256,192,48701,1,8,0:0:0:0:
256,192,48825,1,0,0:0:0:0:
256,192,48949,1,0,0:0:0:0:
256,192,49073,1,8,0:0:0:0:
256,192,49135,1,0,0:0:0:0:
240,176,49197,1,0,0:0:0:0:
256,192,49321,1,8,0:0:0:0:
256,192,49445,1,8,0:0:0:0:
256,192,49569,1,0,0:0:0:0:
256,192,49817,1,8,0:0:0:0:
256,192,49941,1,0,0:0:0:0:
256,192,50065,1,8,0:0:0:0:
256,192,50189,1,8,0:0:0:0:
256,192,50313,1,8,0:0:0:0:
256,192,50437,1,0,0:0:0:0:
256,192,50499,1,0,0:0:0:0:
256,192,50561,1,0,0:0:0:0:
256,192,50684,1,8,0:0:0:0:
256,192,50808,1,0,0:0:0:0:
256,192,50932,1,8,0:0:0:0:
256,192,51056,1,0,0:0:0:0:
256,192,51304,1,0,0:0:0:0:
256,192,51428,1,8,0:0:0:0:
256,192,51552,1,8,0:0:0:0:
256,192,51676,1,0,0:0:0:0:
256,192,51800,1,0,0:0:0:0:
256,192,52048,1,8,0:0:0:0:
256,192,52296,1,8,0:0:0:0:
256,192,52544,1,4,0:0:0:0:
252,181,52916,1,8,0:0:0:0:
256,192,53288,1,12,0:0:0:0:
254,186,53660,1,8,0:0:0:0:
256,192,54032,1,4,0:0:0:0:
256,192,54527,1,4,0:0:0:0:
256,192,54775,1,12,0:0:0:0:
256,192,55147,1,4,0:0:0:0:
256,192,55519,1,4,0:0:0:0:
256,192,55891,1,0,0:0:0:0:
256,192,56015,1,8,0:0:0:0:
256,192,56139,1,0,0:0:0:0:
256,192,56263,1,12,0:0:0:0:
256,192,56511,1,4,0:0:0:0:
256,192,56759,1,4,0:0:0:0:
256,192,57007,1,12,0:0:0:0:
256,192,57131,1,4,0:0:0:0:
256,192,57379,1,4,0:0:0:0:
256,192,57503,1,4,0:0:0:0:
256,192,57751,1,12,0:0:0:0:
256,192,57999,1,12,0:0:0:0:
256,192,58246,1,4,0:0:0:0:
256,192,58494,1,4,0:0:0:0:
256,192,58866,1,8,0:0:0:0:
256,192,59238,1,12,0:0:0:0:
256,202,59610,1,8,0:0:0:0:
256,192,59982,1,4,0:0:0:0:
256,192,60230,1,4,0:0:0:0:
256,192,60478,1,4,0:0:0:0:
256,192,60726,1,12,0:0:0:0:
256,192,61098,1,4,0:0:0:0:
256,192,61222,1,8,0:0:0:0:
256,192,61470,1,4,0:0:0:0:
256,192,62213,1,12,0:0:0:0:
256,192,62461,1,4,0:0:0:0:
256,192,62709,1,4,0:0:0:0:
256,192,62957,1,12,0:0:0:0:
256,192,63081,1,4,0:0:0:0:
256,192,63329,1,4,0:0:0:0:
256,192,63453,1,4,0:0:0:0:
256,192,63701,1,12,0:0:0:0:
256,192,63949,1,4,0:0:0:0:
256,192,64197,1,4,0:0:0:0:
256,192,64321,1,0,0:0:0:0:
256,192,64445,1,12,0:0:0:0:
256,192,64693,1,0,0:0:0:0:
256,192,64755,1,0,0:0:0:0:
256,192,64817,1,0,0:0:0:0:
256,192,64941,1,8,0:0:0:0:
256,192,65189,1,12,0:0:0:0:
256,192,65437,1,0,0:0:0:0:
256,192,65499,1,0,0:0:0:0:
256,192,65561,1,0,0:0:0:0:
256,192,65684,1,8,0:0:0:0:
256,192,65932,1,4,0:0:0:0:
256,192,66180,1,8,0:0:0:0:
256,192,66304,1,8,0:0:0:0:
240,192,66428,1,8,0:0:0:0:
256,176,66552,1,0,0:0:0:0:
256,176,66676,1,12,0:0:0:0:
256,176,66924,1,8,0:0:0:0:
240,176,67048,1,4,0:0:0:0:
240,176,67172,1,8,0:0:0:0:
240,176,67296,1,8,0:0:0:0:
256,176,67420,1,4,0:0:0:0:
240,192,67916,1,8,0:0:0:0:
240,192,68040,1,0,0:0:0:0:
240,192,68164,1,12,0:0:0:0:
240,192,68412,1,4,0:0:0:0:
240,192,68536,1,0,0:0:0:0:
240,192,68660,1,12,0:0:0:0:
240,192,68784,1,8,0:0:0:0:
240,192,68908,1,4,0:0:0:0:
240,192,69032,1,4,0:0:0:0:
240,192,69280,1,4,0:0:0:0:
240,192,69403,1,4,0:0:0:0:
224,192,69651,1,12,0:0:0:0:
224,176,69899,1,4,0:0:0:0:
224,176,70023,1,8,0:0:0:0:
224,176,70147,1,12,0:0:0:0:
224,176,70271,1,0,0:0:0:0:
224,176,70395,1,12,0:0:0:0:
256,192,70643,1,0,0:0:0:0:
256,192,70705,1,0,0:0:0:0:
256,192,70767,1,0,0:0:0:0:
256,192,70891,1,8,0:0:0:0:
256,192,71139,1,12,0:0:0:0:
256,192,71387,1,0,0:0:0:0:
256,192,71449,1,0,0:0:0:0:
256,192,71511,1,0,0:0:0:0:
256,192,71635,1,8,0:0:0:0:
256,176,71883,1,4,0:0:0:0:
240,192,72131,1,8,0:0:0:0:
240,192,72193,1,8,0:0:0:0:
240,192,72255,1,8,0:0:0:0:
240,192,72379,1,0,0:0:0:0:
240,176,72503,1,0,0:0:0:0:
240,176,72627,1,12,0:0:0:0:
240,176,72875,1,8,0:0:0:0:
240,176,72999,1,4,0:0:0:0:
240,176,73122,1,8,0:0:0:0:
240,176,73246,1,8,0:0:0:0:
240,176,73370,1,4,0:0:0:0:
224,176,73910,1,8,0:0:0:0:
224,176,73978,1,8,0:0:0:0:
224,176,74045,1,0,0:0:0:0:
224,176,74180,1,8,0:0:0:0:
224,176,74451,1,0,0:0:0:0:
240,176,74721,1,0,0:0:0:0:
240,176,74991,1,0,0:0:0:0:
240,176,75135,1,8,0:0:0:0:
240,176,75279,1,8,0:0:0:0:
240,176,75423,1,0,0:0:0:0:
240,176,75567,1,8,0:0:0:0:
256,176,75856,1,0,0:0:0:0:
256,176,76144,1,8,0:0:0:0:
256,176,76289,1,0,0:0:0:0:
256,176,76433,1,8,0:0:0:0:
256,176,76577,1,8,0:0:0:0:
256,176,76721,1,8,0:0:0:0:
256,192,77252,1,0,0:0:0:0:
256,192,77359,1,0,0:0:0:0:
256,192,77572,1,0,0:0:0:0:
256,192,77678,1,8,0:0:0:0:
256,192,77997,1,8,0:0:0:0:
256,192,78316,1,8,0:0:0:0:
288,208,78635,1,0,0:0:0:0:
272,208,78955,1,8,0:0:0:0:
272,208,79274,1,8,0:0:0:0:
272,208,79593,1,8,0:0:0:0:
256,176,79912,1,0,0:0:0:0:
256,176,80125,1,8,0:0:0:0:
256,192,80231,1,8,0:0:0:0:
256,176,80444,1,8,0:0:0:0:
256,176,80550,1,0,0:0:0:0:
256,176,80763,1,0,0:0:0:0:
256,176,80869,1,8,0:0:0:0:
256,176,81082,1,0,0:0:0:0:
256,176,81189,1,8,0:0:0:0:
256,176,81295,1,8,0:0:0:0:
256,176,81401,1,0,0:0:0:0:
256,176,81508,1,8,0:0:0:0:
256,176,81827,1,8,0:0:0:0:
256,176,82146,1,8,0:0:0:0:
256,176,82465,1,0,0:0:0:0:
256,176,82784,1,8,0:0:0:0:
256,160,82997,1,8,0:0:0:0:
256,176,83103,1,8,0:0:0:0:
256,176,83316,1,0,0:0:0:0:
256,176,83423,1,8,0:0:0:0:
256,160,83742,1,0,0:0:0:0:
256,160,84061,1,8,0:0:0:0:
256,160,84380,1,0,0:0:0:0:
256,160,84880,1,8,0:0:0:0:
256,160,84980,1,8,0:0:0:0:
256,160,85180,1,8,0:0:0:0:
256,160,85280,1,0,0:0:0:0:
256,144,85480,1,0,0:0:0:0:
256,144,85580,1,8,0:0:0:0:
256,144,85780,1,0,0:0:0:0:
256,144,85880,1,8,0:0:0:0:
256,144,86080,1,8,0:0:0:0:
256,144,86180,1,0,0:0:0:0:
256,144,86455,1,8,0:0:0:0:
256,144,86730,1,8,0:0:0:0:
256,144,87005,1,8,0:0:0:0:
256,144,87189,1,0,0:0:0:0:
256,144,87280,1,8,0:0:0:0:
256,144,87464,1,0,0:0:0:0:
256,144,87556,1,8,0:0:0:0:
256,144,87739,1,0,0:0:0:0:
256,144,87831,1,8,0:0:0:0:
256,144,88078,1,8,0:0:0:0:
256,144,88202,1,0,0:0:0:0:
256,144,88326,1,8,0:0:0:0:
256,144,88450,1,8,0:0:0:0:
256,144,88574,1,0,0:0:0:0:
256,144,88822,1,8,0:0:0:0:
256,144,88946,1,8,0:0:0:0:
256,144,89070,1,0,0:0:0:0:
256,144,89194,1,8,0:0:0:0:
256,144,89318,1,8,0:0:0:0:
256,144,89566,1,0,0:0:0:0:
240,144,89690,1,0,0:0:0:0:
256,144,89814,1,8,0:0:0:0:
256,144,89938,1,0,0:0:0:0:
256,144,90062,1,8,0:0:0:0:
445,122,90186,1,8,0:0:0:0:
458,167,90248,1,8,0:0:0:0:
256,144,90310,1,8,0:0:0:0:
256,144,90434,1,0,0:0:0:0:
256,144,90558,1,8,0:0:0:0:
256,144,90620,1,8,0:0:0:0:
256,144,90682,1,8,0:0:0:0:
256,144,90744,1,8,0:0:0:0:
256,144,90806,1,4,0:0:0:0:
256,144,91178,1,8,0:0:0:0:
256,144,91302,1,8,0:0:0:0:
256,144,91426,1,0,0:0:0:0:
256,144,91550,1,0,0:0:0:0:
256,144,91673,1,8,0:0:0:0:
256,144,91735,1,8,0:0:0:0:
272,144,91797,1,8,0:0:0:0:
256,144,91921,1,8,0:0:0:0:
256,144,92045,1,0,0:0:0:0:
256,144,92169,1,8,0:0:0:0:
256,128,92293,1,0,0:0:0:0:
256,144,92541,1,8,0:0:0:0:
256,144,92665,1,0,0:0:0:0:
256,144,92789,1,8,0:0:0:0:
256,144,92913,1,0,0:0:0:0:
256,144,93037,1,8,0:0:0:0:
256,144,93099,1,8,0:0:0:0:
256,144,93161,1,0,0:0:0:0:
387,158,93223,1,0,0:0:0:0:
256,144,93285,1,8,0:0:0:0:
256,144,93409,1,8,0:0:0:0:
256,144,93533,1,8,0:0:0:0:
256,144,93657,1,0,0:0:0:0:
256,144,93781,1,8,0:0:0:0:
256,144,94029,1,0,0:0:0:0:
256,144,94153,1,0,0:0:0:0:
256,144,94277,1,8,0:0:0:0:
256,144,94359,1,8,0:0:0:0:
256,144,94442,1,0,0:0:0:0:
256,144,94525,1,8,0:0:0:0:
256,144,94649,1,0,0:0:0:0:
256,144,94773,1,8,0:0:0:0:
256,144,95021,1,8,0:0:0:0:
256,144,95145,1,0,0:0:0:0:
256,144,95269,1,8,0:0:0:0:
256,144,95392,1,0,0:0:0:0:
256,144,95516,1,8,0:0:0:0:
256,144,95640,1,0,0:0:0:0:
401,166,95702,1,0,0:0:0:0:
256,144,95764,1,8,0:0:0:0:
256,144,95826,1,0,0:0:0:0:
256,144,95888,1,8,0:0:0:0:
256,144,96012,1,8,0:0:0:0:
256,144,96260,1,8,0:0:0:0:
253,149,96384,1,0,0:0:0:0:
256,151,96508,1,0,0:0:0:0:
256,151,96632,1,8,0:0:0:0:
247,142,96756,1,4,0:0:0:0:
247,149,97004,1,8,0:0:0:0:
240,144,97252,1,8,0:0:0:0:
240,144,97376,1,0,0:0:0:0:
240,144,97500,1,8,0:0:0:0:
240,144,97624,1,0,0:0:0:0:
240,144,97686,1,0,0:0:0:0:
240,144,97748,1,0,0:0:0:0:
240,144,97872,1,8,0:0:0:0:
240,144,97996,1,8,0:0:0:0:
240,144,98120,1,0,0:0:0:0:
240,144,98244,1,8,0:0:0:0:
240,144,98492,1,8,0:0:0:0:
240,144,98554,1,8,0:0:0:0:
240,144,98616,1,0,0:0:0:0:
240,144,98678,1,0,0:0:0:0:
240,144,98740,1,8,0:0:0:0:
240,144,98864,1,8,0:0:0:0:
240,144,98988,1,4,0:0:0:0:
240,144,99235,1,8,0:0:0:0:
240,144,99359,1,0,0:0:0:0:
240,144,99421,1,0,0:0:0:0:
240,144,99483,1,8,0:0:0:0:
240,144,99607,1,0,0:0:0:0:
240,160,99731,1,8,0:0:0:0:
240,144,99855,1,0,0:0:0:0:
240,144,99917,1,0,0:0:0:0:
240,144,99979,1,8,0:0:0:0:
240,160,100103,1,0,0:0:0:0:
240,144,100227,1,8,0:0:0:0:
476,100,100310,1,8,0:0:0:0:
240,160,100392,1,0,0:0:0:0:
240,160,100475,1,8,0:0:0:0:
240,160,100723,1,8,0:0:0:0:
240,160,100847,1,0,0:0:0:0:
240,160,100971,1,8,0:0:0:0:
240,160,101033,1,8,0:0:0:0:
240,176,101095,1,0,0:0:0:0:
240,160,101219,1,8,0:0:0:0:
240,160,101343,1,0,0:0:0:0:
240,160,101405,1,0,0:0:0:0:
240,160,101467,1,8,0:0:0:0:
240,176,101591,1,8,0:0:0:0:
240,176,101715,1,0,0:0:0:0:
240,176,101839,1,0,0:0:0:0:
240,176,101963,1,8,0:0:0:0:
240,176,102087,1,0,0:0:0:0:
240,176,102211,1,8,0:0:0:0:
240,176,102335,1,0,0:0:0:0:
240,176,102459,1,8,0:0:0:0:
240,176,102707,1,0,0:0:0:0:
240,176,102831,1,8,0:0:0:0:
224,160,102954,1,0,0:0:0:0:
240,176,103078,1,8,0:0:0:0:
240,176,103202,1,0,0:0:0:0:
240,176,103326,1,8,0:0:0:0:
240,176,103450,1,0,0:0:0:0:
240,176,103574,1,8,0:0:0:0:
240,176,103698,1,0,0:0:0:0:
240,176,103822,1,8,0:0:0:0:
240,176,103946,1,8,0:0:0:0:
233,167,104070,1,8,0:0:0:0:
240,176,104194,1,0,0:0:0:0:
240,192,106426,1,0,0:0:0:0:
240,192,106550,1,8,0:0:0:0:
240,192,106673,1,0,0:0:0:0:
240,192,106735,1,0,0:0:0:0:
240,192,106797,1,0,0:0:0:0:
240,192,106921,1,8,0:0:0:0:
240,192,107045,1,8,0:0:0:0:
240,176,107169,1,4,0:0:0:0:
240,144,107417,1,0,0:0:0:0:
240,144,107541,1,0,0:0:0:0:
240,160,107665,1,8,0:0:0:0:
224,160,107727,1,8,0:0:0:0:
224,160,107789,1,0,0:0:0:0:
224,160,107913,1,0,0:0:0:0:
240,144,108161,1,8,0:0:0:0:
474,76,108285,1,0,0:0:0:0:
240,144,108409,1,8,0:0:0:0:
240,144,108533,1,8,0:0:0:0:
240,144,108657,1,0,0:0:0:0:
240,144,108905,1,8,0:0:0:0:
240,144,109029,1,0,0:0:0:0:
240,144,109153,1,8,0:0:0:0:
240,128,109277,1,8,0:0:0:0:
240,144,109339,1,8,0:0:0:0:
240,144,109401,1,0,0:0:0:0:
240,128,109649,1,8,0:0:0:0:
240,128,109773,1,0,0:0:0:0:
240,128,109897,1,8,0:0:0:0:
240,128,109959,1,0,0:0:0:0:
240,128,110021,1,8,0:0:0:0:
240,128,110083,1,8,0:0:0:0:
240,128,110145,1,0,0:0:0:0:
256,144,110516,1,0,0:0:0:0:
256,144,110640,1,0,0:0:0:0:
256,144,110764,1,8,0:0:0:0:
256,144,110888,1,8,0:0:0:0:
240,144,111012,1,8,0:0:0:0:
240,144,111074,1,8,0:0:0:0:
240,144,111136,1,8,0:0:0:0:
224,160,111260,1,0,0:0:0:0:
224,160,111384,1,8,0:0:0:0:
208,144,111508,1,8,0:0:0:0:
208,144,111632,1,8,0:0:0:0:
208,160,111756,1,0,0:0:0:0:
210,84,111818,1,0,0:0:0:0:
208,160,111880,1,8,0:0:0:0:
208,160,112004,1,0,0:0:0:0:
208,160,112128,1,8,0:0:0:0:
208,160,112376,1,8,0:0:0:0:
208,176,112624,1,8,0:0:0:0:
432,150,112686,1,8,0:0:0:0:
208,176,112748,1,0,0:0:0:0:
432,150,112810,1,0,0:0:0:0:
208,176,112872,1,8,0:0:0:0:
208,176,112996,1,8,0:0:0:0:
208,176,113120,1,0,0:0:0:0:
208,176,113368,1,8,0:0:0:0:
224,176,113492,1,0,0:0:0:0:
224,144,113616,1,8,0:0:0:0:
224,160,113698,1,0,0:0:0:0:
163,143,113781,1,0,0:0:0:0:
240,160,113864,1,8,0:0:0:0:
240,160,113988,1,0,0:0:0:0:
256,160,114050,1,0,0:0:0:0:
240,176,114111,1,8,0:0:0:0:
240,176,114235,1,8,0:0:0:0:
224,176,114359,1,0,0:0:0:0:
224,176,114421,1,0,0:0:0:0:
224,176,114483,1,8,0:0:0:0:
224,176,114545,1,8,0:0:0:0:
224,176,114607,1,0,0:0:0:0:
240,208,114855,1,0,0:0:0:0:
240,208,114979,1,0,0:0:0:0:
240,208,115103,1,8,0:0:0:0:
240,208,115227,1,8,0:0:0:0:
240,208,115351,1,0,0:0:0:0:
240,208,115413,1,0,0:0:0:0:
240,208,115475,1,0,0:0:0:0:
240,208,115599,1,0,0:0:0:0:
240,208,115723,1,8,0:0:0:0:
240,192,115847,1,8,0:0:0:0:
240,192,115909,1,0,0:0:0:0:
240,192,115971,1,0,0:0:0:0:
240,192,116033,1,0,0:0:0:0:
240,192,116095,1,8,0:0:0:0:
224,176,116343,1,4,0:0:0:0:
208,176,116467,1,8,0:0:0:0:
208,176,116591,1,0,0:0:0:0:
208,176,116715,1,8,0:0:0:0:
208,160,116839,1,0,0:0:0:0:
208,160,116963,1,0,0:0:0:0:
415,88,117025,1,0,0:0:0:0:
208,176,117087,1,8,0:0:0:0:
208,160,117211,1,0,0:0:0:0:
208,160,117273,1,0,0:0:0:0:
208,160,117335,1,8,0:0:0:0:
208,160,117459,1,8,0:0:0:0:
208,160,117583,1,8,0:0:0:0:
208,176,117831,1,8,0:0:0:0:
208,160,117954,1,0,0:0:0:0:
208,160,118016,1,8,0:0:0:0:
208,160,118078,1,8,0:0:0:0:
208,160,118202,1,0,0:0:0:0:
208,160,118326,1,8,0:0:0:0:
224,144,118450,1,0,0:0:0:0:
224,144,118512,1,0,0:0:0:0:
224,144,118574,1,8,0:0:0:0:
224,144,118636,1,8,0:0:0:0:
224,144,118698,1,8,0:0:0:0:
224,144,118822,1,8,0:0:0:0:
224,144,118946,1,0,0:0:0:0:
224,144,119070,1,8,0:0:0:0:
240,176,119318,1,0,0:0:0:0:
256,176,119442,1,8,0:0:0:0:
256,176,119566,1,0,0:0:0:0:
256,176,119690,1,0,0:0:0:0:
256,176,119814,1,8,0:0:0:0:
256,176,119876,1,0,0:0:0:0:
256,160,119938,1,8,0:0:0:0:
256,176,120000,1,8,0:0:0:0:
256,160,120062,1,0,0:0:0:0:
256,160,120186,1,8,0:0:0:0:
403,113,120248,1,8,0:0:0:0:
256,160,120310,1,0,0:0:0:0:
415,197,120372,1,0,0:0:0:0:
256,160,120434,1,8,0:0:0:0:
256,160,120558,1,8,0:0:0:0:
256,160,120806,1,8,0:0:0:0:
256,160,120930,1,0,0:0:0:0:
256,160,121054,1,8,0:0:0:0:
440,143,121116,1,8,0:0:0:0:
367,102,121178,1,8,0:0:0:0:
440,143,121240,1,8,0:0:0:0:
256,160,121302,1,0,0:0:0:0:
240,160,121426,1,8,0:0:0:0:
240,160,121550,1,8,0:0:0:0:
224,160,121673,1,0,0:0:0:0:
224,160,121735,1,0,0:0:0:0:
224,160,121797,1,8,0:0:0:0:
224,160,121859,1,0,0:0:0:0:
224,160,121921,1,8,0:0:0:0:
224,160,122045,1,0,0:0:0:0:
208,160,122293,1,8,0:0:0:0:
217,159,122417,1,0,0:0:0:0:
224,160,122541,1,8,0:0:0:0:
224,160,122789,1,0,0:0:0:0:
224,160,122913,1,8,0:0:0:0:
224,160,123037,1,8,0:0:0:0:
224,160,123161,1,0,0:0:0:0:
224,160,123285,1,8,0:0:0:0:
224,160,123409,1,8,0:0:0:0:
224,160,123533,1,0,0:0:0:0:
224,176,123657,1,8,0:0:0:0:
224,160,123781,1,8,0:0:0:0:
224,160,123843,1,0,0:0:0:0:
224,160,123905,1,8,0:0:0:0:
224,160,124029,1,0,0:0:0:0:
208,138,124091,1,0,0:0:0:0:
240,160,124153,1,8,0:0:0:0:
240,160,124215,1,8,0:0:0:0:
240,160,124277,1,0,0:0:0:0:
224,160,124525,1,8,0:0:0:0:
224,160,124649,1,0,0:0:0:0:
224,160,124773,1,8,0:0:0:0:
224,160,124897,1,0,0:0:0:0:
224,160,125021,1,8,0:0:0:0:
222,148,125083,1,8,0:0:0:0:
224,147,125145,1,0,0:0:0:0:
440,122,125207,1,0,0:0:0:0:
224,160,125269,1,8,0:0:0:0:
224,144,125392,1,0,0:0:0:0:
224,144,125516,1,8,0:0:0:0:
224,144,125599,1,0,0:0:0:0:
224,144,125682,1,0,0:0:0:0:
224,144,125764,1,8,0:0:0:0:
224,144,125888,1,8,0:0:0:0:
488,146,125950,1,8,0:0:0:0:
224,144,126012,1,0,0:0:0:0:
208,160,126136,1,0,0:0:0:0:
208,160,126260,1,8,0:0:0:0:
208,160,126384,1,0,0:0:0:0:
224,160,126508,1,8,0:0:0:0:
208,160,126756,1,8,0:0:0:0:
208,160,127004,1,8,0:0:0:0:
208,160,127128,1,0,0:0:0:0:
224,160,127252,1,8,0:0:0:0:
224,160,127376,1,8,0:0:0:0:
224,160,127500,1,0,0:0:0:0:
224,160,127624,1,0,0:0:0:0:
224,160,127748,1,8,0:0:0:0:
224,160,127872,1,0,0:0:0:0:
224,160,127996,1,12,0:0:0:0:
208,160,128244,1,0,0:0:0:0:
208,160,128492,1,0,0:0:0:0:
208,160,128740,1,8,0:0:0:0:
208,160,129235,1,0,0:0:0:0:
208,160,129483,1,0,0:0:0:0:
208,160,129731,1,8,0:0:0:0:
208,160,129979,1,8,0:0:0:0:
208,160,130227,1,0,0:0:0:0:
208,160,130475,1,0,0:0:0:0:
208,160,130723,1,0,0:0:0:0:
208,160,130971,1,8,0:0:0:0:
208,160,131219,1,0,0:0:0:0:
208,160,131467,1,8,0:0:0:0:
208,160,131715,1,0,0:0:0:0:
208,160,132211,1,8,0:0:0:0:
208,160,132459,1,0,0:0:0:0:
208,160,132707,1,8,0:0:0:0:
208,160,132954,1,8,0:0:0:0:
208,160,133202,1,8,0:0:0:0:
208,160,133450,1,0,0:0:0:0:
208,160,133698,1,0,0:0:0:0:
208,160,133946,1,8,0:0:0:0:
208,176,134186,1,8,0:0:0:0:
208,176,134306,1,8,0:0:0:0:
208,176,134426,1,0,0:0:0:0:
208,176,134546,1,0,0:0:0:0:
208,176,134666,1,8,0:0:0:0:
208,176,135026,1,8,0:0:0:0:
208,176,135146,1,0,0:0:0:0:
208,176,135386,1,8,0:0:0:0:
208,176,135616,1,8,0:0:0:0:
208,176,135732,1,8,0:0:0:0:
208,176,135847,1,0,0:0:0:0:
208,176,136078,1,8,0:0:0:0:
208,176,136309,1,0,0:0:0:0:
208,176,136424,1,0,0:0:0:0:
208,176,136539,1,0,0:0:0:0:
208,176,136770,1,8,0:0:0:0:
208,176,136984,1,0,0:0:0:0:
208,176,137091,1,0,0:0:0:0:
208,176,137198,1,8,0:0:0:0:
208,176,137305,1,0,0:0:0:0:
208,176,137412,1,8,0:0:0:0:
208,176,137627,1,0,0:0:0:0:
208,176,137734,1,8,0:0:0:0:
224,192,137841,1,0,0:0:0:0:
208,176,138055,1,8,0:0:0:0:
208,160,138255,1,0,0:0:0:0:
208,176,138455,1,8,0:0:0:0:
208,176,138555,1,8,0:0:0:0:
208,160,138655,1,8,0:0:0:0:
208,160,138855,1,8,0:0:0:0:
208,144,139055,1,0,0:0:0:0:
208,160,139255,1,12,0:0:0:0:
208,160,139555,1,0,0:0:0:0:
208,160,139655,1,8,0:0:0:0:
224,160,139755,1,0,0:0:0:0:
224,176,139855,1,8,0:0:0:0:
208,192,140055,1,0,0:0:0:0:
192,192,140155,1,8,0:0:0:0:
192,192,140255,1,0,0:0:0:0:
192,176,140355,1,0,0:0:0:0:
192,176,140455,1,8,0:0:0:0:
192,176,140655,1,8,0:0:0:0:
192,176,140755,1,0,0:0:0:0:
192,176,140855,1,8,0:0:0:0:
192,160,140955,1,0,0:0:0:0:
192,160,141055,1,8,0:0:0:0:
192,160,141255,1,8,0:0:0:0:
192,160,141355,1,0,0:0:0:0:
192,160,141455,1,8,0:0:0:0:
192,160,141555,1,8,0:0:0:0:
192,160,141655,1,0,0:0:0:0:
192,160,141855,1,8,0:0:0:0:
192,160,142055,1,0,0:0:0:0:
224,160,142155,1,0,0:0:0:0:
192,160,142255,1,8,0:0:0:0:
192,160,142455,1,0,0:0:0:0:
192,160,142555,1,8,0:0:0:0:
192,160,142655,1,8,0:0:0:0:
192,160,142755,1,0,0:0:0:0:
192,160,142855,1,8,0:0:0:0:
208,160,143055,1,8,0:0:0:0:
208,160,143255,1,8,0:0:0:0:
208,160,143355,1,0,0:0:0:0:
208,160,143455,1,8,0:0:0:0:
208,128,143655,1,0,0:0:0:0:
208,176,143755,1,8,0:0:0:0:
208,176,143855,1,0,0:0:0:0:
208,176,143955,1,0,0:0:0:0:
208,176,144055,1,8,0:0:0:0:
224,176,144255,1,8,0:0:0:0:
224,176,144355,1,8,0:0:0:0:
224,176,144455,1,0,0:0:0:0:
224,176,144655,1,8,0:0:0:0:
224,176,144855,1,8,0:0:0:0:
224,176,144955,1,8,0:0:0:0:
224,176,145055,1,0,0:0:0:0:
224,176,145155,1,0,0:0:0:0:
224,176,145255,1,8,0:0:0:0:
224,176,145455,1,8,0:0:0:0:
224,176,145555,1,0,0:0:0:0:
224,176,145655,1,8,0:0:0:0:
224,160,145855,1,8,0:0:0:0:
208,176,146055,1,8,0:0:0:0:
208,176,146155,1,8,0:0:0:0:
208,176,146255,1,0,0:0:0:0:
224,176,146355,1,0,0:0:0:0:
224,176,146455,1,8,0:0:0:0:
224,176,146655,1,8,0:0:0:0:
224,176,146755,1,0,0:0:0:0:
224,176,146855,1,8,0:0:0:0:
224,176,146955,1,0,0:0:0:0:
224,176,147055,1,8,0:0:0:0:
240,176,147255,1,0,0:0:0:0:
224,176,147455,1,8,0:0:0:0:
224,176,147655,1,0,0:0:0:0:
224,192,148055,1,8,0:0:0:0:
224,192,148255,1,0,0:0:0:0:
224,192,148455,1,8,0:0:0:0:
224,192,148655,1,8,0:0:0:0:
224,208,148855,1,0,0:0:0:0:
224,208,149055,1,0,0:0:0:0:
224,208,149155,1,8,0:0:0:0:
224,208,149255,1,8,0:0:0:0:
224,208,149455,1,8,0:0:0:0:
224,208,149655,1,0,0:0:0:0:
224,208,149755,1,8,0:0:0:0:
224,208,149855,1,8,0:0:0:0:
224,208,150055,1,0,0:0:0:0:
224,224,150244,1,8,0:0:0:0:
224,224,150339,1,8,0:0:0:0:
224,208,150434,1,0,0:0:0:0:
224,208,150624,1,8,0:0:0:0:
224,208,150814,1,0,0:0:0:0:
224,208,150909,1,0,0:0:0:0:
224,208,151004,1,0,0:0:0:0:
224,208,151194,1,8,0:0:0:0:
224,208,151375,1,8,0:0:0:0:
224,208,151466,1,8,0:0:0:0:
224,208,151557,1,8,0:0:0:0:
224,208,151739,1,8,0:0:0:0:
224,208,151921,1,0,0:0:0:0:
224,208,152012,1,0,0:0:0:0:
224,192,152103,1,0,0:0:0:0:
224,192,152284,1,8,0:0:0:0:
224,192,152455,1,8,0:0:0:0:
224,192,152541,1,8,0:0:0:0:
224,192,152626,1,0,0:0:0:0:
224,192,152798,1,8,0:0:0:0:
224,192,153141,1,0,0:0:0:0:
224,192,153312,1,0,0:0:0:0:
224,192,153484,1,0,0:0:0:0:
224,192,153569,1,0,0:0:0:0:
224,192,153655,1,8,0:0:0:0:
224,192,153826,1,8,0:0:0:0:
224,192,153998,1,0,0:0:0:0:
224,192,154084,1,8,0:0:0:0:
224,192,154169,1,8,0:0:0:0:
224,192,154341,1,8,0:0:0:0:
224,192,154512,1,8,0:0:0:0:
224,192,154598,1,8,0:0:0:0:
224,192,154684,1,0,0:0:0:0:
224,192,154855,1,8,0:0:0:0:
224,192,154941,1,0,0:0:0:0:
224,176,155026,1,8,0:0:0:0:
224,176,155112,1,0,0:0:0:0:
224,176,155198,1,8,0:0:0:0:
224,176,155284,1,8,0:0:0:0:
240,208,156398,1,0,0:0:0:0:
236,174,156455,1,0,0:0:0:0:
224,176,156512,1,8,0:0:0:0:
