osu file format v14

[General]
AudioFilename: audio.mp3
AudioLeadIn: 0
PreviewTime: 128016
Countdown: 0
SampleSet: Normal
StackLeniency: 0.7
Mode: 1
LetterboxInBreaks: 0
WidescreenStoryboard: 1

[Editor]
DistanceSpacing: 2.6
BeatDivisor: 4
GridSize: 16
TimelineZoom: 2.350001

[Metadata]
Title:little witch in permafrost garden
TitleUnicode:little witch in permafrost garden
Artist:linear ring
ArtistUnicode:linear ring
Creator:Naverlyn
Version:Muzukashii
Source:BOFXVII
Tags:instrumental electronic fa featured artist angelion yama_ko BMS OF FIGHTERS XVII -VISION THE RETRO FUTURE-
BeatmapID:3336427
BeatmapSetID:1634667

[Difficulty]
HPDrainRate:6
CircleSize:5
OverallDifficulty:5
ApproachRate:5
SliderMultiplier:1.4
SliderTickRate:1

[Events]
//Background and Video events
0,0,"muzukashii.jpg",0,0
//Break Periods
//Storyboard Layer 0 (Background)
//Storyboard Layer 1 (Fail)
//Storyboard Layer 2 (Pass)
//Storyboard Layer 3 (Foreground)
//Storyboard Layer 4 (Overlay)
//Storyboard Sound Samples

[TimingPoints]
1029,352.941176470588,6,1,0,50,1,0
1029,-70.2479338842976,3,1,0,50,0,0
11617,329.67032967033,6,1,0,70,1,0
11617,-75.2066115702479,3,1,0,70,0,0
12605,307.692307692308,6,1,0,80,1,0
12605,-80.5785123966941,3,1,0,80,0,0
13528,285.714285714286,6,1,0,80,1,0
13528,-86.7768595041321,3,1,0,80,0,0
15242,266.666666666667,6,1,0,80,1,0
15242,-92.9752066115701,3,1,0,80,0,0
16842,247.933884297521,6,1,0,80,1,0
16842,-99.9999999999999,3,1,0,80,0,0
52544,-99.9999999999999,3,1,0,80,0,1
61470,-99.9999999999999,3,1,0,80,0,0
64445,-99.9999999999999,3,1,0,80,0,1
73370,270.27027027027,6,1,0,80,1,0
73370,-91.7355371900828,3,1,0,80,0,0
74991,288.461538461538,6,1,0,50,1,0
74991,-85.9504132231406,3,1,0,50,0,0
76721,319.148936170213,6,1,0,60,1,0
76721,-77.6859504132231,3,1,0,60,0,0
84380,300,6,1,0,70,1,0
84380,-82.6446280991736,3,1,0,70,0,0
86180,275.229357798165,6,1,0,80,1,0
86180,-90.0826446280992,3,1,0,80,0,0
87831,247.933884297521,6,1,0,80,1,0
87831,-99.9999999999999,3,1,0,80,0,0
90806,-99.9999999999999,3,1,0,80,0,1
104194,-99.9999999999999,3,1,0,80,0,0
107169,-99.9999999999999,3,1,0,80,0,1
122045,-99.9999999999999,3,1,0,80,0,0
123533,-99.9999999999999,3,1,0,80,0,1
127996,-99.9999999999999,3,1,0,80,0,0
133946,240,6,1,0,80,1,0
133946,-103.305785123967,3,1,0,80,0,0
135386,230.769230769231,6,1,0,80,1,0
135386,-107.438016528926,3,1,0,80,0,0
136770,214.285714285714,6,1,0,80,1,0
136770,-115.702479338843,3,1,0,80,0,0
138055,200,6,1,0,80,1,0
138055,-123.96694214876,3,1,0,80,0,0
139255,-123.96694214876,3,1,0,80,0,1
146455,-123.96694214876,3,1,0,80,0,0
148855,-123.96694214876,3,1,0,80,0,1
150055,189.873417721519,6,1,0,80,1,1
150055,-130.578512396694,3,1,0,80,0,1
151194,181.818181818182,6,1,0,80,1,1
151194,-136.363636363636,3,1,0,80,0,1
152284,171.428571428571,6,1,0,80,1,1
152284,-144.628099173554,3,1,0,80,0,1
155284,-144.628099173554,3,1,0,80,0,0
155369,171.428571428571,6,1,0,50,1,8
155369,-144.628099173554,3,1,0,50,0,0
155883,171.428571428571,6,1,0,50,1,8
155883,-144.628099173554,3,1,0,50,0,0

[HitObjects]
256,192,1029,5,8,0:0:0:0:
256,176,1617,1,0,0:0:0:0:
256,176,1734,1,0,0:0:0:0:
240,160,1970,1,0,0:0:0:0:
240,160,2087,1,8,0:0:0:0:
240,160,2440,1,8,0:0:0:0:
240,160,2793,1,8,0:0:0:0:
240,160,3146,1,0,0:0:0:0:
240,160,3499,1,8,0:0:0:0:
240,160,3852,1,8,0:0:0:0:
240,160,4205,1,8,0:0:0:0:
256,160,4793,1,8,0:0:0:0:
256,160,4911,1,8,0:0:0:0:
256,160,5146,1,8,0:0:0:0:
256,160,5264,1,0,0:0:0:0:
256,160,5617,1,8,0:0:0:0:
256,160,5852,1,0,0:0:0:0:
256,160,5970,1,8,0:0:0:0:
256,160,6323,1,8,0:0:0:0:
272,160,6676,1,8,0:0:0:0:
272,160,7028,1,8,0:0:0:0:
272,160,7381,1,0,0:0:0:0:
91,88,7734,1,8,0:0:0:0:
240,176,8087,1,8,0:0:0:0:
240,176,8440,1,8,0:0:0:0:
256,192,8793,1,0,0:0:0:0:
240,176,9146,1,8,0:0:0:0:
240,176,9499,1,0,0:0:0:0:
256,192,10087,1,8,0:0:0:0:
256,192,10205,1,8,0:0:0:0:
256,192,10440,1,8,0:0:0:0:
256,192,10558,1,0,0:0:0:0:
256,192,10911,1,8,0:0:0:0:
256,192,11264,1,8,0:0:0:0:
256,192,11617,1,0,0:0:0:0:
256,192,11946,1,8,0:0:0:0:
256,192,12276,1,8,0:0:0:0:
256,192,12605,1,8,0:0:0:0:
256,192,13117,1,0,0:0:0:0:
256,192,13220,1,8,0:0:0:0:
256,192,13528,1,8,0:0:0:0:
256,192,14099,1,8,0:0:0:0:
256,192,14385,1,0,0:0:0:0:
256,192,14670,1,8,0:0:0:0:
256,192,14956,1,8,0:0:0:0:
256,192,15242,1,8,0:0:0:0:
256,192,15508,1,0,0:0:0:0:
256,192,15775,1,8,0:0:0:0:
256,192,16042,1,8,0:0:0:0:
256,192,16308,1,8,0:0:0:0:
256,192,16442,1,0,0:0:0:0:
256,192,16575,1,8,0:0:0:0:
256,192,16842,1,4,0:0:0:0:
256,192,17213,1,0,0:0:0:0:
256,192,17337,1,8,0:0:0:0:
256,192,17461,1,8,0:0:0:0:
256,192,17585,1,0,0:0:0:0:
256,192,17833,1,8,0:0:0:0:
256,192,18081,1,8,0:0:0:0:
256,192,18205,1,8,0:0:0:0:
256,192,18329,1,0,0:0:0:0:
256,192,18577,1,8,0:0:0:0:
256,192,18825,1,8,0:0:0:0:
256,192,19073,1,8,0:0:0:0:
256,192,19445,1,0,0:0:0:0:
256,192,19693,1,8,0:0:0:0:
256,192,19817,1,0,0:0:0:0:
256,192,20065,1,8,0:0:0:0:
256,192,20313,1,0,0:0:0:0:
262,195,20395,1,0,0:0:0:0:
256,192,20478,1,0,0:0:0:0:
256,192,20561,1,0,0:0:0:0:
272,192,20808,1,8,0:0:0:0:
272,192,21056,1,8,0:0:0:0:
272,192,21304,1,0,0:0:0:0:
272,192,21552,1,8,0:0:0:0:
272,192,21676,1,0,0:0:0:0:
272,192,21800,1,8,0:0:0:0:
272,192,22048,1,0,0:0:0:0:
272,192,22296,1,0,0:0:0:0:
272,192,22420,1,0,0:0:0:0:
272,192,22544,1,8,0:0:0:0:
272,192,22792,1,4,0:0:0:0:
272,192,23164,1,8,0:0:0:0:
496,90,23288,1,0,0:0:0:0:
272,192,23412,1,8,0:0:0:0:
272,192,23536,1,0,0:0:0:0:
256,192,23784,1,8,0:0:0:0:
256,192,24032,1,8,0:0:0:0:
256,192,24280,1,0,0:0:0:0:
256,192,24527,1,8,0:0:0:0:
240,192,24651,1,0,0:0:0:0:
240,192,24775,1,8,0:0:0:0:
240,192,25023,1,0,0:0:0:0:
240,192,25271,1,8,0:0:0:0:
240,192,25519,1,8,0:0:0:0:
240,192,25643,1,8,0:0:0:0:
240,192,25767,1,0,0:0:0:0:
440,131,26015,1,0,0:0:0:0:
240,192,26263,1,8,0:0:0:0:
240,192,26346,1,8,0:0:0:0:
224,192,26428,1,8,0:0:0:0:
249,196,26511,1,8,0:0:0:0:
240,192,26759,1,8,0:0:0:0:
240,192,27007,1,8,0:0:0:0:
240,192,27131,1,8,0:0:0:0:
240,192,27255,1,0,0:0:0:0:
240,192,27627,1,0,0:0:0:0:
240,192,27751,1,8,0:0:0:0:
240,176,27999,1,8,0:0:0:0:
240,176,28061,1,8,0:0:0:0:
240,176,28122,1,8,0:0:0:0:
240,176,28246,1,8,0:0:0:0:
240,176,28370,1,0,0:0:0:0:
240,176,28494,1,8,0:0:0:0:
240,176,28742,1,4,0:0:0:0:
256,176,30230,1,8,0:0:0:0:
256,176,30850,1,0,0:0:0:0:
256,176,30974,1,8,0:0:0:0:
256,176,31222,1,8,0:0:0:0:
256,176,31470,1,0,0:0:0:0:
256,176,31594,1,0,0:0:0:0:
256,176,31718,1,12,0:0:0:0:
256,176,31965,1,8,0:0:0:0:
256,176,32089,1,0,0:0:0:0:
256,176,32337,1,0,0:0:0:0:
256,176,32461,1,0,0:0:0:0:
256,176,32709,1,8,0:0:0:0:
256,176,32833,1,8,0:0:0:0:
256,176,32957,1,0,0:0:0:0:
256,176,33081,1,0,0:0:0:0:
256,176,33205,1,8,0:0:0:0:
256,176,33453,1,0,0:0:0:0:
256,176,33577,1,8,0:0:0:0:
256,160,33825,1,0,0:0:0:0:
256,160,33949,1,8,0:0:0:0:
256,160,34197,1,0,0:0:0:0:
256,160,34445,1,8,0:0:0:0:
256,160,34569,1,0,0:0:0:0:
256,160,34693,1,12,0:0:0:0:
256,160,35065,1,0,0:0:0:0:
256,160,35189,1,8,0:0:0:0:
256,160,35437,1,0,0:0:0:0:
256,160,35684,1,8,0:0:0:0:
256,160,35808,1,0,0:0:0:0:
256,160,35932,1,0,0:0:0:0:
256,160,36056,1,8,0:0:0:0:
272,176,36180,1,0,0:0:0:0:
272,176,36428,1,8,0:0:0:0:
272,176,36676,1,8,0:0:0:0:
272,176,36924,1,8,0:0:0:0:
272,176,37172,1,0,0:0:0:0:
272,176,37296,1,8,0:0:0:0:
272,176,37420,1,0,0:0:0:0:
272,176,37668,1,8,0:0:0:0:
272,176,38040,1,8,0:0:0:0:
272,176,38164,1,8,0:0:0:0:
272,176,38412,1,0,0:0:0:0:
272,176,38660,1,8,0:0:0:0:
272,176,38908,1,8,0:0:0:0:
272,160,39032,1,8,0:0:0:0:
272,160,39156,1,0,0:0:0:0:
272,160,39403,1,8,0:0:0:0:
272,160,39651,1,8,0:0:0:0:
272,160,39775,1,8,0:0:0:0:
288,160,39899,1,0,0:0:0:0:
288,160,40147,1,8,0:0:0:0:
288,160,40395,1,8,0:0:0:0:
288,160,40643,1,4,0:0:0:0:
240,176,41015,1,0,0:0:0:0:
256,176,41139,1,8,0:0:0:0:
224,176,41387,1,0,0:0:0:0:
224,176,41635,1,8,0:0:0:0:
224,176,41883,1,8,0:0:0:0:
224,176,42131,1,0,0:0:0:0:
224,176,42379,1,8,0:0:0:0:
224,176,42627,1,8,0:0:0:0:
224,176,42751,1,0,0:0:0:0:
224,176,42875,1,8,0:0:0:0:
224,176,43122,1,0,0:0:0:0:
224,176,43370,1,0,0:0:0:0:
224,176,43618,1,8,0:0:0:0:
224,176,44114,1,8,0:0:0:0:
224,176,44362,1,0,0:0:0:0:
224,176,44610,1,8,0:0:0:0:
224,176,44734,1,0,0:0:0:0:
224,176,44858,1,8,0:0:0:0:
224,176,45106,1,0,0:0:0:0:
224,176,45354,1,8,0:0:0:0:
224,176,45602,1,8,0:0:0:0:
224,176,45850,1,0,0:0:0:0:
224,176,46098,1,0,0:0:0:0:
224,176,46346,1,0,0:0:0:0:
224,176,46470,1,8,0:0:0:0:
224,176,46594,1,4,0:0:0:0:
224,176,47089,1,8,0:0:0:0:
224,176,47337,1,0,0:0:0:0:
224,176,47461,1,0,0:0:0:0:
224,176,47585,1,0,0:0:0:0:
224,176,47833,1,8,0:0:0:0:
224,176,48081,1,0,0:0:0:0:
224,176,48329,1,8,0:0:0:0:
224,176,48453,1,0,0:0:0:0:
224,176,48577,1,8,0:0:0:0:
224,176,48825,1,0,0:0:0:0:
224,176,48949,1,0,0:0:0:0:
224,176,49073,1,8,0:0:0:0:
66,110,49197,1,8,0:0:0:0:
224,176,49321,1,8,0:0:0:0:
224,176,49569,1,0,0:0:0:0:
224,176,50065,1,8,0:0:0:0:
224,176,50313,1,8,0:0:0:0:
224,176,50437,1,0,0:0:0:0:
224,176,50561,1,0,0:0:0:0:
224,176,50684,1,8,0:0:0:0:
224,176,50808,1,0,0:0:0:0:
224,176,51056,1,0,0:0:0:0:
208,160,51304,1,0,0:0:0:0:
224,176,51552,1,8,0:0:0:0:
224,176,51676,1,0,0:0:0:0:
224,176,51800,1,0,0:0:0:0:
224,176,52048,1,8,0:0:0:0:
224,176,52296,1,8,0:0:0:0:
224,176,52544,1,4,0:0:0:0:
224,176,53288,1,12,0:0:0:0:
224,176,54032,1,4,0:0:0:0:
224,176,54527,1,4,0:0:0:0:
224,176,54775,1,12,0:0:0:0:
224,176,55147,1,4,0:0:0:0:
224,176,55519,1,4,0:0:0:0:
224,176,56263,1,12,0:0:0:0:
224,176,56511,1,4,0:0:0:0:
224,176,56759,1,4,0:0:0:0:
224,176,57007,1,12,0:0:0:0:
224,176,57379,1,4,0:0:0:0:
447,103,57503,1,4,0:0:0:0:
224,176,57751,1,12,0:0:0:0:
224,176,57999,1,12,0:0:0:0:
224,176,58246,1,4,0:0:0:0:
224,176,58494,1,4,0:0:0:0:
256,192,59238,1,12,0:0:0:0:
256,192,59982,1,4,0:0:0:0:
256,192,60230,1,4,0:0:0:0:
256,192,60478,1,4,0:0:0:0:
256,192,60726,1,12,0:0:0:0:
256,192,61098,1,4,0:0:0:0:
256,192,61470,1,4,0:0:0:0:
256,192,62213,1,12,0:0:0:0:
256,192,62461,1,4,0:0:0:0:
256,192,62709,1,4,0:0:0:0:
256,192,62957,1,12,0:0:0:0:
256,192,63081,1,4,0:0:0:0:
256,192,63329,1,4,0:0:0:0:
256,192,63453,1,4,0:0:0:0:
256,192,63701,1,12,0:0:0:0:
256,192,63949,1,4,0:0:0:0:
256,192,64197,1,4,0:0:0:0:
256,192,64445,1,12,0:0:0:0:
256,192,64941,1,8,0:0:0:0:
256,192,65189,1,12,0:0:0:0:
256,192,65684,1,8,0:0:0:0:
256,192,65932,1,4,0:0:0:0:
256,192,66180,1,0,0:0:0:0:
256,192,66304,1,8,0:0:0:0:
256,192,66428,1,8,0:0:0:0:
256,192,66676,1,12,0:0:0:0:
256,192,66924,1,8,0:0:0:0:
256,192,67172,1,8,0:0:0:0:
256,192,67296,1,8,0:0:0:0:
256,192,67420,1,4,0:0:0:0:
256,192,67916,1,8,0:0:0:0:
256,192,68040,1,0,0:0:0:0:
256,192,68164,1,12,0:0:0:0:
256,192,68412,1,4,0:0:0:0:
256,192,68660,1,12,0:0:0:0:
256,208,68908,1,4,0:0:0:0:
405,157,69032,1,4,0:0:0:0:
256,208,69280,1,4,0:0:0:0:
256,192,69651,1,12,0:0:0:0:
256,192,69899,1,4,0:0:0:0:
256,192,70147,1,12,0:0:0:0:
256,176,70395,1,12,0:0:0:0:
272,176,70891,1,8,0:0:0:0:
272,176,71139,1,12,0:0:0:0:
272,176,71635,1,8,0:0:0:0:
272,176,71883,1,4,0:0:0:0:
256,192,72131,1,8,0:0:0:0:
256,192,72379,1,8,0:0:0:0:
256,192,72627,1,12,0:0:0:0:
256,192,72875,1,8,0:0:0:0:
256,192,72999,1,4,0:0:0:0:
256,192,73122,1,8,0:0:0:0:
256,192,73246,1,8,0:0:0:0:
256,192,73370,1,4,0:0:0:0:
256,192,74180,1,8,0:0:0:0:
256,192,74451,1,0,0:0:0:0:
256,192,74721,1,0,0:0:0:0:
256,192,74991,1,0,0:0:0:0:
256,192,75279,1,8,0:0:0:0:
256,192,75423,1,0,0:0:0:0:
256,192,75567,1,0,0:0:0:0:
409,143,75856,1,0,0:0:0:0:
256,192,76144,1,8,0:0:0:0:
256,192,76289,1,0,0:0:0:0:
411,208,76433,1,0,0:0:0:0:
256,192,76721,1,8,0:0:0:0:
256,176,77252,1,0,0:0:0:0:
256,176,77359,1,0,0:0:0:0:
240,160,77572,1,0,0:0:0:0:
240,160,77678,1,8,0:0:0:0:
240,160,77997,1,8,0:0:0:0:
240,160,78316,1,8,0:0:0:0:
240,160,78635,1,0,0:0:0:0:
240,160,78955,1,8,0:0:0:0:
240,160,79274,1,8,0:0:0:0:
240,160,79593,1,8,0:0:0:0:
244,165,79912,1,0,0:0:0:0:
256,160,80125,1,8,0:0:0:0:
256,160,80231,1,8,0:0:0:0:
256,160,80444,1,8,0:0:0:0:
256,160,80550,1,0,0:0:0:0:
256,160,80869,1,8,0:0:0:0:
256,160,81082,1,0,0:0:0:0:
256,160,81189,1,8,0:0:0:0:
256,160,81508,1,8,0:0:0:0:
272,160,81827,1,8,0:0:0:0:
272,160,82146,1,8,0:0:0:0:
272,160,82465,1,0,0:0:0:0:
240,176,83103,1,8,0:0:0:0:
240,176,83423,1,8,0:0:0:0:
240,176,83742,1,0,0:0:0:0:
240,176,84061,1,8,0:0:0:0:
256,192,84380,1,0,0:0:0:0:
256,192,84880,1,8,0:0:0:0:
256,192,84980,1,8,0:0:0:0:
256,192,85180,1,8,0:0:0:0:
256,192,85280,1,0,0:0:0:0:
256,192,85580,1,8,0:0:0:0:
256,192,85880,1,8,0:0:0:0:
256,192,86180,1,0,0:0:0:0:
256,192,86455,1,8,0:0:0:0:
256,192,86730,1,8,0:0:0:0:
256,192,87005,1,8,0:0:0:0:
256,192,87464,1,0,0:0:0:0:
256,192,87556,1,8,0:0:0:0:
256,192,87831,1,8,0:0:0:0:
256,192,88326,1,8,0:0:0:0:
256,192,88574,1,0,0:0:0:0:
256,192,88822,1,8,0:0:0:0:
256,192,89070,1,0,0:0:0:0:
256,192,89318,1,8,0:0:0:0:
256,192,89814,1,8,0:0:0:0:
256,192,90062,1,8,0:0:0:0:
256,192,90310,1,8,0:0:0:0:
256,192,90558,1,8,0:0:0:0:
256,192,90806,1,4,0:0:0:0:
248,182,91178,1,8,0:0:0:0:
248,182,91302,1,8,0:0:0:0:
256,186,91426,1,0,0:0:0:0:
248,182,91550,1,0,0:0:0:0:
248,182,91673,1,8,0:0:0:0:
248,182,91735,1,8,0:0:0:0:
248,182,91797,1,8,0:0:0:0:
248,182,92045,1,0,0:0:0:0:
248,182,92293,1,0,0:0:0:0:
247,175,92541,1,8,0:0:0:0:
246,171,92665,1,0,0:0:0:0:
247,175,92789,1,8,0:0:0:0:
247,175,93037,1,8,0:0:0:0:
247,175,93409,1,8,0:0:0:0:
247,175,93533,1,8,0:0:0:0:
247,175,93657,1,0,0:0:0:0:
247,175,93781,1,8,0:0:0:0:
241,177,94029,1,0,0:0:0:0:
241,180,94153,1,0,0:0:0:0:
241,180,94277,1,8,0:0:0:0:
241,180,94359,1,8,0:0:0:0:
241,151,94442,1,8,0:0:0:0:
241,180,94525,1,8,0:0:0:0:
241,177,94773,1,8,0:0:0:0:
233,175,95021,1,8,0:0:0:0:
233,175,95269,1,8,0:0:0:0:
233,166,95516,1,8,0:0:0:0:
233,166,95640,1,0,0:0:0:0:
408,144,95764,1,8,0:0:0:0:
224,167,96012,1,8,0:0:0:0:
226,157,96260,1,8,0:0:0:0:
218,156,96508,1,0,0:0:0:0:
219,158,96632,1,8,0:0:0:0:
219,157,96756,1,4,0:0:0:0:
214,145,97252,1,8,0:0:0:0:
208,154,97500,1,8,0:0:0:0:
209,151,97624,1,0,0:0:0:0:
209,151,97686,1,0,0:0:0:0:
210,151,97748,1,0,0:0:0:0:
213,151,97872,1,8,0:0:0:0:
213,150,97996,1,8,0:0:0:0:
209,142,98244,1,8,0:0:0:0:
212,135,98492,1,8,0:0:0:0:
214,146,98616,1,0,0:0:0:0:
212,135,98740,1,8,0:0:0:0:
213,135,98988,1,4,0:0:0:0:
208,152,99235,1,8,0:0:0:0:
208,152,99359,1,8,0:0:0:0:
208,152,99421,1,8,0:0:0:0:
208,152,99483,1,8,0:0:0:0:
208,152,99607,1,0,0:0:0:0:
209,152,99731,1,8,0:0:0:0:
211,148,99979,1,8,0:0:0:0:
211,148,100227,1,8,0:0:0:0:
211,148,100310,1,8,0:0:0:0:
209,152,100392,1,8,0:0:0:0:
217,148,100475,1,8,0:0:0:0:
217,148,100723,1,8,0:0:0:0:
217,148,100847,1,0,0:0:0:0:
217,148,100971,1,8,0:0:0:0:
217,148,101095,1,8,0:0:0:0:
217,148,101219,1,0,0:0:0:0:
217,148,101467,1,8,0:0:0:0:
217,148,101591,1,8,0:0:0:0:
217,148,101715,1,0,0:0:0:0:
217,148,101963,1,0,0:0:0:0:
217,148,102087,1,0,0:0:0:0:
217,148,102211,1,8,0:0:0:0:
217,148,102335,1,0,0:0:0:0:
217,148,102459,1,8,0:0:0:0:
217,148,102707,1,0,0:0:0:0:
219,141,102954,1,0,0:0:0:0:
219,141,103202,1,0,0:0:0:0:
219,141,103450,1,0,0:0:0:0:
219,141,103574,1,8,0:0:0:0:
219,141,103698,1,0,0:0:0:0:
219,141,103822,1,8,0:0:0:0:
219,141,103946,1,8,0:0:0:0:
219,141,104070,1,8,0:0:0:0:
218,118,104194,1,0,0:0:0:0:
249,186,107169,1,4,0:0:0:0:
249,186,107417,1,0,0:0:0:0:
252,181,107665,1,8,0:0:0:0:
252,181,107789,1,0,0:0:0:0:
253,182,107913,1,0,0:0:0:0:
442,175,108037,1,8,0:0:0:0:
442,175,108099,1,8,0:0:0:0:
242,177,108161,1,8,0:0:0:0:
245,174,108409,1,8,0:0:0:0:
253,186,108533,1,8,0:0:0:0:
253,182,108657,1,0,0:0:0:0:
237,170,108905,1,8,0:0:0:0:
238,169,109029,1,0,0:0:0:0:
244,151,109277,1,0,0:0:0:0:
240,165,109401,1,8,0:0:0:0:
234,136,109525,1,0,0:0:0:0:
234,136,109649,1,8,0:0:0:0:
241,157,109897,1,8,0:0:0:0:
232,112,110021,1,8,0:0:0:0:
232,112,110145,1,0,0:0:0:0:
235,170,110516,1,0,0:0:0:0:
464,184,110640,1,8,0:0:0:0:
235,166,110764,1,8,0:0:0:0:
220,172,110888,1,8,0:0:0:0:
223,171,111012,1,0,0:0:0:0:
223,171,111074,1,0,0:0:0:0:
223,171,111136,1,0,0:0:0:0:
223,164,111384,1,8,0:0:0:0:
223,164,111508,1,8,0:0:0:0:
196,161,111632,1,0,0:0:0:0:
196,161,111756,1,8,0:0:0:0:
203,165,111880,1,0,0:0:0:0:
203,164,112128,1,0,0:0:0:0:
196,161,112252,1,8,0:0:0:0:
196,161,112376,1,8,0:0:0:0:
223,160,112624,1,8,0:0:0:0:
224,153,112872,1,8,0:0:0:0:
224,153,112996,1,8,0:0:0:0:
224,153,113120,1,0,0:0:0:0:
224,152,113368,1,8,0:0:0:0:
224,153,113616,1,8,0:0:0:0:
224,153,113864,1,0,0:0:0:0:
224,146,114111,1,8,0:0:0:0:
224,146,114235,1,8,0:0:0:0:
224,146,114359,1,0,0:0:0:0:
224,146,114483,1,8,0:0:0:0:
224,146,114607,1,0,0:0:0:0:
224,146,115103,1,8,0:0:0:0:
224,146,115351,1,8,0:0:0:0:
228,149,115599,1,0,0:0:0:0:
228,149,115723,1,8,0:0:0:0:
228,149,115847,1,8,0:0:0:0:
228,149,115971,1,0,0:0:0:0:
228,149,116033,1,0,0:0:0:0:
228,149,116095,1,0,0:0:0:0:
228,149,116343,1,4,0:0:0:0:
228,149,116591,1,0,0:0:0:0:
228,149,116715,1,8,0:0:0:0:
228,149,116839,1,0,0:0:0:0:
217,170,117087,1,8,0:0:0:0:
217,170,117335,1,8,0:0:0:0:
217,170,117459,1,8,0:0:0:0:
217,170,117583,1,0,0:0:0:0:
216,175,117831,1,8,0:0:0:0:
216,175,118078,1,8,0:0:0:0:
216,175,118202,1,0,0:0:0:0:
224,174,118326,1,8,0:0:0:0:
214,209,118574,1,8,0:0:0:0:
215,201,118698,1,8,0:0:0:0:
215,201,118760,1,8,0:0:0:0:
214,201,118822,1,8,0:0:0:0:
214,201,118946,1,0,0:0:0:0:
214,201,119070,1,8,0:0:0:0:
206,195,119566,1,8,0:0:0:0:
206,195,119690,1,0,0:0:0:0:
206,195,119814,1,8,0:0:0:0:
206,195,119876,1,8,0:0:0:0:
206,195,119938,1,8,0:0:0:0:
206,195,120062,1,0,0:0:0:0:
202,189,120310,1,0,0:0:0:0:
198,189,120434,1,8,0:0:0:0:
197,189,120558,1,8,0:0:0:0:
189,192,120806,1,8,0:0:0:0:
183,189,120868,1,8,0:0:0:0:
191,198,120930,1,8,0:0:0:0:
191,198,121054,1,0,0:0:0:0:
191,197,121302,1,0,0:0:0:0:
189,192,121550,1,8,0:0:0:0:
191,192,121673,1,0,0:0:0:0:
191,192,121797,1,8,0:0:0:0:
202,184,121859,1,8,0:0:0:0:
201,186,121921,1,8,0:0:0:0:
200,183,122045,1,0,0:0:0:0:
198,171,122789,1,0,0:0:0:0:
198,171,123037,1,8,0:0:0:0:
451,171,123161,1,0,0:0:0:0:
196,161,123285,1,8,0:0:0:0:
196,161,123533,1,0,0:0:0:0:
196,161,123657,1,8,0:0:0:0:
203,165,123781,1,0,0:0:0:0:
203,164,124029,1,0,0:0:0:0:
196,161,124153,1,8,0:0:0:0:
196,161,124277,1,8,0:0:0:0:
203,152,124525,1,8,0:0:0:0:
202,149,124773,1,8,0:0:0:0:
202,149,124897,1,8,0:0:0:0:
202,149,125021,1,0,0:0:0:0:
203,146,125083,1,0,0:0:0:0:
203,146,125145,1,0,0:0:0:0:
203,146,125269,1,8,0:0:0:0:
202,149,125516,1,8,0:0:0:0:
202,149,125599,1,8,0:0:0:0:
202,149,125682,1,8,0:0:0:0:
371,157,125764,1,8,0:0:0:0:
203,146,126012,1,0,0:0:0:0:
184,138,126260,1,8,0:0:0:0:
212,147,126384,1,8,0:0:0:0:
212,147,126508,1,8,0:0:0:0:
203,146,126756,1,0,0:0:0:0:
217,155,127004,1,8,0:0:0:0:
214,147,127128,1,0,0:0:0:0:
217,137,127252,1,8,0:0:0:0:
217,137,127500,1,0,0:0:0:0:
218,137,127624,1,0,0:0:0:0:
217,137,127748,1,8,0:0:0:0:
221,140,127872,1,0,0:0:0:0:
217,137,127996,1,12,0:0:0:0:
214,143,128492,1,0,0:0:0:0:
214,143,128740,1,8,0:0:0:0:
214,143,129235,1,0,0:0:0:0:
214,143,129483,1,0,0:0:0:0:
214,143,129731,1,8,0:0:0:0:
214,143,129979,1,8,0:0:0:0:
214,143,130227,1,0,0:0:0:0:
214,143,130475,1,0,0:0:0:0:
214,143,130723,1,8,0:0:0:0:
214,143,130971,1,8,0:0:0:0:
214,143,131467,1,8,0:0:0:0:
214,143,131715,1,0,0:0:0:0:
214,143,132211,1,8,0:0:0:0:
214,143,132459,1,0,0:0:0:0:
214,143,132707,1,8,0:0:0:0:
214,143,132954,1,8,0:0:0:0:
214,143,133202,1,8,0:0:0:0:
214,143,133450,1,0,0:0:0:0:
214,143,133698,1,0,0:0:0:0:
214,143,133946,1,8,0:0:0:0:
226,187,134426,1,0,0:0:0:0:
223,181,134666,1,8,0:0:0:0:
223,181,135146,1,0,0:0:0:0:
223,181,135386,1,0,0:0:0:0:
223,181,135616,1,8,0:0:0:0:
223,181,135847,1,8,0:0:0:0:
223,181,136078,1,0,0:0:0:0:
223,181,136309,1,0,0:0:0:0:
223,181,136539,1,8,0:0:0:0:
223,181,136770,1,0,0:0:0:0:
223,181,137198,1,0,0:0:0:0:
223,181,137412,1,8,0:0:0:0:
223,181,137841,1,0,0:0:0:0:
223,181,138055,1,0,0:0:0:0:
223,181,138255,1,8,0:0:0:0:
223,181,138455,1,8,0:0:0:0:
223,181,138655,1,0,0:0:0:0:
223,181,139055,1,0,0:0:0:0:
223,181,139255,1,12,0:0:0:0:
223,181,139655,1,0,0:0:0:0:
223,181,139855,1,8,0:0:0:0:
223,181,139955,1,8,0:0:0:0:
223,181,140055,1,8,0:0:0:0:
223,181,140255,1,0,0:0:0:0:
223,181,140455,1,8,0:0:0:0:
223,181,140655,1,0,0:0:0:0:
223,181,140855,1,0,0:0:0:0:
223,181,141055,1,8,0:0:0:0:
223,181,141455,1,0,0:0:0:0:
223,181,141655,1,8,0:0:0:0:
223,181,142055,1,0,0:0:0:0:
223,181,142255,1,8,0:0:0:0:
230,201,142455,1,8,0:0:0:0:
231,194,142555,1,8,0:0:0:0:
223,181,142655,1,8,0:0:0:0:
223,181,142855,1,0,0:0:0:0:
223,181,143055,1,8,0:0:0:0:
223,181,143255,1,8,0:0:0:0:
223,181,143455,1,0,0:0:0:0:
223,181,143855,1,0,0:0:0:0:
223,181,144055,1,8,0:0:0:0:
223,181,144255,1,8,0:0:0:0:
223,181,144455,1,0,0:0:0:0:
223,181,144655,1,8,0:0:0:0:
223,181,145055,1,0,0:0:0:0:
223,181,145255,1,8,0:0:0:0:
490,115,145455,1,0,0:0:0:0:
223,181,145655,1,0,0:0:0:0:
223,181,145855,1,8,0:0:0:0:
223,181,146055,1,8,0:0:0:0:
223,181,146255,1,8,0:0:0:0:
223,181,146455,1,0,0:0:0:0:
223,181,147055,1,0,0:0:0:0:
223,181,147655,1,0,0:0:0:0:
234,183,148055,1,0,0:0:0:0:
223,181,148255,1,0,0:0:0:0:
223,181,148455,1,0,0:0:0:0:
223,181,148655,1,0,0:0:0:0:
223,181,148855,1,8,0:0:0:0:
223,181,149255,1,0,0:0:0:0:
223,181,149455,1,8,0:0:0:0:
223,181,149655,1,8,0:0:0:0:
223,181,149855,1,0,0:0:0:0:
223,181,150055,1,0,0:0:0:0:
223,181,150624,1,8,0:0:0:0:
223,181,150814,1,0,0:0:0:0:
223,181,151004,1,0,0:0:0:0:
223,181,151194,1,0,0:0:0:0:
223,181,151739,1,8,0:0:0:0:
223,181,151921,1,8,0:0:0:0:
223,181,152103,1,0,0:0:0:0:
223,181,152284,1,0,0:0:0:0:
223,181,152798,1,8,0:0:0:0:
223,181,152969,1,0,0:0:0:0:
223,181,153141,1,0,0:0:0:0:
223,181,153312,1,0,0:0:0:0:
223,181,153655,1,0,0:0:0:0:
223,181,153826,1,8,0:0:0:0:
223,181,153998,1,0,0:0:0:0:
223,181,154169,1,0,0:0:0:0:
223,181,154341,1,8,0:0:0:0:
223,181,154684,1,0,0:0:0:0:
226,184,154855,1,8,0:0:0:0:
227,184,155026,1,8,0:0:0:0:
227,184,155198,1,0,0:0:0:0:
228,182,155284,1,0,0:0:0:0:
239,169,156398,1,0,0:0:0:0:
245,174,156512,1,8,0:0:0:0:
