osu file format v14

[General]
AudioFilename: audio.mp3
AudioLeadIn: 0
PreviewTime: 128016
Countdown: 0
SampleSet: Normal
StackLeniency: 0.7
Mode: 1
LetterboxInBreaks: 0
WidescreenStoryboard: 1

[Editor]
DistanceSpacing: 2.6
BeatDivisor: 1
GridSize: 8
TimelineZoom: 2.450001

[Metadata]
Title:little witch in permafrost garden
TitleUnicode:little witch in permafrost garden
Artist:linear ring
ArtistUnicode:linear ring
Creator:Naverlyn
Version:Futsuu
Source:BOFXVII
Tags:instrumental electronic fa featured artist angelion yama_ko BMS OF FIGHTERS XVII -VISION THE RETRO FUTURE-
BeatmapID:3336425
BeatmapSetID:1634667

[Difficulty]
HPDrainRate:7
CircleSize:5
OverallDifficulty:4
ApproachRate:5
SliderMultiplier:1.4
SliderTickRate:1

[Events]
//Background and Video events
0,0,"futsuu.jpg",0,0
//Break Periods
//Storyboard Layer 0 (Background)
//Storyboard Layer 1 (Fail)
//Storyboard Layer 2 (Pass)
//Storyboard Layer 3 (Foreground)
//Storyboard Layer 4 (Overlay)
//Storyboard Sound Samples

[TimingPoints]
1029,352.941176470588,6,1,0,50,1,0
1029,-70.2479338842976,3,1,0,50,0,0
11617,329.67032967033,6,1,0,70,1,0
11617,-75.2066115702479,3,1,0,70,0,0
12605,307.692307692308,6,1,0,80,1,0
12605,-80.5785123966941,3,1,0,80,0,0
13528,285.714285714286,6,1,0,80,1,0
13528,-86.7768595041321,3,1,0,80,0,0
15242,266.666666666667,6,1,0,80,1,0
15242,-92.9752066115701,3,1,0,80,0,0
16842,247.933884297521,6,1,0,80,1,0
16842,-99.9999999999999,3,1,0,80,0,0
52544,-99.9999999999999,3,1,0,80,0,1
61470,-99.9999999999999,3,1,0,80,0,0
64445,-99.9999999999999,3,1,0,80,0,1
73370,270.27027027027,6,1,0,80,1,0
73370,-91.7355371900828,3,1,0,80,0,0
74991,288.461538461538,6,1,0,50,1,0
74991,-85.9504132231406,3,1,0,50,0,0
76721,319.148936170213,6,1,0,60,1,0
76721,-77.6859504132231,3,1,0,60,0,0
84380,300,6,1,0,70,1,0
84380,-82.6446280991736,3,1,0,70,0,0
86180,275.229357798165,6,1,0,80,1,0
86180,-90.0826446280992,3,1,0,80,0,0
87831,247.933884297521,6,1,0,80,1,0
87831,-99.9999999999999,3,1,0,80,0,0
90806,-99.9999999999999,3,1,0,80,0,1
104194,-99.9999999999999,3,1,0,80,0,0
107169,-99.9999999999999,3,1,0,80,0,1
122045,-99.9999999999999,3,1,0,80,0,0
123533,-99.9999999999999,3,1,0,80,0,1
127996,-99.9999999999999,3,1,0,80,0,0
133946,240,6,1,0,80,1,0
133946,-103.305785123967,3,1,0,80,0,0
135386,230.769230769231,6,1,0,80,1,0
135386,-107.438016528926,3,1,0,80,0,0
136770,214.285714285714,6,1,0,80,1,0
136770,-115.702479338843,3,1,0,80,0,0
138055,200,6,1,0,80,1,0
138055,-123.96694214876,3,1,0,80,0,0
139255,-123.96694214876,3,1,0,80,0,1
146455,-123.96694214876,3,1,0,80,0,0
148855,-123.96694214876,3,1,0,80,0,1
150055,189.873417721519,6,1,0,80,1,1
150055,-130.578512396694,3,1,0,80,0,1
151194,181.818181818182,6,1,0,80,1,1
151194,-136.363636363636,3,1,0,80,0,1
152284,171.428571428571,6,1,0,80,1,1
152284,-144.628099173554,3,1,0,80,0,1
155284,-144.628099173554,3,1,0,80,0,0
155369,171.428571428571,6,1,0,50,1,8
155369,-144.628099173554,3,1,0,50,0,0
155883,171.428571428571,6,1,0,50,1,8
155883,-144.628099173554,3,1,0,50,0,0

[HitObjects]
169,179,1029,5,8,0:0:0:0:
226,191,2087,1,8,0:0:0:0:
227,186,2440,1,8,0:0:0:0:
226,191,2793,1,0,0:0:0:0:
228,178,3146,1,0,0:0:0:0:
228,178,3499,1,8,0:0:0:0:
228,178,4205,1,8,0:0:0:0:
228,178,4911,1,8,0:0:0:0:
228,178,5264,1,8,0:0:0:0:
228,178,5970,1,0,0:0:0:0:
228,178,6323,1,8,0:0:0:0:
228,178,6676,1,8,0:0:0:0:
447,92,7028,1,0,0:0:0:0:
228,178,7381,1,0,0:0:0:0:
66,81,8087,1,0,0:0:0:0:
230,172,8440,1,8,0:0:0:0:
230,172,8793,1,0,0:0:0:0:
230,172,9146,1,8,0:0:0:0:
230,172,9499,1,0,0:0:0:0:
239,170,10205,1,8,0:0:0:0:
230,172,10558,1,0,0:0:0:0:
239,170,10911,1,8,0:0:0:0:
230,172,11617,1,0,0:0:0:0:
230,172,11946,1,8,0:0:0:0:
230,172,12276,1,8,0:0:0:0:
230,172,12605,1,8,0:0:0:0:
230,172,13220,1,8,0:0:0:0:
230,172,13528,1,8,0:0:0:0:
230,172,14099,1,8,0:0:0:0:
230,172,14385,1,0,0:0:0:0:
230,172,14670,1,8,0:0:0:0:
230,172,14956,1,8,0:0:0:0:
230,172,15242,1,8,0:0:0:0:
230,172,15775,1,8,0:0:0:0:
230,172,16042,1,8,0:0:0:0:
230,172,16575,1,8,0:0:0:0:
230,172,16842,1,4,0:0:0:0:
230,172,17585,1,0,0:0:0:0:
230,172,17957,1,0,0:0:0:0:
230,172,18329,1,0,0:0:0:0:
230,172,18577,1,8,0:0:0:0:
233,166,18825,1,8,0:0:0:0:
233,165,19073,1,8,0:0:0:0:
230,172,19445,1,0,0:0:0:0:
230,172,19817,1,0,0:0:0:0:
230,172,20561,1,8,0:0:0:0:
230,172,21056,1,8,0:0:0:0:
230,172,21304,1,0,0:0:0:0:
230,172,21676,1,0,0:0:0:0:
230,172,22048,1,8,0:0:0:0:
230,159,22296,1,0,0:0:0:0:
230,172,22544,1,8,0:0:0:0:
230,172,22792,1,4,0:0:0:0:
230,172,23536,1,0,0:0:0:0:
236,165,23784,1,8,0:0:0:0:
230,159,24032,1,8,0:0:0:0:
230,172,24280,1,0,0:0:0:0:
230,172,24775,1,0,0:0:0:0:
230,172,25023,1,0,0:0:0:0:
218,147,25395,1,8,0:0:0:0:
218,147,25767,1,0,0:0:0:0:
221,152,26263,1,8,0:0:0:0:
221,152,26387,1,0,0:0:0:0:
221,152,26511,1,8,0:0:0:0:
228,168,26759,1,8,0:0:0:0:
219,159,27007,1,8,0:0:0:0:
219,159,27255,1,0,0:0:0:0:
219,151,27751,1,8,0:0:0:0:
219,151,27999,1,8,0:0:0:0:
219,151,28246,1,8,0:0:0:0:
219,151,28494,1,8,0:0:0:0:
219,151,28742,1,4,0:0:0:0:
248,190,30230,1,8,0:0:0:0:
248,190,30974,1,8,0:0:0:0:
248,190,31470,1,0,0:0:0:0:
248,190,31718,1,12,0:0:0:0:
249,180,32461,1,0,0:0:0:0:
252,180,32709,1,8,0:0:0:0:
252,180,32957,1,0,0:0:0:0:
249,180,33205,1,8,0:0:0:0:
246,186,33577,1,8,0:0:0:0:
246,186,33949,1,8,0:0:0:0:
246,186,34197,1,0,0:0:0:0:
246,186,34445,1,8,0:0:0:0:
246,186,34569,1,0,0:0:0:0:
246,186,34693,1,12,0:0:0:0:
239,179,35437,1,0,0:0:0:0:
239,179,35684,1,8,0:0:0:0:
239,179,35932,1,8,0:0:0:0:
239,179,36180,1,0,0:0:0:0:
239,179,36676,1,8,0:0:0:0:
239,179,36924,1,8,0:0:0:0:
239,179,37172,1,0,0:0:0:0:
239,179,37420,1,0,0:0:0:0:
239,179,37544,1,0,0:0:0:0:
239,179,37668,1,8,0:0:0:0:
233,174,38412,1,0,0:0:0:0:
233,174,38660,1,8,0:0:0:0:
233,174,38908,1,8,0:0:0:0:
233,174,39156,1,0,0:0:0:0:
229,179,39527,1,0,0:0:0:0:
229,178,39899,1,0,0:0:0:0:
229,179,40147,1,8,0:0:0:0:
229,178,40395,1,8,0:0:0:0:
222,174,40519,1,8,0:0:0:0:
229,178,40643,1,4,0:0:0:0:
229,178,41387,1,0,0:0:0:0:
229,178,41635,1,8,0:0:0:0:
229,178,41883,1,8,0:0:0:0:
229,178,42131,1,0,0:0:0:0:
232,182,42627,1,0,0:0:0:0:
229,186,42875,1,8,0:0:0:0:
232,182,43122,1,0,0:0:0:0:
232,182,43370,1,0,0:0:0:0:
229,186,43494,1,0,0:0:0:0:
229,186,43618,1,8,0:0:0:0:
229,181,44362,1,0,0:0:0:0:
229,181,44610,1,8,0:0:0:0:
229,181,44858,1,8,0:0:0:0:
229,181,45106,1,8,0:0:0:0:
234,183,45478,1,0,0:0:0:0:
234,183,45850,1,8,0:0:0:0:
150,187,46346,1,0,0:0:0:0:
234,183,46594,1,4,0:0:0:0:
233,194,47337,1,0,0:0:0:0:
233,194,47585,1,8,0:0:0:0:
233,194,47833,1,8,0:0:0:0:
233,194,48081,1,0,0:0:0:0:
233,194,48577,1,8,0:0:0:0:
233,194,48825,1,0,0:0:0:0:
233,194,49073,1,8,0:0:0:0:
233,194,49321,1,8,0:0:0:0:
233,194,49569,1,0,0:0:0:0:
233,180,50313,1,8,0:0:0:0:
233,180,50561,1,0,0:0:0:0:
233,180,50808,1,0,0:0:0:0:
233,180,51056,1,8,0:0:0:0:
233,180,51428,1,8,0:0:0:0:
233,180,51800,1,0,0:0:0:0:
233,180,52048,1,8,0:0:0:0:
233,180,52296,1,8,0:0:0:0:
233,180,52544,1,4,0:0:0:0:
233,180,53288,1,12,0:0:0:0:
233,180,54032,1,4,0:0:0:0:
233,180,54527,1,4,0:0:0:0:
233,180,54775,1,12,0:0:0:0:
233,180,55147,1,4,0:0:0:0:
233,180,55519,1,4,0:0:0:0:
233,180,56263,1,12,0:0:0:0:
233,180,57007,1,12,0:0:0:0:
233,180,57379,1,4,0:0:0:0:
233,180,57751,1,12,0:0:0:0:
233,180,57999,1,12,0:0:0:0:
233,180,58246,1,4,0:0:0:0:
233,180,58494,1,4,0:0:0:0:
241,180,59238,1,12,0:0:0:0:
235,176,59982,1,4,0:0:0:0:
235,176,60478,1,4,0:0:0:0:
235,176,60726,1,12,0:0:0:0:
235,176,61098,1,4,0:0:0:0:
235,176,61470,1,4,0:0:0:0:
233,194,62213,1,12,0:0:0:0:
233,194,62461,1,12,0:0:0:0:
233,194,62709,1,4,0:0:0:0:
233,194,62957,1,12,0:0:0:0:
237,191,63701,1,12,0:0:0:0:
243,186,63949,1,4,0:0:0:0:
242,183,64197,1,4,0:0:0:0:
237,191,64445,1,12,0:0:0:0:
250,178,65189,1,12,0:0:0:0:
235,195,65932,1,4,0:0:0:0:
235,195,66428,1,8,0:0:0:0:
235,195,66676,1,12,0:0:0:0:
235,195,67048,1,4,0:0:0:0:
235,195,67420,1,4,0:0:0:0:
252,188,68164,1,12,0:0:0:0:
256,190,68412,1,4,0:0:0:0:
257,191,68660,1,12,0:0:0:0:
257,191,68908,1,4,0:0:0:0:
256,190,69280,1,4,0:0:0:0:
257,191,69651,1,12,0:0:0:0:
256,190,69899,1,4,0:0:0:0:
257,191,70147,1,12,0:0:0:0:
257,191,70395,1,12,0:0:0:0:
241,184,71139,1,12,0:0:0:0:
245,189,71883,1,4,0:0:0:0:
245,189,72379,1,8,0:0:0:0:
245,189,72627,1,12,0:0:0:0:
245,189,72999,1,4,0:0:0:0:
245,189,73370,1,4,0:0:0:0:
245,189,74180,1,8,0:0:0:0:
245,189,74451,1,0,0:0:0:0:
245,189,74721,1,0,0:0:0:0:
245,189,74991,1,0,0:0:0:0:
169,179,76721,5,8,0:0:0:0:
226,191,77678,1,8,0:0:0:0:
227,186,77997,1,8,0:0:0:0:
226,191,78316,1,0,0:0:0:0:
228,178,78635,1,0,0:0:0:0:
228,178,78955,1,8,0:0:0:0:
228,178,79593,1,8,0:0:0:0:
228,178,80231,1,8,0:0:0:0:
228,178,80550,1,8,0:0:0:0:
228,178,81189,1,0,0:0:0:0:
228,178,81508,1,8,0:0:0:0:
228,178,81827,1,8,0:0:0:0:
447,92,82146,1,0,0:0:0:0:
228,178,82465,1,0,0:0:0:0:
66,81,83103,1,0,0:0:0:0:
230,172,83423,1,8,0:0:0:0:
230,172,83742,1,0,0:0:0:0:
230,172,84061,1,8,0:0:0:0:
230,166,84380,1,0,0:0:0:0:
239,170,84980,5,8,0:0:0:0:
230,172,85280,1,0,0:0:0:0:
239,170,85580,1,8,0:0:0:0:
230,172,86180,1,0,0:0:0:0:
230,172,86455,1,8,0:0:0:0:
230,172,86730,1,8,0:0:0:0:
230,172,87005,1,8,0:0:0:0:
225,175,87556,1,8,0:0:0:0:
230,172,87831,1,8,0:0:0:0:
230,172,88326,1,8,0:0:0:0:
230,172,88574,1,0,0:0:0:0:
230,172,89070,1,0,0:0:0:0:
231,176,89318,1,8,0:0:0:0:
230,172,89814,1,0,0:0:0:0:
230,172,90062,1,8,0:0:0:0:
230,172,90310,1,8,0:0:0:0:
230,172,90558,1,8,0:0:0:0:
230,172,90806,1,4,0:0:0:0:
230,172,91550,1,0,0:0:0:0:
214,175,91797,1,8,0:0:0:0:
214,175,92045,1,0,0:0:0:0:
214,175,92293,1,0,0:0:0:0:
214,175,92789,1,8,0:0:0:0:
214,175,93037,1,8,0:0:0:0:
215,176,93409,1,8,0:0:0:0:
215,176,93657,1,0,0:0:0:0:
214,175,93781,1,8,0:0:0:0:
236,170,94277,1,8,0:0:0:0:
208,194,94525,1,8,0:0:0:0:
205,198,94773,1,8,0:0:0:0:
205,198,95021,1,0,0:0:0:0:
205,198,95145,1,0,0:0:0:0:
205,198,95269,1,8,0:0:0:0:
184,201,96012,1,8,0:0:0:0:
184,201,96260,1,8,0:0:0:0:
184,201,96508,1,0,0:0:0:0:
184,201,96632,1,8,0:0:0:0:
184,201,96756,1,4,0:0:0:0:
184,201,97252,1,8,0:0:0:0:
184,201,97500,1,8,0:0:0:0:
184,201,97748,1,0,0:0:0:0:
184,201,97996,1,8,0:0:0:0:
184,201,98244,1,8,0:0:0:0:
191,171,98740,1,8,0:0:0:0:
190,184,98988,1,4,0:0:0:0:
184,181,99235,1,8,0:0:0:0:
185,179,99483,1,8,0:0:0:0:
185,179,99607,1,0,0:0:0:0:
185,179,99731,1,8,0:0:0:0:
186,187,100227,1,8,0:0:0:0:
186,187,100475,1,8,0:0:0:0:
186,187,100723,1,8,0:0:0:0:
186,187,100971,1,8,0:0:0:0:
186,187,101219,1,8,0:0:0:0:
186,187,101715,1,0,0:0:0:0:
186,187,101963,1,8,0:0:0:0:
189,181,102211,1,0,0:0:0:0:
189,181,102335,1,0,0:0:0:0:
189,181,102459,1,8,0:0:0:0:
189,181,102707,1,0,0:0:0:0:
186,187,102954,1,0,0:0:0:0:
186,186,103202,1,0,0:0:0:0:
186,186,103450,1,0,0:0:0:0:
365,180,103698,1,0,0:0:0:0:
365,180,103822,1,0,0:0:0:0:
186,187,103946,1,8,0:0:0:0:
365,180,104070,1,8,0:0:0:0:
186,187,104194,1,0,0:0:0:0:
251,190,107169,1,4,0:0:0:0:
251,190,107541,1,0,0:0:0:0:
251,190,107913,1,0,0:0:0:0:
251,190,108161,1,8,0:0:0:0:
251,190,108409,1,8,0:0:0:0:
251,190,108657,1,0,0:0:0:0:
251,190,109029,1,0,0:0:0:0:
251,190,109401,1,0,0:0:0:0:
251,190,109649,1,8,0:0:0:0:
251,190,109897,1,8,0:0:0:0:
251,190,110021,1,8,0:0:0:0:
251,190,110145,1,0,0:0:0:0:
242,181,110888,1,8,0:0:0:0:
242,181,111136,1,8,0:0:0:0:
242,181,111384,1,8,0:0:0:0:
242,181,111632,1,8,0:0:0:0:
242,181,112128,1,8,0:0:0:0:
242,181,112376,1,8,0:0:0:0:
425,164,112624,1,0,0:0:0:0:
425,164,112748,1,0,0:0:0:0:
234,189,112872,1,8,0:0:0:0:
234,189,113120,1,0,0:0:0:0:
234,189,113616,1,8,0:0:0:0:
234,189,113864,1,0,0:0:0:0:
219,177,114111,1,8,0:0:0:0:
219,177,114359,1,0,0:0:0:0:
220,177,114607,1,0,0:0:0:0:
219,177,115103,1,8,0:0:0:0:
219,177,115351,1,8,0:0:0:0:
220,177,115599,1,0,0:0:0:0:
219,177,115847,1,0,0:0:0:0:
219,177,115971,1,0,0:0:0:0:
219,177,116095,1,0,0:0:0:0:
122,101,116343,1,4,0:0:0:0:
220,177,116591,1,0,0:0:0:0:
219,177,116839,1,0,0:0:0:0:
211,134,117087,1,8,0:0:0:0:
218,159,117335,1,8,0:0:0:0:
218,167,117583,1,8,0:0:0:0:
212,168,118078,1,8,0:0:0:0:
212,168,118326,1,8,0:0:0:0:
213,168,118574,1,8,0:0:0:0:
212,168,118698,1,0,0:0:0:0:
212,168,118822,1,0,0:0:0:0:
212,168,119070,1,8,0:0:0:0:
207,166,119566,1,8,0:0:0:0:
207,166,119814,1,8,0:0:0:0:
207,170,120062,1,0,0:0:0:0:
207,171,120186,1,8,0:0:0:0:
207,171,120310,1,0,0:0:0:0:
207,171,120558,1,8,0:0:0:0:
207,171,120806,1,8,0:0:0:0:
207,170,121054,1,0,0:0:0:0:
207,171,121302,1,0,0:0:0:0:
207,171,121550,1,8,0:0:0:0:
207,170,121797,1,8,0:0:0:0:
207,170,121921,1,8,0:0:0:0:
207,171,122045,1,0,0:0:0:0:
211,181,123533,1,0,0:0:0:0:
387,221,123657,1,8,0:0:0:0:
211,181,123781,1,0,0:0:0:0:
387,221,123905,1,8,0:0:0:0:
211,181,124029,1,0,0:0:0:0:
211,181,124277,1,8,0:0:0:0:
217,172,124525,1,8,0:0:0:0:
217,182,124773,1,8,0:0:0:0:
217,182,124897,1,8,0:0:0:0:
217,182,125021,1,8,0:0:0:0:
218,177,125516,1,8,0:0:0:0:
218,177,125764,1,8,0:0:0:0:
218,177,126012,1,0,0:0:0:0:
218,177,126260,1,8,0:0:0:0:
218,177,126384,1,0,0:0:0:0:
218,177,126508,1,8,0:0:0:0:
218,177,127004,1,8,0:0:0:0:
229,183,127252,1,8,0:0:0:0:
230,187,127500,1,0,0:0:0:0:
230,188,127748,1,8,0:0:0:0:
231,188,127996,1,12,0:0:0:0:
230,188,128740,1,8,0:0:0:0:
230,188,129235,1,0,0:0:0:0:
230,188,129483,1,0,0:0:0:0:
230,188,129979,1,8,0:0:0:0:
230,188,130227,1,0,0:0:0:0:
230,188,130475,1,0,0:0:0:0:
230,188,130723,1,8,0:0:0:0:
230,188,130971,1,8,0:0:0:0:
230,188,131467,1,8,0:0:0:0:
230,188,131715,1,0,0:0:0:0:
230,188,132211,1,8,0:0:0:0:
230,188,132459,1,0,0:0:0:0:
230,188,132954,1,8,0:0:0:0:
230,188,133202,1,8,0:0:0:0:
230,188,133450,1,0,0:0:0:0:
230,188,133698,1,0,0:0:0:0:
230,188,133946,1,8,0:0:0:0:
232,193,134666,1,8,0:0:0:0:
232,195,135026,1,0,0:0:0:0:
232,193,135386,1,0,0:0:0:0:
232,193,135732,1,0,0:0:0:0:
232,193,136078,1,8,0:0:0:0:
232,193,136309,1,8,0:0:0:0:
232,193,136539,1,0,0:0:0:0:
232,193,136770,1,0,0:0:0:0:
232,193,137198,1,0,0:0:0:0:
239,184,137412,1,8,0:0:0:0:
228,199,137841,1,0,0:0:0:0:
228,199,138055,1,0,0:0:0:0:
222,197,138255,1,8,0:0:0:0:
225,197,138455,1,8,0:0:0:0:
225,191,138655,1,0,0:0:0:0:
242,194,139055,1,0,0:0:0:0:
243,194,139255,1,12,0:0:0:0:
236,192,139855,1,8,0:0:0:0:
236,192,140255,1,0,0:0:0:0:
236,192,140455,1,0,0:0:0:0:
236,192,140655,1,8,0:0:0:0:
236,192,140855,1,8,0:0:0:0:
236,192,141055,1,0,0:0:0:0:
247,177,141355,1,8,0:0:0:0:
242,189,141655,1,0,0:0:0:0:
241,191,142055,1,0,0:0:0:0:
241,191,142255,1,8,0:0:0:0:
242,189,142655,1,8,0:0:0:0:
241,191,142855,1,0,0:0:0:0:
241,191,143055,1,8,0:0:0:0:
241,191,143255,1,8,0:0:0:0:
242,189,143455,1,0,0:0:0:0:
241,191,144055,1,0,0:0:0:0:
242,189,144455,1,8,0:0:0:0:
241,191,144655,1,0,0:0:0:0:
241,191,145055,1,0,0:0:0:0:
242,189,145255,1,0,0:0:0:0:
242,189,145455,1,8,0:0:0:0:
241,191,145655,1,8,0:0:0:0:
241,191,145855,1,0,0:0:0:0:
240,193,146255,1,8,0:0:0:0:
238,193,146455,1,8,0:0:0:0:
238,193,147055,1,8,0:0:0:0:
238,193,147655,1,0,0:0:0:0:
238,193,148055,1,0,0:0:0:0:
238,193,148255,1,0,0:0:0:0:
238,193,148455,1,0,0:0:0:0:
238,193,148655,1,0,0:0:0:0:
238,193,148855,1,0,0:0:0:0:
238,193,149455,1,8,0:0:0:0:
242,195,150055,1,0,0:0:0:0:
242,195,150434,1,0,0:0:0:0:
242,195,150624,1,8,0:0:0:0:
242,195,151194,1,8,0:0:0:0:
242,195,151739,1,8,0:0:0:0:
242,195,152284,1,0,0:0:0:0:
414,186,152626,1,0,0:0:0:0:
242,195,152798,1,8,0:0:0:0:
242,195,153312,1,8,0:0:0:0:
239,202,153826,1,0,0:0:0:0:
242,195,154341,1,8,0:0:0:0:
235,193,154855,1,8,0:0:0:0:
367,240,155026,1,8,0:0:0:0:
367,240,155198,1,8,0:0:0:0:
233,195,156398,1,0,0:0:0:0:
