osu file format v14

[General]
AudioFilename: audio.mp3
AudioLeadIn: 0
PreviewTime: 128016
Countdown: 0
SampleSet: Normal
StackLeniency: 0.7
Mode: 1
LetterboxInBreaks: 0
WidescreenStoryboard: 1

[Editor]
Bookmarks: 52564
DistanceSpacing: 2.6
BeatDivisor: 4
GridSize: 16
TimelineZoom: 4.449999

[Metadata]
Title:little witch in permafrost garden
TitleUnicode:little witch in permafrost garden
Artist:linear ring
ArtistUnicode:linear ring
Creator:Naverlyn
Version:Bloom
Source:BOFXVII
Tags:instrumental electronic fa featured artist angelion yama_ko BMS OF FIGHTERS XVII -VISION THE RETRO FUTURE-
BeatmapID:3336424
BeatmapSetID:1634667

[Difficulty]
HPDrainRate:6
CircleSize:4
OverallDifficulty:7
ApproachRate:10
SliderMultiplier:1.4
SliderTickRate:1

[Events]
//Background and Video events
0,0,"bloom.jpg",0,0
//Break Periods
//Storyboard Layer 0 (Background)
//Storyboard Layer 1 (Fail)
//Storyboard Layer 2 (Pass)
//Storyboard Layer 3 (Foreground)
//Storyboard Layer 4 (Overlay)
//Storyboard Sound Samples

[TimingPoints]
1029,352.941176470588,6,1,0,50,1,0
1029,-105.263157894737,3,1,0,50,0,0
9489,-100,3,1,0,60,0,0
9842,-99.2624461764151,3,1,0,60,0,0
10077,-98.5356925065461,3,1,0,60,0,0
10195,-97.8195032999126,3,1,0,60,0,0
10430,-97.1136500516729,3,1,0,60,0,0
10548,-96.417910427902,3,1,0,60,0,0
10783,-95.7320687926089,3,1,0,60,0,0
10901,-95.0559152353096,3,1,0,60,0,0
11018,-94.3892460957616,3,1,0,60,0,0
11136,-93.7318630309595,3,1,0,60,0,0
11254,-93.0835734500129,3,1,0,60,0,0
11489,-92.444190051181,3,1,0,60,0,0
11617,329.67032967033,6,1,0,70,1,0
11617,-98.2944855014503,3,1,0,70,0,0
11826,-97.6284584957084,3,1,0,70,0,0
11936,-96.9713965197776,3,1,0,70,0,0
12156,-96.3231197736171,3,1,0,70,0,0
12266,-95.6834532332798,3,1,0,70,0,0
12486,-95.0522264933729,3,1,0,70,0,0
12605,307.692307692308,6,1,0,80,1,0
12605,-101.174221744768,3,1,0,80,0,0
12697,-100.515463904573,3,1,0,80,0,0
12800,-99.865229077134,3,1,0,80,0,0
12902,-99.2233530178574,3,1,0,80,0,0
13107,-98.589675383763,3,1,0,80,0,0
13210,-97.9640401947789,3,1,0,80,0,0
13415,-97.3462953079556,3,1,0,80,0,0
13528,285.714285714286,6,1,0,80,1,0
13528,-104.177545732435,3,1,0,80,0,0
13613,-103.528801241967,3,1,0,80,0,0
13708,-102.88808659617,3,1,0,80,0,0
13803,-102.255253732291,3,1,0,80,0,0
13946,-101.630157895662,3,1,0,80,0,0
14089,-101.012658262883,3,1,0,80,0,0
14184,-100.402617004252,3,1,0,80,0,0
14279,-99.7998999032952,3,1,0,80,0,0
14375,-99.2043759447047,3,1,0,80,0,0
14518,-98.6159169277188,3,1,0,80,0,0
14660,-98.0343980645069,3,1,0,80,0,0
14803,-97.4596971089252,3,1,0,80,0,0
14946,-96.8916949507493,3,1,0,80,0,0
15089,-96.3302752381954,3,1,0,80,0,0
15242,266.666666666667,6,1,0,80,1,0
15242,-102.616418624517,3,1,0,80,0,0
15365,-102.028639624835,3,1,0,80,0,0
15498,-101.447555782141,3,1,0,80,0,0
15632,-100.873053351438,3,1,0,80,0,0
15765,-100.305021149795,3,1,0,80,0,0
15898,-99.7433504846114,3,1,0,80,0,0
16032,-99.1879349858992,3,1,0,80,0,0
16098,-98.6386709338676,3,1,0,80,0,0
16165,-98.0954566005321,3,1,0,80,0,0
16232,-97.5581925838525,3,1,0,80,0,0
16298,-97.0267816476074,3,1,0,80,0,0
16365,-96.5011286627257,3,1,0,80,0,0
16432,-95.9811405505159,3,1,0,80,0,0
16498,-95.4667262277207,3,1,0,80,0,0
16565,-94.9577965533292,3,1,0,80,0,0
16632,-94.4542642770808,3,1,0,80,0,0
16698,-93.9560439895997,3,1,0,80,0,0
16765,-93.4630520740984,3,1,0,80,0,0
16842,247.933884297521,6,1,0,80,1,0
52544,-100,3,1,0,80,0,1
61470,-100,3,1,0,80,0,0
64445,-100,3,1,0,80,0,1
72627,-102.567642186637,3,1,0,80,0,1
72751,-105.270614905072,3,1,0,80,0,1
72875,-108.119906868452,3,1,0,80,0,1
72999,-111.102803738318,3,1,0,80,0,1
73122,-114.281319695455,3,1,0,80,0,1
73246,-119.047619047619,3,1,0,80,0,1
73370,270.27027027027,6,1,0,50,1,0
73370,-113.636363636364,3,1,0,50,0,0
74991,288.461538461538,6,1,0,50,1,0
74991,-107.52688172043,3,1,0,50,0,0
75135,-107.52688172043,3,1,0,50,0,0
75279,-108.909123370827,3,1,0,50,0,0
75423,-110.327364803762,3,1,0,50,0,0
75495,-111.111111111111,3,1,0,50,0,0
75567,-111.783030969397,3,1,0,50,0,0
75712,-113.288141888755,3,1,0,50,0,0
75856,-114.823529411765,3,1,0,50,0,0
76000,-116.401106764622,3,1,0,50,0,0
76144,-118.022637128761,3,1,0,50,0,0
76289,-119.701726844584,3,1,0,50,0,0
76433,-121.417197452229,3,1,0,50,0,0
76577,-123.182552504039,3,1,0,50,0,0
76721,319.148936170213,6,1,0,50,1,0
76721,-112.980769230769,3,1,0,50,0,0
84380,300,6,1,0,60,1,0
84380,-112.359550561798,3,1,0,60,0,0
84680,-111.714944351146,3,1,0,60,0,0
84880,-111.289300224795,3,1,0,60,0,0
84980,-111.07769215611,3,1,0,60,0,0
85180,-110.656881011996,3,1,0,60,0,0
85280,-110.44766884262,3,1,0,60,0,0
85480,-110.031608831295,3,1,0,60,0,0
85580,-109.824752099591,3,1,0,60,0,0
85680,-109.618671679626,3,1,0,60,0,0
85780,-109.413363209459,3,1,0,60,0,0
85880,-109.208822359767,3,1,0,60,0,0
86080,-108.802026365782,3,1,0,60,0,0
86180,275.229357798165,6,1,0,70,1,0
86180,-118.373741368296,3,1,0,70,0,0
86363,-117.972401457235,3,1,0,70,0,0
86455,-117.771661182468,3,1,0,70,0,0
86638,-117.374386679894,3,1,0,70,0,0
86730,-117.175674680978,3,1,0,70,0,0
86913,-116.782404126867,3,1,0,70,0,0
87005,-116.58568981789,3,1,0,70,0,0
87097,-116.389637105954,3,1,0,70,0,0
87189,-116.194242659,3,1,0,70,0,0
87280,-116.001616391803,3,1,0,70,0,0
87464,-115.614075049766,3,1,0,70,0,0
87556,-115.421273790887,3,1,0,70,0,0
87739,-115.039672307235,3,1,0,70,0,0
87831,247.933884297521,6,1,0,80,1,0
87831,-127.551020408163,6,1,0,80,0,0
87913,-125.661571213152,6,1,0,80,0,0
87996,-124.7431758145,6,1,0,80,0,0
88078,-123.848933442126,6,1,0,80,0,0
88202,-122.520756457565,6,1,0,80,0,0
88326,-121.220764403879,6,1,0,80,0,0
88409,-120.365912373616,6,1,0,80,0,0
88492,-119.523032791496,6,1,0,80,0,0
88574,-118.701821025584,6,1,0,80,0,0
88698,-117.481203007519,6,1,0,80,0,0
88822,-116.285432855423,6,1,0,80,0,0
88946,-115.113759479957,6,1,0,80,0,0
89070,-113.965461761236,6,1,0,80,0,0
89194,-112.839847068819,6,1,0,80,0,0
89318,-111.736249868546,6,1,0,80,0,0
89442,-110.654030410331,6,1,0,80,0,0
89566,-109.59257349149,6,1,0,80,0,0
89690,-108.55128729056,6,1,0,80,0,0
89814,-107.529602266977,6,1,0,80,0,0
89938,-106.526970122318,6,1,0,80,0,0
90062,-105.542862819112,6,1,0,80,0,0
90124,-105.057596282197,6,1,0,80,0,0
90186,-104.576771653543,6,1,0,80,0,0
90248,-104.100328222211,6,1,0,80,0,0
90310,-103.628206378621,6,1,0,80,0,0
90372,-103.160347589689,6,1,0,80,0,0
90434,-102.696694374638,6,1,0,80,0,0
90496,-102.237190281453,6,1,0,80,0,0
90558,-101.781779863972,6,1,0,80,0,0
90620,-101.330408659578,6,1,0,80,0,0
90682,-100.88302316749,6,1,0,80,0,0
90744,-100.439570827622,6,1,0,80,0,0
90806,-100,6,1,0,80,0,1
104194,-100,3,1,0,80,0,0
105682,-125,3,1,0,80,0,0
106426,-125,3,1,0,80,0,0
106550,-119.99354005168,3,1,0,80,0,0
106673,-115.408511960236,3,1,0,80,0,0
106735,-113.227674489485,3,1,0,80,0,0
106797,-111.127729584206,3,1,0,80,0,0
106921,-107.153158350159,3,1,0,80,0,0
107045,-103.453077137288,3,1,0,80,0,0
107169,-100,3,1,0,80,0,1
122045,-100,3,1,0,80,0,0
123533,-100,3,1,0,80,0,1
127996,-100,3,1,0,80,0,0
128244,-100.966101454818,3,1,0,80,0,0
128492,-101.951052051895,3,1,0,80,0,0
128740,-102.955408860449,3,1,0,80,0,0
128988,-103.97975111967,3,1,0,80,0,0
129235,-105.0204257545,3,1,0,80,0,0
129483,-106.086484113075,3,1,0,80,0,0
129731,-107.174407458226,3,1,0,80,0,0
129979,-108.284875440109,3,1,0,80,0,0
130227,-109.418596172076,3,1,0,80,0,0
130475,-110.576307736463,3,1,0,80,0,0
130723,-111.758779786988,3,1,0,80,0,0
130971,-112.966815255077,3,1,0,80,0,0
131219,-114.201252168061,3,1,0,80,0,0
131467,-115.462965587905,3,1,0,80,0,0
131715,-116.752869679882,3,1,0,80,0,0
131963,-118.071919921479,3,1,0,80,0,0
132211,-119.421115462752,3,1,0,80,0,0
132459,-120.801501650375,3,1,0,80,0,0
132707,-122.214172728793,3,1,0,80,0,0
132954,-123.654374962049,3,1,0,80,0,0
133202,-125.134966686272,3,1,0,80,0,0
133450,-126.651444208506,3,1,0,80,0,0
133698,-128.205128205128,3,1,0,80,0,0
133946,240,6,1,0,80,1,0
133946,-103.305785123967,6,1,0,80,0,0
134185,-98.940735,6,1,0,80,0,0
134305,-98.41532,6,1,0,80,0,0
134425,-97.89269,6,1,0,80,0,0
134545,-97.372856,6,1,0,80,0,0
134665,-96.85575,6,1,0,80,0,0
134905,-95.82981,6,1,0,80,0,0
135025,-95.32091,6,1,0,80,0,0
135145,-94.81472,6,1,0,80,0,0
135265,-94.31121,6,1,0,80,0,0
135386,230.769230769231,6,1,0,80,1,0
135386,-97.56279,6,1,0,80,0,0
135615,-96.57219,6,1,0,80,0,0
135731,-96.076416,6,1,0,80,0,0
135846,-95.58741,6,1,0,80,0,0
135961,-95.1009,6,1,0,80,0,0
136077,-94.612656,6,1,0,80,0,0
136308,-93.647865,6,1,0,80,0,0
136423,-93.17123,6,1,0,80,0,0
136538,-92.69699,6,1,0,80,0,0
136654,-92.221115,6,1,0,80,0,0
136770,214.285714285714,6,1,0,80,1,0
136770,-98.80956,6,1,0,80,0,0
136983,-97.875755,6,1,0,80,0,0
137090,-97.41218,6,1,0,80,0,0
137197,-96.95079,6,1,0,80,0,0
137304,-96.49158,6,1,0,80,0,0
137411,-96.03454,6,1,0,80,0,0
137626,-95.12275,6,1,0,80,0,0
137733,-94.672195,6,1,0,80,0,0
137840,-94.22379,6,1,0,80,0,0
137947,-93.777504,6,1,0,80,0,0
138055,200,6,1,0,80,1,0
138055,-100,6,1,0,80,0,0
139255,-100,3,1,0,80,0,1
146455,-100,3,1,0,80,0,0
148855,-100,3,1,0,80,0,1
149054,-99.527824,6,1,0,80,0,1
149154,-99.29257,6,1,0,80,0,1
149254,-99.057884,6,1,0,80,0,1
149354,-98.823746,6,1,0,80,0,1
149454,-98.590164,6,1,0,80,0,1
149654,-98.12464,6,1,0,80,0,1
149754,-97.892715,6,1,0,80,0,1
149854,-97.66133,6,1,0,80,0,1
149954,-97.43049,6,1,0,80,0,1
150055,189.873417721519,6,1,0,80,1,1
150055,-102.38422,6,1,0,80,0,1
150243,-101.927315,6,1,0,80,0,1
150338,-101.69842,6,1,0,80,0,1
150433,-101.47004,6,1,0,80,0,1
150528,-101.24219,6,1,0,80,0,1
150623,-101.01485,6,1,0,80,0,1
150813,-100.56167,6,1,0,80,0,1
150908,-100.33585,6,1,0,80,0,1
151003,-100.11053,6,1,0,80,0,1
151098,-99.88571,6,1,0,80,0,1
151194,181.818181818182,6,1,0,80,1,1
151194,-104.0768,6,1,0,80,0,1
151374,-103.631966,6,1,0,80,0,1
151465,-103.409035,6,1,0,80,0,1
151556,-103.186584,6,1,0,80,0,1
151647,-102.96462,6,1,0,80,0,1
151738,-102.74312,6,1,0,80,0,1
151920,-102.30157,6,1,0,80,0,1
152011,-102.0815,6,1,0,80,0,1
152102,-101.8619,6,1,0,80,0,1
152193,-101.64279,6,1,0,80,0,1
152284,171.428571428571,6,1,0,80,1,1
152284,-107.5736,6,1,0,80,0,1
152454,-107.13917,6,1,0,80,0,1
152540,-106.92134,6,1,0,80,0,1
152625,-106.70648,6,1,0,80,0,1
152711,-106.489555,6,1,0,80,0,1
152797,-106.27304,6,1,0,80,0,1
152968,-105.843864,6,1,0,80,0,1
153054,-105.628685,6,1,0,80,0,1
153140,-105.413925,6,1,0,80,0,1
153225,-105.202095,6,1,0,80,0,1
153311,-104.98821,6,1,0,80,0,1
153483,-104.56175,6,1,0,80,0,1
153568,-104.35164,6,1,0,80,0,1
153654,-104.139496,6,1,0,80,0,1
153740,-103.927765,6,1,0,80,0,1
153825,-103.718925,6,1,0,80,0,1
153911,-103.50806,6,1,0,80,0,1
153997,-103.297615,6,1,0,80,0,1
154083,-103.08761,6,1,0,80,0,1
154168,-102.88045,6,1,0,80,0,1
154254,-102.671295,6,1,0,80,0,1
154340,-102.46255,6,1,0,80,0,1
154425,-102.25666,6,1,0,80,0,1
154511,-102.04875,6,1,0,80,0,1
154597,-101.841286,6,1,0,80,0,1
154683,-101.63424,6,1,0,80,0,1
154768,-101.43,6,1,0,80,0,1
154854,-101.223785,6,1,0,80,0,1
154940,-101.018,6,1,0,80,0,1
155025,-100.81499,6,1,0,80,0,1
155111,-100.61003,6,1,0,80,0,1
155197,-100.40548,6,1,0,80,0,1
155283,-100.20135,6,1,0,80,0,1
155284,-100,3,1,0,80,0,0
155369,171.428571428571,6,1,0,50,1,8
155883,171.428571428571,6,1,0,50,1,8
155883,-166.666666666667,3,1,0,50,0,0

[HitObjects]
256,192,1029,5,8,0:0:0:0:
256,192,1617,1,0,0:0:0:0:
256,192,1734,1,0,0:0:0:0:
256,192,1970,1,0,0:0:0:0:
256,192,2087,1,8,0:0:0:0:
256,192,2440,1,8,0:0:0:0:
256,192,2793,1,8,0:0:0:0:
288,208,3146,1,0,0:0:0:0:
272,208,3499,1,8,0:0:0:0:
272,208,3852,1,8,0:0:0:0:
272,208,4205,1,8,0:0:0:0:
256,176,4793,1,8,0:0:0:0:
256,192,4911,1,8,0:0:0:0:
256,176,5146,1,8,0:0:0:0:
256,176,5264,1,0,0:0:0:0:
256,176,5499,1,0,0:0:0:0:
256,176,5617,1,8,0:0:0:0:
256,176,5852,1,0,0:0:0:0:
256,176,5970,1,8,0:0:0:0:
256,176,6087,1,8,0:0:0:0:
256,176,6205,1,0,0:0:0:0:
256,176,6323,1,8,0:0:0:0:
256,176,6676,1,8,0:0:0:0:
256,176,7028,1,8,0:0:0:0:
256,176,7381,1,0,0:0:0:0:
256,176,7734,1,8,0:0:0:0:
256,160,7970,1,8,0:0:0:0:
256,176,8087,1,8,0:0:0:0:
256,176,8323,1,0,0:0:0:0:
256,176,8440,1,8,0:0:0:0:
256,160,8793,1,0,0:0:0:0:
256,160,9028,1,0,0:0:0:0:
256,160,9146,1,8,0:0:0:0:
256,160,9499,1,0,0:0:0:0:
256,160,9852,1,8,0:0:0:0:
256,160,10087,1,8,0:0:0:0:
256,160,10205,1,8,0:0:0:0:
256,160,10440,1,8,0:0:0:0:
256,160,10558,1,0,0:0:0:0:
256,144,10793,1,0,0:0:0:0:
256,144,10911,1,8,0:0:0:0:
256,144,11028,1,8,0:0:0:0:
256,144,11146,1,0,0:0:0:0:
256,144,11264,1,8,0:0:0:0:
256,144,11499,1,8,0:0:0:0:
256,144,11617,1,0,0:0:0:0:
256,144,11836,1,0,0:0:0:0:
256,144,11946,1,8,0:0:0:0:
256,144,12166,1,8,0:0:0:0:
256,144,12276,1,8,0:0:0:0:
256,144,12496,1,0,0:0:0:0:
256,144,12605,1,8,0:0:0:0:
256,144,12707,1,0,0:0:0:0:
256,144,12810,1,0,0:0:0:0:
256,144,12912,1,8,0:0:0:0:
256,144,13117,1,0,0:0:0:0:
256,144,13220,1,8,0:0:0:0:
256,144,13425,1,0,0:0:0:0:
256,144,13528,1,8,0:0:0:0:
256,144,13623,1,8,0:0:0:0:
256,144,13718,1,0,0:0:0:0:
256,144,13813,1,8,0:0:0:0:
256,144,13956,1,0,0:0:0:0:
256,144,14099,1,8,0:0:0:0:
256,144,14194,1,0,0:0:0:0:
256,144,14289,1,0,0:0:0:0:
256,144,14385,1,8,0:0:0:0:
256,144,14528,1,0,0:0:0:0:
256,144,14670,1,8,0:0:0:0:
256,144,14813,1,0,0:0:0:0:
256,144,14956,1,8,0:0:0:0:
256,144,15099,1,0,0:0:0:0:
256,144,15242,1,8,0:0:0:0:
256,144,15375,1,8,0:0:0:0:
256,144,15508,1,0,0:0:0:0:
256,144,15642,1,0,0:0:0:0:
256,144,15775,1,8,0:0:0:0:
256,144,15908,1,0,0:0:0:0:
256,144,16042,1,8,0:0:0:0:
256,144,16108,1,8,0:0:0:0:
256,144,16175,1,8,0:0:0:0:
256,144,16242,1,0,0:0:0:0:
256,144,16308,1,8,0:0:0:0:
256,144,16375,1,8,0:0:0:0:
256,144,16442,1,0,0:0:0:0:
256,144,16508,1,0,0:0:0:0:
256,144,16575,1,8,0:0:0:0:
256,144,16642,1,0,0:0:0:0:
256,144,16708,1,8,0:0:0:0:
256,144,16775,1,8,0:0:0:0:
256,144,16842,1,4,0:0:0:0:
256,192,17089,1,8,0:0:0:0:
256,192,17213,1,0,0:0:0:0:
256,192,17337,1,8,0:0:0:0:
256,192,17461,1,8,0:0:0:0:
256,192,17585,1,0,0:0:0:0:
256,192,17709,1,0,0:0:0:0:
256,192,17771,1,0,0:0:0:0:
256,192,17833,1,8,0:0:0:0:
256,192,17957,1,0,0:0:0:0:
256,192,18081,1,8,0:0:0:0:
256,192,18205,1,8,0:0:0:0:
256,192,18267,1,8,0:0:0:0:
256,192,18329,1,0,0:0:0:0:
256,192,18577,1,8,0:0:0:0:
256,192,18701,1,0,0:0:0:0:
491,169,18763,1,0,0:0:0:0:
256,192,18825,1,8,0:0:0:0:
256,192,18949,1,0,0:0:0:0:
256,192,19073,1,8,0:0:0:0:
480,123,19197,1,8,0:0:0:0:
447,203,19259,1,8,0:0:0:0:
431,294,19321,1,8,0:0:0:0:
256,192,19445,1,0,0:0:0:0:
256,192,19569,1,8,0:0:0:0:
256,192,19693,1,8,0:0:0:0:
256,192,19817,1,0,0:0:0:0:
256,192,19941,1,0,0:0:0:0:
256,192,20065,1,8,0:0:0:0:
240,208,20189,1,0,0:0:0:0:
240,192,20313,1,8,0:0:0:0:
240,192,20395,1,8,0:0:0:0:
240,192,20478,1,0,0:0:0:0:
240,192,20561,1,8,0:0:0:0:
256,192,20684,1,8,0:0:0:0:
256,192,20746,1,8,0:0:0:0:
240,192,20808,1,8,0:0:0:0:
240,192,20932,1,0,0:0:0:0:
240,192,20994,1,8,0:0:0:0:
240,192,21056,1,8,0:0:0:0:
240,192,21180,1,8,0:0:0:0:
240,192,21304,1,0,0:0:0:0:
240,208,21428,1,0,0:0:0:0:
240,208,21490,1,0,0:0:0:0:
240,208,21552,1,8,0:0:0:0:
240,208,21676,1,0,0:0:0:0:
469,151,21738,1,0,0:0:0:0:
240,192,21800,1,8,0:0:0:0:
240,192,21924,1,8,0:0:0:0:
240,192,22048,1,0,0:0:0:0:
240,208,22172,1,8,0:0:0:0:
240,208,22234,1,8,0:0:0:0:
240,208,22296,1,0,0:0:0:0:
240,192,22420,1,0,0:0:0:0:
240,192,22544,1,8,0:0:0:0:
240,192,22668,1,8,0:0:0:0:
240,192,22730,1,8,0:0:0:0:
240,192,22792,1,4,0:0:0:0:
240,192,23040,1,0,0:0:0:0:
240,192,23164,1,8,0:0:0:0:
240,192,23288,1,8,0:0:0:0:
240,192,23412,1,8,0:0:0:0:
240,208,23536,1,0,0:0:0:0:
240,208,23660,1,0,0:0:0:0:
240,208,23722,1,0,0:0:0:0:
240,208,23784,1,8,0:0:0:0:
240,208,23908,1,0,0:0:0:0:
240,208,24032,1,8,0:0:0:0:
240,208,24156,1,8,0:0:0:0:
240,208,24280,1,0,0:0:0:0:
240,208,24527,1,8,0:0:0:0:
240,208,24589,1,8,0:0:0:0:
240,208,24651,1,0,0:0:0:0:
240,208,24713,1,0,0:0:0:0:
224,208,24775,1,8,0:0:0:0:
224,208,24899,1,8,0:0:0:0:
224,208,25023,1,0,0:0:0:0:
224,208,25147,1,8,0:0:0:0:
224,208,25209,1,8,0:0:0:0:
224,208,25271,1,8,0:0:0:0:
224,208,25395,1,0,0:0:0:0:
224,208,25519,1,8,0:0:0:0:
224,208,25643,1,8,0:0:0:0:
224,208,25767,1,0,0:0:0:0:
224,208,25891,1,8,0:0:0:0:
224,208,26015,1,8,0:0:0:0:
224,208,26139,1,0,0:0:0:0:
224,208,26263,1,8,0:0:0:0:
224,208,26346,1,8,0:0:0:0:
224,208,26428,1,0,0:0:0:0:
224,208,26511,1,8,0:0:0:0:
224,208,26635,1,0,0:0:0:0:
224,208,26697,1,0,0:0:0:0:
224,208,26759,1,8,0:0:0:0:
456,152,26883,1,0,0:0:0:0:
224,208,27007,1,8,0:0:0:0:
224,208,27131,1,8,0:0:0:0:
224,208,27255,1,0,0:0:0:0:
224,208,27503,1,8,0:0:0:0:
224,208,27565,1,8,0:0:0:0:
224,208,27627,1,0,0:0:0:0:
224,208,27689,1,0,0:0:0:0:
224,208,27751,1,8,0:0:0:0:
224,208,27875,1,0,0:0:0:0:
224,208,27999,1,8,0:0:0:0:
224,176,28061,1,8,0:0:0:0:
224,208,28122,1,8,0:0:0:0:
224,208,28184,1,0,0:0:0:0:
224,208,28246,1,8,0:0:0:0:
224,208,28370,1,0,0:0:0:0:
240,208,28494,1,8,0:0:0:0:
240,192,28618,1,8,0:0:0:0:
240,192,28742,1,4,0:0:0:0:
240,192,30230,1,8,0:0:0:0:
240,192,30478,1,0,0:0:0:0:
240,192,30602,1,8,0:0:0:0:
240,192,30726,1,0,0:0:0:0:
240,192,30850,1,0,0:0:0:0:
240,192,30974,1,8,0:0:0:0:
240,192,31222,1,8,0:0:0:0:
240,192,31470,1,0,0:0:0:0:
240,192,31594,1,0,0:0:0:0:
240,192,31718,1,12,0:0:0:0:
256,192,31965,1,8,0:0:0:0:
256,192,32089,1,0,0:0:0:0:
256,192,32213,1,8,0:0:0:0:
256,192,32337,1,0,0:0:0:0:
256,192,32461,1,0,0:0:0:0:
256,192,32585,1,0,0:0:0:0:
256,192,32647,1,0,0:0:0:0:
256,192,32709,1,8,0:0:0:0:
256,192,32833,1,8,0:0:0:0:
256,192,32957,1,0,0:0:0:0:
256,192,33081,1,0,0:0:0:0:
256,192,33205,1,8,0:0:0:0:
256,192,33453,1,0,0:0:0:0:
256,192,33515,1,8,0:0:0:0:
256,192,33577,1,8,0:0:0:0:
256,192,33701,1,0,0:0:0:0:
256,192,33825,1,0,0:0:0:0:
256,192,33949,1,8,0:0:0:0:
256,192,34073,1,0,0:0:0:0:
256,192,34135,1,8,0:0:0:0:
256,192,34197,1,0,0:0:0:0:
256,192,34259,1,0,0:0:0:0:
256,192,34321,1,8,0:0:0:0:
256,192,34445,1,8,0:0:0:0:
256,192,34569,1,0,0:0:0:0:
256,192,34693,1,12,0:0:0:0:
256,192,34941,1,0,0:0:0:0:
256,192,35065,1,0,0:0:0:0:
256,192,35189,1,8,0:0:0:0:
256,192,35313,1,8,0:0:0:0:
256,192,35437,1,0,0:0:0:0:
256,192,35561,1,0,0:0:0:0:
256,192,35622,1,0,0:0:0:0:
256,192,35684,1,8,0:0:0:0:
256,192,35808,1,0,0:0:0:0:
256,192,35932,1,8,0:0:0:0:
256,192,36056,1,8,0:0:0:0:
256,192,36180,1,0,0:0:0:0:
256,192,36304,1,0,0:0:0:0:
256,192,36428,1,8,0:0:0:0:
256,192,36552,1,0,0:0:0:0:
256,192,36614,1,0,0:0:0:0:
256,192,36676,1,8,0:0:0:0:
256,192,36800,1,0,0:0:0:0:
256,192,36924,1,8,0:0:0:0:
256,192,36986,1,8,0:0:0:0:
256,192,37048,1,0,0:0:0:0:
256,176,37110,1,0,0:0:0:0:
256,192,37172,1,8,0:0:0:0:
256,192,37296,1,8,0:0:0:0:
256,192,37420,1,0,0:0:0:0:
256,192,37544,1,0,0:0:0:0:
256,192,37668,1,8,0:0:0:0:
256,192,37916,1,0,0:0:0:0:
256,192,38040,1,8,0:0:0:0:
256,192,38164,1,8,0:0:0:0:
256,192,38288,1,8,0:0:0:0:
256,192,38412,1,0,0:0:0:0:
256,192,38536,1,8,0:0:0:0:
469,111,38598,1,8,0:0:0:0:
256,192,38660,1,8,0:0:0:0:
256,192,38784,1,0,0:0:0:0:
256,192,38908,1,8,0:0:0:0:
256,192,39032,1,8,0:0:0:0:
256,192,39094,1,8,0:0:0:0:
256,192,39156,1,0,0:0:0:0:
256,192,39280,1,0,0:0:0:0:
256,192,39342,1,0,0:0:0:0:
256,192,39403,1,8,0:0:0:0:
256,192,39527,1,0,0:0:0:0:
256,192,39651,1,8,0:0:0:0:
256,192,39775,1,8,0:0:0:0:
256,192,39899,1,0,0:0:0:0:
256,192,40147,1,8,0:0:0:0:
443,90,40271,1,0,0:0:0:0:
256,192,40395,1,8,0:0:0:0:
256,224,40437,1,0,0:0:0:0:
256,192,40478,1,0,0:0:0:0:
256,192,40519,1,8,0:0:0:0:
256,192,40643,1,4,0:0:0:0:
256,192,40891,1,8,0:0:0:0:
256,192,41015,1,0,0:0:0:0:
256,192,41139,1,8,0:0:0:0:
256,192,41263,1,0,0:0:0:0:
256,192,41387,1,0,0:0:0:0:
256,192,41449,1,0,0:0:0:0:
256,192,41511,1,0,0:0:0:0:
256,192,41635,1,8,0:0:0:0:
256,192,41759,1,0,0:0:0:0:
256,192,41883,1,8,0:0:0:0:
256,192,42007,1,8,0:0:0:0:
256,192,42131,1,0,0:0:0:0:
256,192,42379,1,8,0:0:0:0:
160,160,42441,1,8,0:0:0:0:
256,192,42503,1,0,0:0:0:0:
256,192,42627,1,8,0:0:0:0:
256,192,42751,1,8,0:0:0:0:
256,192,42875,1,8,0:0:0:0:
256,192,42999,1,0,0:0:0:0:
256,192,43061,1,0,0:0:0:0:
256,192,43122,1,0,0:0:0:0:
256,192,43246,1,8,0:0:0:0:
256,192,43370,1,0,0:0:0:0:
256,192,43432,1,0,0:0:0:0:
256,192,43494,1,0,0:0:0:0:
256,192,43618,1,8,0:0:0:0:
256,192,43866,1,8,0:0:0:0:
256,192,43990,1,0,0:0:0:0:
256,192,44114,1,8,0:0:0:0:
256,192,44238,1,8,0:0:0:0:
256,192,44362,1,0,0:0:0:0:
256,192,44486,1,0,0:0:0:0:
256,192,44548,1,0,0:0:0:0:
256,192,44610,1,8,0:0:0:0:
256,192,44734,1,0,0:0:0:0:
256,192,44796,1,0,0:0:0:0:
256,192,44858,1,8,0:0:0:0:
256,192,44920,1,0,0:0:0:0:
256,192,44982,1,8,0:0:0:0:
256,192,45106,1,0,0:0:0:0:
256,192,45354,1,8,0:0:0:0:
256,192,45478,1,0,0:0:0:0:
256,192,45602,1,8,0:0:0:0:
256,192,45664,1,8,0:0:0:0:
256,192,45726,1,0,0:0:0:0:
256,192,45850,1,0,0:0:0:0:
256,192,45974,1,0,0:0:0:0:
256,192,46098,1,8,0:0:0:0:
256,192,46222,1,0,0:0:0:0:
256,192,46346,1,0,0:0:0:0:
256,192,46470,1,8,0:0:0:0:
256,192,46594,1,4,0:0:0:0:
256,192,46842,1,8,0:0:0:0:
256,192,47089,1,8,0:0:0:0:
256,192,47337,1,0,0:0:0:0:
256,192,47461,1,0,0:0:0:0:
256,192,47523,1,0,0:0:0:0:
256,192,47585,1,8,0:0:0:0:
256,192,47709,1,0,0:0:0:0:
256,192,47833,1,8,0:0:0:0:
256,192,47895,1,8,0:0:0:0:
256,192,47957,1,0,0:0:0:0:
256,192,48081,1,0,0:0:0:0:
256,192,48205,1,0,0:0:0:0:
256,192,48329,1,8,0:0:0:0:
256,192,48453,1,0,0:0:0:0:
256,192,48515,1,0,0:0:0:0:
256,192,48577,1,8,0:0:0:0:
256,192,48639,1,0,0:0:0:0:
256,192,48701,1,8,0:0:0:0:
256,192,48825,1,0,0:0:0:0:
256,192,48949,1,0,0:0:0:0:
256,192,49011,1,0,0:0:0:0:
256,192,49073,1,8,0:0:0:0:
256,192,49135,1,0,0:0:0:0:
240,176,49197,1,0,0:0:0:0:
256,192,49321,1,8,0:0:0:0:
256,192,49445,1,8,0:0:0:0:
256,192,49569,1,0,0:0:0:0:
256,192,49817,1,8,0:0:0:0:
256,192,49941,1,0,0:0:0:0:
256,192,50003,1,8,0:0:0:0:
256,192,50065,1,8,0:0:0:0:
256,192,50189,1,0,0:0:0:0:
256,192,50313,1,8,0:0:0:0:
256,192,50437,1,0,0:0:0:0:
256,192,50499,1,0,0:0:0:0:
256,192,50561,1,0,0:0:0:0:
256,192,50684,1,8,0:0:0:0:
256,192,50808,1,0,0:0:0:0:
256,192,50870,1,8,0:0:0:0:
256,192,50932,1,0,0:0:0:0:
256,192,51056,1,0,0:0:0:0:
256,192,51304,1,0,0:0:0:0:
256,192,51428,1,8,0:0:0:0:
256,192,51552,1,8,0:0:0:0:
256,192,51676,1,0,0:0:0:0:
256,192,51800,1,0,0:0:0:0:
256,192,52048,1,8,0:0:0:0:
256,192,52296,1,8,0:0:0:0:
256,192,52544,1,4,0:0:0:0:
238,177,52916,1,8,0:0:0:0:
256,192,53288,1,12,0:0:0:0:
238,177,53660,1,8,0:0:0:0:
256,192,54032,1,4,0:0:0:0:
206,170,54280,1,0,0:0:0:0:
256,192,54527,1,4,0:0:0:0:
256,192,54775,1,12,0:0:0:0:
256,192,55147,1,4,0:0:0:0:
256,192,55519,1,4,0:0:0:0:
256,192,55891,1,0,0:0:0:0:
256,192,56015,1,8,0:0:0:0:
256,192,56139,1,0,0:0:0:0:
256,192,56263,1,12,0:0:0:0:
256,192,56511,1,4,0:0:0:0:
256,192,56635,1,8,0:0:0:0:
256,192,56759,1,4,0:0:0:0:
256,192,56883,1,0,0:0:0:0:
256,192,57007,1,12,0:0:0:0:
256,192,57131,1,4,0:0:0:0:
256,192,57379,1,4,0:0:0:0:
256,192,57503,1,4,0:0:0:0:
256,192,57751,1,12,0:0:0:0:
256,192,57999,1,12,0:0:0:0:
256,192,58246,1,4,0:0:0:0:
256,192,58494,1,4,0:0:0:0:
227,182,58866,1,8,0:0:0:0:
256,192,59238,1,12,0:0:0:0:
227,182,59610,1,8,0:0:0:0:
256,192,59982,1,4,0:0:0:0:
256,192,60230,1,4,0:0:0:0:
256,192,60478,1,4,0:0:0:0:
256,192,60726,1,12,0:0:0:0:
256,192,61098,1,4,0:0:0:0:
256,192,61222,1,8,0:0:0:0:
256,192,61346,1,8,0:0:0:0:
256,192,61470,1,4,0:0:0:0:
256,192,62213,1,12,0:0:0:0:
256,192,62461,1,4,0:0:0:0:
256,192,62709,1,4,0:0:0:0:
256,192,62957,1,12,0:0:0:0:
256,192,63081,1,4,0:0:0:0:
256,192,63329,1,4,0:0:0:0:
256,192,63453,1,4,0:0:0:0:
256,192,63701,1,12,0:0:0:0:
256,192,63949,1,4,0:0:0:0:
256,192,64073,1,8,0:0:0:0:
256,192,64197,1,4,0:0:0:0:
256,192,64321,1,0,0:0:0:0:
256,192,64445,1,12,0:0:0:0:
256,192,64693,1,0,0:0:0:0:
256,192,64755,1,0,0:0:0:0:
256,192,64817,1,0,0:0:0:0:
256,192,64941,1,8,0:0:0:0:
256,192,65065,1,0,0:0:0:0:
256,192,65189,1,12,0:0:0:0:
256,192,65437,1,0,0:0:0:0:
256,192,65478,1,0,0:0:0:0:
256,192,65519,1,0,0:0:0:0:
256,192,65561,1,0,0:0:0:0:
256,192,65684,1,8,0:0:0:0:
263,179,65808,1,8,0:0:0:0:
256,192,65932,1,4,0:0:0:0:
256,192,66180,1,0,0:0:0:0:
256,192,66304,1,8,0:0:0:0:
240,192,66428,1,8,0:0:0:0:
256,176,66552,1,0,0:0:0:0:
256,176,66676,1,12,0:0:0:0:
256,176,66800,1,8,0:0:0:0:
256,176,66924,1,8,0:0:0:0:
240,176,67048,1,4,0:0:0:0:
240,176,67172,1,8,0:0:0:0:
240,176,67296,1,8,0:0:0:0:
256,176,67420,1,4,0:0:0:0:
240,192,67916,1,8,0:0:0:0:
240,192,68040,1,0,0:0:0:0:
240,192,68164,1,12,0:0:0:0:
240,192,68288,1,8,0:0:0:0:
240,192,68412,1,4,0:0:0:0:
240,192,68536,1,0,0:0:0:0:
240,192,68660,1,12,0:0:0:0:
240,192,68784,1,0,0:0:0:0:
240,192,68908,1,4,0:0:0:0:
240,192,69032,1,4,0:0:0:0:
240,192,69280,1,4,0:0:0:0:
240,192,69403,1,4,0:0:0:0:
224,192,69651,1,12,0:0:0:0:
240,176,69775,1,8,0:0:0:0:
224,176,69899,1,4,0:0:0:0:
224,176,70023,1,8,0:0:0:0:
224,176,70147,1,12,0:0:0:0:
224,176,70271,1,0,0:0:0:0:
224,176,70395,1,12,0:0:0:0:
256,192,70643,1,0,0:0:0:0:
256,192,70705,1,0,0:0:0:0:
256,192,70767,1,0,0:0:0:0:
256,192,70891,1,8,0:0:0:0:
246,189,71015,1,0,0:0:0:0:
256,192,71139,1,12,0:0:0:0:
256,192,71387,1,0,0:0:0:0:
256,192,71428,1,0,0:0:0:0:
256,192,71470,1,0,0:0:0:0:
256,192,71511,1,0,0:0:0:0:
256,192,71635,1,8,0:0:0:0:
241,165,71759,1,8,0:0:0:0:
256,176,71883,1,4,0:0:0:0:
240,176,72007,1,0,0:0:0:0:
240,192,72131,1,8,0:0:0:0:
240,192,72193,1,8,0:0:0:0:
240,192,72255,1,0,0:0:0:0:
240,192,72379,1,8,0:0:0:0:
240,176,72503,1,0,0:0:0:0:
240,176,72627,1,12,0:0:0:0:
240,176,72751,1,8,0:0:0:0:
240,176,72875,1,8,0:0:0:0:
240,176,72999,1,4,0:0:0:0:
240,176,73122,1,8,0:0:0:0:
240,176,73246,1,8,0:0:0:0:
240,176,73370,1,4,0:0:0:0:
240,176,73640,1,0,0:0:0:0:
224,176,73910,1,8,0:0:0:0:
224,176,73978,1,8,0:0:0:0:
224,176,74045,1,0,0:0:0:0:
226,145,74113,1,0,0:0:0:0:
224,176,74180,1,8,0:0:0:0:
233,172,74315,1,8,0:0:0:0:
223,175,74383,1,8,0:0:0:0:
224,176,74451,1,0,0:0:0:0:
240,176,74721,1,0,0:0:0:0:
240,176,74991,1,0,0:0:0:0:
240,176,75135,1,8,0:0:0:0:
240,176,75279,1,8,0:0:0:0:
240,176,75423,1,0,0:0:0:0:
239,169,75495,1,0,0:0:0:0:
240,176,75567,1,8,0:0:0:0:
240,176,75712,1,8,0:0:0:0:
256,176,75856,1,0,0:0:0:0:
256,176,76000,1,0,0:0:0:0:
256,176,76144,1,8,0:0:0:0:
256,176,76289,1,0,0:0:0:0:
256,176,76433,1,8,0:0:0:0:
256,176,76577,1,8,0:0:0:0:
256,176,76721,1,8,0:0:0:0:
256,192,77252,1,0,0:0:0:0:
256,192,77359,1,0,0:0:0:0:
256,192,77572,1,0,0:0:0:0:
256,192,77678,1,8,0:0:0:0:
256,192,77997,1,8,0:0:0:0:
256,192,78316,1,8,0:0:0:0:
288,208,78635,1,0,0:0:0:0:
272,208,78955,1,8,0:0:0:0:
272,208,79274,1,8,0:0:0:0:
272,208,79593,1,8,0:0:0:0:
256,208,79912,1,0,0:0:0:0:
256,176,80125,1,8,0:0:0:0:
256,192,80231,1,8,0:0:0:0:
256,176,80444,1,8,0:0:0:0:
256,176,80550,1,0,0:0:0:0:
256,176,80763,1,0,0:0:0:0:
256,176,80869,1,8,0:0:0:0:
256,176,81082,1,0,0:0:0:0:
256,176,81189,1,8,0:0:0:0:
256,176,81295,1,8,0:0:0:0:
256,176,81401,1,0,0:0:0:0:
256,176,81508,1,8,0:0:0:0:
256,176,81827,1,8,0:0:0:0:
256,176,82146,1,8,0:0:0:0:
256,176,82465,1,0,0:0:0:0:
256,176,82784,1,8,0:0:0:0:
256,160,82997,1,8,0:0:0:0:
256,176,83103,1,8,0:0:0:0:
256,176,83316,1,0,0:0:0:0:
256,176,83423,1,8,0:0:0:0:
256,160,83742,1,0,0:0:0:0:
424,129,83901,1,0,0:0:0:0:
256,160,84061,1,8,0:0:0:0:
256,160,84380,1,0,0:0:0:0:
256,160,84680,1,8,0:0:0:0:
256,160,84880,1,8,0:0:0:0:
256,160,84980,1,8,0:0:0:0:
256,160,85180,1,8,0:0:0:0:
256,160,85280,1,0,0:0:0:0:
256,144,85480,1,0,0:0:0:0:
256,144,85580,1,8,0:0:0:0:
256,144,85680,1,8,0:0:0:0:
256,144,85780,1,0,0:0:0:0:
256,144,85880,1,8,0:0:0:0:
256,144,86080,1,8,0:0:0:0:
256,144,86180,1,0,0:0:0:0:
256,144,86363,1,0,0:0:0:0:
256,144,86455,1,8,0:0:0:0:
256,144,86638,1,8,0:0:0:0:
256,144,86730,1,8,0:0:0:0:
256,144,86913,1,0,0:0:0:0:
256,144,87005,1,8,0:0:0:0:
256,144,87097,1,0,0:0:0:0:
256,144,87189,1,0,0:0:0:0:
256,144,87280,1,8,0:0:0:0:
256,144,87464,1,0,0:0:0:0:
256,144,87556,1,8,0:0:0:0:
256,144,87739,1,0,0:0:0:0:
256,144,87831,1,8,0:0:0:0:
256,144,87913,1,8,0:0:0:0:
256,144,87996,1,0,0:0:0:0:
256,144,88078,1,8,0:0:0:0:
256,144,88202,1,0,0:0:0:0:
256,144,88326,1,8,0:0:0:0:
256,144,88409,1,0,0:0:0:0:
256,144,88492,1,0,0:0:0:0:
256,144,88574,1,8,0:0:0:0:
421,57,88698,1,0,0:0:0:0:
256,144,88822,1,8,0:0:0:0:
256,144,88946,1,8,0:0:0:0:
256,144,89070,1,0,0:0:0:0:
256,144,89194,1,8,0:0:0:0:
256,144,89318,1,0,0:0:0:0:
256,144,89442,1,8,0:0:0:0:
256,144,89566,1,0,0:0:0:0:
256,144,89690,1,0,0:0:0:0:
256,144,89814,1,8,0:0:0:0:
256,144,89938,1,0,0:0:0:0:
256,144,90062,1,8,0:0:0:0:
256,144,90124,1,8,0:0:0:0:
256,144,90186,1,8,0:0:0:0:
256,144,90248,1,0,0:0:0:0:
256,144,90310,1,8,0:0:0:0:
256,144,90372,1,8,0:0:0:0:
256,144,90434,1,0,0:0:0:0:
256,144,90496,1,0,0:0:0:0:
256,144,90558,1,8,0:0:0:0:
256,144,90620,1,0,0:0:0:0:
256,144,90682,1,8,0:0:0:0:
256,144,90744,1,8,0:0:0:0:
256,144,90806,1,4,0:0:0:0:
256,144,91054,1,0,0:0:0:0:
256,144,91178,1,8,0:0:0:0:
256,144,91302,1,8,0:0:0:0:
256,144,91426,1,0,0:0:0:0:
256,144,91550,1,0,0:0:0:0:
256,144,91611,1,0,0:0:0:0:
256,144,91673,1,8,0:0:0:0:
256,144,91735,1,8,0:0:0:0:
272,144,91797,1,8,0:0:0:0:
256,144,91921,1,8,0:0:0:0:
256,144,92045,1,0,0:0:0:0:
256,144,92169,1,8,0:0:0:0:
256,128,92231,1,8,0:0:0:0:
256,144,92293,1,0,0:0:0:0:
256,144,92541,1,8,0:0:0:0:
256,144,92665,1,0,0:0:0:0:
256,144,92789,1,8,0:0:0:0:
256,144,92851,1,8,0:0:0:0:
256,144,92913,1,0,0:0:0:0:
256,144,92975,1,0,0:0:0:0:
256,144,93037,1,8,0:0:0:0:
256,144,93161,1,0,0:0:0:0:
256,144,93223,1,8,0:0:0:0:
256,144,93285,1,8,0:0:0:0:
256,144,93347,1,8,0:0:0:0:
256,144,93409,1,0,0:0:0:0:
256,144,93533,1,8,0:0:0:0:
224,128,93595,1,8,0:0:0:0:
256,144,93657,1,0,0:0:0:0:
256,144,93781,1,8,0:0:0:0:
256,144,93843,1,8,0:0:0:0:
256,144,93905,1,0,0:0:0:0:
256,144,93967,1,0,0:0:0:0:
256,144,94029,1,0,0:0:0:0:
256,144,94153,1,0,0:0:0:0:
256,144,94277,1,8,0:0:0:0:
256,144,94359,1,8,0:0:0:0:
256,144,94442,1,0,0:0:0:0:
256,144,94525,1,8,0:0:0:0:
256,144,94649,1,0,0:0:0:0:
240,144,94711,1,8,0:0:0:0:
256,144,94773,1,8,0:0:0:0:
256,144,95021,1,8,0:0:0:0:
256,144,95145,1,0,0:0:0:0:
256,144,95207,1,0,0:0:0:0:
256,144,95269,1,8,0:0:0:0:
256,144,95392,1,0,0:0:0:0:
256,144,95516,1,8,0:0:0:0:
256,144,95640,1,0,0:0:0:0:
256,144,95702,1,0,0:0:0:0:
256,144,95764,1,8,0:0:0:0:
256,144,95826,1,0,0:0:0:0:
256,144,95888,1,8,0:0:0:0:
256,144,96012,1,8,0:0:0:0:
256,144,96136,1,0,0:0:0:0:
256,144,96260,1,8,0:0:0:0:
256,144,96322,1,8,0:0:0:0:
253,149,96384,1,0,0:0:0:0:
256,151,96508,1,0,0:0:0:0:
256,151,96632,1,8,0:0:0:0:
247,142,96756,1,4,0:0:0:0:
247,149,97004,1,8,0:0:0:0:
240,144,97066,1,8,0:0:0:0:
240,144,97128,1,0,0:0:0:0:
240,144,97190,1,8,0:0:0:0:
240,144,97252,1,8,0:0:0:0:
240,144,97376,1,0,0:0:0:0:
240,144,97500,1,8,0:0:0:0:
240,144,97624,1,8,0:0:0:0:
240,144,97748,1,0,0:0:0:0:
240,144,97810,1,0,0:0:0:0:
240,144,97872,1,8,0:0:0:0:
240,144,97996,1,8,0:0:0:0:
240,144,98120,1,0,0:0:0:0:
240,144,98244,1,8,0:0:0:0:
240,144,98368,1,0,0:0:0:0:
240,144,98492,1,8,0:0:0:0:
240,144,98554,1,8,0:0:0:0:
240,144,98616,1,0,0:0:0:0:
240,144,98678,1,0,0:0:0:0:
240,144,98740,1,8,0:0:0:0:
240,144,98864,1,8,0:0:0:0:
240,144,98988,1,4,0:0:0:0:
240,144,99235,1,8,0:0:0:0:
240,144,99359,1,0,0:0:0:0:
240,144,99421,1,0,0:0:0:0:
240,144,99483,1,8,0:0:0:0:
240,144,99545,1,0,0:0:0:0:
240,144,99607,1,0,0:0:0:0:
240,160,99731,1,8,0:0:0:0:
240,144,99855,1,0,0:0:0:0:
240,144,99979,1,8,0:0:0:0:
240,144,100041,1,8,0:0:0:0:
240,144,100103,1,0,0:0:0:0:
240,144,100227,1,8,0:0:0:0:
240,160,100310,1,8,0:0:0:0:
240,160,100392,1,0,0:0:0:0:
240,160,100475,1,8,0:0:0:0:
240,160,100599,1,0,0:0:0:0:
448,119,100661,1,0,0:0:0:0:
240,160,100723,1,8,0:0:0:0:
240,160,100847,1,0,0:0:0:0:
240,160,100971,1,8,0:0:0:0:
240,176,101095,1,0,0:0:0:0:
240,160,101219,1,8,0:0:0:0:
240,160,101343,1,0,0:0:0:0:
240,160,101405,1,0,0:0:0:0:
240,160,101467,1,8,0:0:0:0:
240,176,101591,1,8,0:0:0:0:
240,176,101715,1,0,0:0:0:0:
240,176,101839,1,0,0:0:0:0:
240,176,101963,1,8,0:0:0:0:
240,176,102087,1,0,0:0:0:0:
240,176,102149,1,0,0:0:0:0:
240,176,102211,1,8,0:0:0:0:
240,176,102335,1,0,0:0:0:0:
240,176,102459,1,8,0:0:0:0:
240,176,102583,1,8,0:0:0:0:
240,176,102707,1,0,0:0:0:0:
240,176,102831,1,8,0:0:0:0:
235,156,102954,1,0,0:0:0:0:
240,176,103078,1,8,0:0:0:0:
224,160,103202,1,0,0:0:0:0:
240,176,103326,1,8,0:0:0:0:
240,176,103450,1,0,0:0:0:0:
240,176,103574,1,8,0:0:0:0:
240,176,103698,1,0,0:0:0:0:
240,176,103822,1,8,0:0:0:0:
240,176,103946,1,8,0:0:0:0:
240,176,104070,1,8,0:0:0:0:
240,176,104194,1,0,0:0:0:0:
240,192,106426,1,0,0:0:0:0:
240,192,106550,1,8,0:0:0:0:
240,192,106673,1,0,0:0:0:0:
240,192,106735,1,0,0:0:0:0:
240,192,106797,1,0,0:0:0:0:
240,192,106921,1,8,0:0:0:0:
240,192,107045,1,8,0:0:0:0:
240,176,107169,1,4,0:0:0:0:
240,144,107293,1,8,0:0:0:0:
240,144,107417,1,0,0:0:0:0:
240,144,107541,1,0,0:0:0:0:
240,160,107665,1,8,0:0:0:0:
224,160,107727,1,8,0:0:0:0:
224,160,107789,1,0,0:0:0:0:
224,160,107851,1,0,0:0:0:0:
224,160,107913,1,0,0:0:0:0:
240,144,108037,1,8,0:0:0:0:
240,144,108099,1,0,0:0:0:0:
240,144,108161,1,8,0:0:0:0:
240,144,108223,1,8,0:0:0:0:
240,144,108285,1,0,0:0:0:0:
240,144,108409,1,8,0:0:0:0:
240,144,108533,1,8,0:0:0:0:
240,144,108657,1,0,0:0:0:0:
240,144,108719,1,0,0:0:0:0:
240,144,108781,1,0,0:0:0:0:
240,144,108905,1,8,0:0:0:0:
240,144,109029,1,0,0:0:0:0:
240,144,109153,1,8,0:0:0:0:
240,144,109215,1,8,0:0:0:0:
240,128,109277,1,8,0:0:0:0:
240,144,109339,1,8,0:0:0:0:
240,144,109401,1,0,0:0:0:0:
240,128,109525,1,0,0:0:0:0:
240,128,109587,1,0,0:0:0:0:
240,128,109649,1,8,0:0:0:0:
240,128,109773,1,0,0:0:0:0:
240,128,109897,1,8,0:0:0:0:
240,128,109959,1,0,0:0:0:0:
240,128,110021,1,8,0:0:0:0:
240,128,110083,1,8,0:0:0:0:
240,128,110145,1,0,0:0:0:0:
256,144,110392,1,8,0:0:0:0:
256,144,110516,1,0,0:0:0:0:
256,144,110578,1,0,0:0:0:0:
256,144,110640,1,0,0:0:0:0:
256,144,110764,1,8,0:0:0:0:
256,144,110888,1,8,0:0:0:0:
240,144,110950,1,8,0:0:0:0:
240,144,111012,1,8,0:0:0:0:
240,144,111074,1,0,0:0:0:0:
240,144,111136,1,8,0:0:0:0:
224,160,111260,1,0,0:0:0:0:
224,160,111322,1,0,0:0:0:0:
224,160,111384,1,8,0:0:0:0:
208,144,111446,1,0,0:0:0:0:
208,144,111508,1,8,0:0:0:0:
224,160,111632,1,8,0:0:0:0:
224,160,111756,1,0,0:0:0:0:
228,151,111818,1,0,0:0:0:0:
224,160,111880,1,8,0:0:0:0:
224,160,111942,1,8,0:0:0:0:
224,160,112004,1,0,0:0:0:0:
228,151,112066,1,0,0:0:0:0:
240,160,112128,1,8,0:0:0:0:
240,160,112190,1,0,0:0:0:0:
240,160,112252,1,0,0:0:0:0:
226,150,112314,1,0,0:0:0:0:
233,150,112376,1,8,0:0:0:0:
208,176,112500,1,0,0:0:0:0:
208,176,112624,1,8,0:0:0:0:
208,176,112686,1,8,0:0:0:0:
208,176,112748,1,0,0:0:0:0:
455,121,112810,1,0,0:0:0:0:
208,176,112872,1,8,0:0:0:0:
257,180,112996,1,8,0:0:0:0:
208,176,113120,1,0,0:0:0:0:
208,176,113244,1,0,0:0:0:0:
208,176,113368,1,8,0:0:0:0:
224,176,113492,1,0,0:0:0:0:
224,144,113616,1,8,0:0:0:0:
224,160,113698,1,8,0:0:0:0:
221,157,113781,1,0,0:0:0:0:
240,160,113864,1,8,0:0:0:0:
240,160,113988,1,0,0:0:0:0:
240,176,114111,1,8,0:0:0:0:
240,176,114235,1,8,0:0:0:0:
224,176,114359,1,0,0:0:0:0:
224,176,114421,1,0,0:0:0:0:
224,176,114483,1,8,0:0:0:0:
224,176,114545,1,8,0:0:0:0:
224,176,114607,1,0,0:0:0:0:
240,208,114731,1,8,0:0:0:0:
240,208,114855,1,0,0:0:0:0:
240,208,114979,1,0,0:0:0:0:
240,208,115103,1,8,0:0:0:0:
240,208,115227,1,8,0:0:0:0:
240,208,115351,1,0,0:0:0:0:
240,208,115413,1,0,0:0:0:0:
240,208,115475,1,0,0:0:0:0:
240,208,115599,1,0,0:0:0:0:
240,208,115723,1,8,0:0:0:0:
240,192,115847,1,8,0:0:0:0:
240,192,115909,1,0,0:0:0:0:
240,192,115971,1,0,0:0:0:0:
240,192,116033,1,0,0:0:0:0:
240,192,116095,1,8,0:0:0:0:
224,176,116343,1,4,0:0:0:0:
208,176,116467,1,8,0:0:0:0:
208,176,116591,1,0,0:0:0:0:
208,176,116715,1,8,0:0:0:0:
208,160,116839,1,0,0:0:0:0:
208,160,116963,1,0,0:0:0:0:
208,160,117025,1,0,0:0:0:0:
208,176,117087,1,8,0:0:0:0:
208,160,117211,1,0,0:0:0:0:
208,160,117273,1,0,0:0:0:0:
208,160,117335,1,8,0:0:0:0:
208,160,117397,1,0,0:0:0:0:
208,160,117459,1,8,0:0:0:0:
208,160,117583,1,8,0:0:0:0:
208,176,117645,1,8,0:0:0:0:
208,176,117707,1,8,0:0:0:0:
208,176,117831,1,8,0:0:0:0:
208,160,117954,1,0,0:0:0:0:
208,160,118016,1,8,0:0:0:0:
208,160,118078,1,8,0:0:0:0:
208,160,118202,1,0,0:0:0:0:
208,160,118326,1,8,0:0:0:0:
224,144,118450,1,0,0:0:0:0:
224,160,118512,1,8,0:0:0:0:
224,144,118574,1,8,0:0:0:0:
224,144,118636,1,0,0:0:0:0:
224,144,118698,1,8,0:0:0:0:
224,144,118822,1,0,0:0:0:0:
224,144,118946,1,0,0:0:0:0:
224,144,119070,1,8,0:0:0:0:
224,160,119194,1,8,0:0:0:0:
240,176,119318,1,0,0:0:0:0:
256,176,119442,1,8,0:0:0:0:
256,176,119566,1,0,0:0:0:0:
256,176,119690,1,8,0:0:0:0:
256,176,119814,1,0,0:0:0:0:
240,144,119876,1,8,0:0:0:0:
256,160,119938,1,0,0:0:0:0:
486,90,120000,1,8,0:0:0:0:
256,160,120062,1,0,0:0:0:0:
256,160,120186,1,8,0:0:0:0:
240,160,120248,1,8,0:0:0:0:
256,160,120310,1,0,0:0:0:0:
484,162,120372,1,0,0:0:0:0:
256,160,120434,1,8,0:0:0:0:
256,160,120558,1,8,0:0:0:0:
256,160,120682,1,0,0:0:0:0:
256,160,120806,1,8,0:0:0:0:
240,160,120930,1,0,0:0:0:0:
256,160,121054,1,8,0:0:0:0:
256,160,121116,1,0,0:0:0:0:
256,160,121178,1,0,0:0:0:0:
256,160,121240,1,8,0:0:0:0:
256,160,121302,1,0,0:0:0:0:
240,160,121426,1,8,0:0:0:0:
240,160,121550,1,8,0:0:0:0:
224,160,121673,1,0,0:0:0:0:
224,160,121735,1,0,0:0:0:0:
224,160,121797,1,8,0:0:0:0:
224,160,121859,1,0,0:0:0:0:
224,160,121921,1,8,0:0:0:0:
224,160,122045,1,0,0:0:0:0:
208,160,122293,1,8,0:0:0:0:
224,160,122355,1,8,0:0:0:0:
224,160,122417,1,0,0:0:0:0:
224,160,122479,1,8,0:0:0:0:
224,160,122541,1,8,0:0:0:0:
224,160,122665,1,0,0:0:0:0:
224,160,122789,1,0,0:0:0:0:
224,160,122913,1,8,0:0:0:0:
224,160,123037,1,8,0:0:0:0:
224,160,123161,1,0,0:0:0:0:
224,160,123285,1,8,0:0:0:0:
224,160,123409,1,8,0:0:0:0:
224,160,123533,1,0,0:0:0:0:
224,160,123657,1,8,0:0:0:0:
224,160,123719,1,8,0:0:0:0:
224,160,123781,1,0,0:0:0:0:
500,186,123843,1,0,0:0:0:0:
224,160,123905,1,8,0:0:0:0:
224,160,123967,1,8,0:0:0:0:
224,160,124029,1,0,0:0:0:0:
228,151,124091,1,0,0:0:0:0:
240,160,124153,1,8,0:0:0:0:
240,160,124215,1,8,0:0:0:0:
240,160,124277,1,8,0:0:0:0:
224,160,124401,1,0,0:0:0:0:
224,160,124525,1,8,0:0:0:0:
224,160,124649,1,0,0:0:0:0:
224,160,124711,1,0,0:0:0:0:
224,160,124773,1,8,0:0:0:0:
224,160,124835,1,0,0:0:0:0:
224,160,124897,1,8,0:0:0:0:
224,160,125021,1,8,0:0:0:0:
224,160,125083,1,8,0:0:0:0:
224,160,125145,1,8,0:0:0:0:
224,160,125207,1,0,0:0:0:0:
224,160,125269,1,8,0:0:0:0:
113,158,125331,1,8,0:0:0:0:
224,144,125392,1,0,0:0:0:0:
224,144,125516,1,8,0:0:0:0:
224,144,125599,1,0,0:0:0:0:
224,144,125682,1,0,0:0:0:0:
224,144,125764,1,8,0:0:0:0:
224,144,125826,1,8,0:0:0:0:
224,144,125888,1,8,0:0:0:0:
224,144,125950,1,8,0:0:0:0:
224,144,126012,1,0,0:0:0:0:
208,160,126136,1,0,0:0:0:0:
208,160,126260,1,8,0:0:0:0:
208,160,126384,1,0,0:0:0:0:
224,160,126508,1,8,0:0:0:0:
224,160,126632,1,0,0:0:0:0:
208,160,126756,1,8,0:0:0:0:
208,160,126880,1,0,0:0:0:0:
208,160,127004,1,8,0:0:0:0:
208,160,127128,1,0,0:0:0:0:
224,160,127252,1,8,0:0:0:0:
224,160,127376,1,8,0:0:0:0:
224,160,127438,1,8,0:0:0:0:
224,160,127500,1,0,0:0:0:0:
224,160,127624,1,0,0:0:0:0:
224,160,127748,1,8,0:0:0:0:
224,160,127872,1,0,0:0:0:0:
224,160,127934,1,0,0:0:0:0:
224,160,127996,1,12,0:0:0:0:
208,160,128244,1,0,0:0:0:0:
208,160,128492,1,0,0:0:0:0:
208,160,128740,1,8,0:0:0:0:
208,160,128988,1,0,0:0:0:0:
208,160,129235,1,0,0:0:0:0:
208,160,129483,1,0,0:0:0:0:
208,160,129731,1,8,0:0:0:0:
208,160,129979,1,8,0:0:0:0:
208,160,130227,1,0,0:0:0:0:
208,160,130475,1,0,0:0:0:0:
208,160,130723,1,8,0:0:0:0:
208,160,130971,1,8,0:0:0:0:
208,160,131219,1,0,0:0:0:0:
208,160,131467,1,8,0:0:0:0:
208,160,131715,1,0,0:0:0:0:
208,160,131963,1,0,0:0:0:0:
208,160,132211,1,8,0:0:0:0:
208,160,132459,1,0,0:0:0:0:
208,160,132707,1,8,0:0:0:0:
208,160,132954,1,8,0:0:0:0:
208,160,133202,1,8,0:0:0:0:
208,160,133450,1,0,0:0:0:0:
208,160,133698,1,0,0:0:0:0:
208,160,133946,1,8,0:0:0:0:
208,176,134186,1,8,0:0:0:0:
208,176,134306,1,8,0:0:0:0:
208,176,134426,1,0,0:0:0:0:
208,176,134546,1,0,0:0:0:0:
208,176,134666,1,8,0:0:0:0:
208,176,134906,1,0,0:0:0:0:
208,176,135026,1,8,0:0:0:0:
208,176,135146,1,0,0:0:0:0:
208,176,135266,1,0,0:0:0:0:
208,176,135386,1,8,0:0:0:0:
208,176,135616,1,8,0:0:0:0:
208,176,135732,1,8,0:0:0:0:
208,176,135847,1,0,0:0:0:0:
208,176,135962,1,8,0:0:0:0:
208,176,136078,1,8,0:0:0:0:
208,176,136309,1,0,0:0:0:0:
208,176,136424,1,8,0:0:0:0:
208,176,136539,1,0,0:0:0:0:
208,176,136655,1,0,0:0:0:0:
208,176,136770,1,8,0:0:0:0:
208,176,136984,1,0,0:0:0:0:
208,176,137091,1,0,0:0:0:0:
208,176,137198,1,8,0:0:0:0:
208,176,137305,1,0,0:0:0:0:
208,176,137412,1,8,0:0:0:0:
208,176,137627,1,8,0:0:0:0:
208,176,137734,1,8,0:0:0:0:
224,192,137841,1,0,0:0:0:0:
208,176,137948,1,0,0:0:0:0:
208,176,138055,1,8,0:0:0:0:
208,160,138255,1,0,0:0:0:0:
208,176,138355,1,0,0:0:0:0:
208,176,138455,1,8,0:0:0:0:
208,176,138555,1,0,0:0:0:0:
208,160,138655,1,8,0:0:0:0:
208,160,138855,1,8,0:0:0:0:
208,160,138955,1,8,0:0:0:0:
208,144,139055,1,0,0:0:0:0:
208,160,139155,1,8,0:0:0:0:
208,160,139255,1,12,0:0:0:0:
208,160,139455,1,0,0:0:0:0:
208,160,139555,1,0,0:0:0:0:
208,160,139655,1,8,0:0:0:0:
224,160,139755,1,0,0:0:0:0:
224,176,139855,1,8,0:0:0:0:
192,176,139905,1,0,0:0:0:0:
208,192,139955,1,8,0:0:0:0:
192,192,140005,1,8,0:0:0:0:
192,192,140055,1,0,0:0:0:0:
192,192,140155,1,0,0:0:0:0:
192,192,140255,1,8,0:0:0:0:
192,176,140355,1,0,0:0:0:0:
192,176,140405,1,0,0:0:0:0:
192,176,140455,1,8,0:0:0:0:
192,176,140555,1,0,0:0:0:0:
192,176,140605,1,0,0:0:0:0:
192,176,140655,1,8,0:0:0:0:
191,182,140705,1,8,0:0:0:0:
192,176,140755,1,0,0:0:0:0:
192,176,140805,1,0,0:0:0:0:
192,176,140855,1,8,0:0:0:0:
192,160,140955,1,0,0:0:0:0:
192,160,141055,1,8,0:0:0:0:
192,160,141155,1,0,0:0:0:0:
192,160,141205,1,0,0:0:0:0:
192,160,141255,1,8,0:0:0:0:
192,160,141355,1,0,0:0:0:0:
192,160,141455,1,8,0:0:0:0:
192,160,141555,1,8,0:0:0:0:
192,160,141655,1,0,0:0:0:0:
192,160,141855,1,8,0:0:0:0:
192,160,141955,1,8,0:0:0:0:
192,160,142055,1,0,0:0:0:0:
192,160,142105,1,0,0:0:0:0:
192,160,142155,1,0,0:0:0:0:
208,160,142205,1,0,0:0:0:0:
192,160,142255,1,8,0:0:0:0:
192,160,142355,1,8,0:0:0:0:
192,160,142455,1,0,0:0:0:0:
192,160,142505,1,0,0:0:0:0:
192,160,142555,1,8,0:0:0:0:
192,160,142605,1,8,0:0:0:0:
192,160,142655,1,0,0:0:0:0:
192,160,142755,1,0,0:0:0:0:
192,160,142855,1,8,0:0:0:0:
208,160,143055,1,8,0:0:0:0:
192,160,143155,1,0,0:0:0:0:
208,160,143255,1,8,0:0:0:0:
208,160,143305,1,8,0:0:0:0:
208,160,143355,1,0,0:0:0:0:
224,176,143405,1,0,0:0:0:0:
208,160,143455,1,8,0:0:0:0:
208,128,143555,1,0,0:0:0:0:
208,176,143655,1,8,0:0:0:0:
208,176,143755,1,8,0:0:0:0:
208,176,143855,1,0,0:0:0:0:
208,176,143955,1,0,0:0:0:0:
208,176,144055,1,8,0:0:0:0:
224,176,144121,1,8,0:0:0:0:
224,176,144188,1,0,0:0:0:0:
224,176,144255,1,8,0:0:0:0:
224,176,144321,1,8,0:0:0:0:
224,176,144388,1,0,0:0:0:0:
224,176,144455,1,8,0:0:0:0:
224,176,144521,1,0,0:0:0:0:
224,176,144588,1,0,0:0:0:0:
224,176,144655,1,8,0:0:0:0:
224,176,144755,1,0,0:0:0:0:
224,176,144855,1,8,0:0:0:0:
224,176,144921,1,8,0:0:0:0:
224,176,144988,1,0,0:0:0:0:
224,176,145055,1,0,0:0:0:0:
224,176,145155,1,0,0:0:0:0:
224,176,145255,1,8,0:0:0:0:
240,176,145321,1,0,0:0:0:0:
208,176,145388,1,0,0:0:0:0:
224,176,145455,1,8,0:0:0:0:
224,176,145521,1,0,0:0:0:0:
224,176,145588,1,0,0:0:0:0:
224,176,145655,1,8,0:0:0:0:
224,176,145721,1,0,0:0:0:0:
224,176,145788,1,8,0:0:0:0:
224,160,145855,1,8,0:0:0:0:
208,176,145955,1,0,0:0:0:0:
208,176,146055,1,8,0:0:0:0:
208,176,146155,1,8,0:0:0:0:
208,176,146255,1,0,0:0:0:0:
224,176,146355,1,0,0:0:0:0:
224,176,146455,1,8,0:0:0:0:
224,176,146521,1,8,0:0:0:0:
224,176,146588,1,0,0:0:0:0:
224,176,146655,1,8,0:0:0:0:
224,176,146721,1,8,0:0:0:0:
224,176,146788,1,0,0:0:0:0:
224,176,146855,1,8,0:0:0:0:
224,176,146921,1,0,0:0:0:0:
224,176,146988,1,0,0:0:0:0:
224,176,147055,1,8,0:0:0:0:
240,176,147255,1,0,0:0:0:0:
224,176,147455,1,8,0:0:0:0:
224,176,147655,1,0,0:0:0:0:
224,176,147855,1,8,0:0:0:0:
224,192,148055,1,8,0:0:0:0:
224,192,148255,1,0,0:0:0:0:
221,192,148355,1,0,0:0:0:0:
224,192,148455,1,8,0:0:0:0:
221,192,148555,1,0,0:0:0:0:
224,192,148655,1,8,0:0:0:0:
221,192,148755,1,8,0:0:0:0:
224,208,148855,1,0,0:0:0:0:
224,208,149055,1,0,0:0:0:0:
224,208,149155,1,8,0:0:0:0:
224,208,149255,1,0,0:0:0:0:
224,208,149355,1,0,0:0:0:0:
224,208,149455,1,8,0:0:0:0:
224,208,149655,1,0,0:0:0:0:
224,208,149755,1,8,0:0:0:0:
224,208,149855,1,8,0:0:0:0:
224,208,149955,1,0,0:0:0:0:
224,208,150055,1,8,0:0:0:0:
224,224,150244,1,8,0:0:0:0:
224,224,150339,1,8,0:0:0:0:
224,208,150434,1,0,0:0:0:0:
224,208,150529,1,0,0:0:0:0:
224,208,150624,1,8,0:0:0:0:
224,208,150814,1,0,0:0:0:0:
224,208,150909,1,8,0:0:0:0:
224,208,151004,1,0,0:0:0:0:
224,208,151099,1,0,0:0:0:0:
224,208,151194,1,8,0:0:0:0:
224,208,151375,1,8,0:0:0:0:
224,208,151466,1,8,0:0:0:0:
224,208,151557,1,8,0:0:0:0:
224,208,151648,1,0,0:0:0:0:
224,208,151739,1,8,0:0:0:0:
224,208,151921,1,0,0:0:0:0:
224,208,152012,1,8,0:0:0:0:
224,192,152103,1,8,0:0:0:0:
224,192,152194,1,0,0:0:0:0:
224,192,152284,1,8,0:0:0:0:
224,192,152455,1,8,0:0:0:0:
224,192,152541,1,8,0:0:0:0:
224,192,152626,1,0,0:0:0:0:
224,192,152712,1,0,0:0:0:0:
224,192,152798,1,8,0:0:0:0:
224,192,152969,1,8,0:0:0:0:
224,192,153055,1,0,0:0:0:0:
224,192,153141,1,8,0:0:0:0:
224,192,153226,1,8,0:0:0:0:
224,192,153312,1,0,0:0:0:0:
224,192,153484,1,0,0:0:0:0:
224,192,153569,1,0,0:0:0:0:
224,192,153655,1,8,0:0:0:0:
224,192,153741,1,0,0:0:0:0:
224,192,153826,1,8,0:0:0:0:
224,192,153912,1,8,0:0:0:0:
224,192,153998,1,0,0:0:0:0:
224,192,154084,1,8,0:0:0:0:
224,192,154169,1,0,0:0:0:0:
224,192,154255,1,0,0:0:0:0:
224,192,154341,1,8,0:0:0:0:
224,192,154426,1,0,0:0:0:0:
224,192,154512,1,8,0:0:0:0:
224,192,154598,1,8,0:0:0:0:
224,192,154684,1,0,0:0:0:0:
224,192,154769,1,0,0:0:0:0:
224,192,154855,1,8,0:0:0:0:
224,192,154941,1,0,0:0:0:0:
224,176,155026,1,8,0:0:0:0:
224,176,155112,1,0,0:0:0:0:
224,176,155198,1,8,0:0:0:0:
224,176,155284,1,8,0:0:0:0:
240,208,156398,1,0,0:0:0:0:
237,182,156455,1,0,0:0:0:0:
224,176,156512,1,8,0:0:0:0:
