osu file format v14

[General]
AudioFilename: audio.mp3
AudioLeadIn: 0
PreviewTime: 40160
Countdown: 0
SampleSet: Soft
StackLeniency: 0.7
Mode: 2
LetterboxInBreaks: 0
WidescreenStoryboard: 1

[Editor]
Bookmarks: 5212,7738,9002,9633,10265,14054,15317,19107,20370,30475,40581,86370,96160,99949,102475,106265,108791,110054,110686,111317,113844,115107,115738,116370,118896,120160,120791,121423,123949,126475
DistanceSpacing: 0.6
BeatDivisor: 4
GridSize: 4
TimelineZoom: 1.7

[Metadata]
Title:enchanted love
TitleUnicode:enchanted love
Artist:linear ring
ArtistUnicode:linear ring
Creator:Kukkai
Version:cup
Source:THE BMS OF FIGHTERS XVI -NEO DYSTOPIA-
Tags:mappers' guild mpg Arcaea 百舌谷 mozuya BOFXVI Rhythm Game future hop emotional future bass THE BMS OF FIGHTERS XVI -NEO DYSTOPIA- sixteen 16 electronic instrumental glitch hop featured artist fa
BeatmapID:4116769
BeatmapSetID:1982063

[Difficulty]
HPDrainRate:2
CircleSize:2.5
OverallDifficulty:6
ApproachRate:6
SliderMultiplier:1
SliderTickRate:1

[Events]
//Background and Video events
0,0,"enchanted love.jpg",0,0
Video,0,"video.mp4"
//Break Periods
//Storyboard Layer 0 (Background)
//Storyboard Layer 1 (Fail)
//Storyboard Layer 2 (Pass)
//Storyboard Layer 3 (Foreground)
//Storyboard Layer 4 (Overlay)
//Storyboard Sound Samples

[TimingPoints]
160,315.789473684211,4,2,1,70,1,0
160,-100,4,2,1,70,0,0
20370,-90.9090909090909,4,2,1,60,0,0
40581,-90.9090909090909,4,2,1,70,0,1
40896,-90.9090909090909,4,2,1,70,0,1
41844,-90.9090909090909,4,2,1,70,0,1
42159,-90.9090909090909,4,2,1,70,0,1
43107,-90.9090909090909,4,2,1,70,0,1
43422,-90.9090909090909,4,2,1,70,0,1
44370,-90.9090909090909,4,2,1,70,0,1
45002,-90.9090909090909,4,2,1,70,0,1
45633,-90.9090909090909,4,2,1,70,0,1
45948,-90.9090909090909,4,2,1,70,0,1
46896,-90.9090909090909,4,2,1,70,0,1
47528,-90.9090909090909,4,2,1,70,0,1
48160,-90.9090909090909,4,2,1,70,0,1
48475,-90.9090909090909,4,2,1,70,0,1
50686,-90.9090909090909,4,2,1,70,0,1
51001,-90.9090909090909,4,2,1,70,0,1
51949,-90.9090909090909,4,2,1,70,0,1
52264,-90.9090909090909,4,2,1,70,0,1
53212,-90.9090909090909,4,2,1,70,0,1
53527,-90.9090909090909,4,2,1,70,0,1
54475,-90.9090909090909,4,2,1,70,0,1
55107,-90.9090909090909,4,2,1,70,0,1
55738,-90.9090909090909,4,2,1,70,0,0
60791,-90.9090909090909,4,2,1,70,0,1
61107,-90.9090909090909,4,2,1,70,0,1
61738,-90.9090909090909,4,2,1,22,0,1
61844,-90.9090909090909,4,2,1,24,0,1
61949,-90.9090909090909,4,2,1,26,0,1
62054,-90.9090909090909,4,2,1,28,0,1
62160,-90.9090909090909,4,2,1,30,0,1
62265,-90.9090909090909,4,2,1,32,0,1
62370,-90.9090909090909,4,2,1,34,0,1
62475,-90.9090909090909,4,2,1,36,0,1
62581,-90.9090909090909,4,2,1,38,0,1
62686,-90.9090909090909,4,2,1,40,0,1
62791,-90.9090909090909,4,2,1,45,0,1
62896,-90.9090909090909,4,2,1,50,0,1
63002,-90.9090909090909,4,2,1,55,0,1
63107,-90.9090909090909,4,2,1,60,0,1
63212,-90.9090909090909,4,2,1,65,0,1
63317,-90.9090909090909,4,2,1,70,0,1
63633,-90.9090909090909,4,2,1,70,0,1
64581,-90.9090909090909,4,2,1,70,0,1
65212,-90.9090909090909,4,2,1,70,0,1
65844,-90.9090909090909,4,2,1,70,0,1
67107,-90.9090909090909,4,2,1,70,0,1
67738,-90.9090909090909,4,2,1,70,0,1
68370,-90.9090909090909,4,2,1,70,0,1
68686,-90.9090909090909,4,2,1,70,0,1
70896,-90.9090909090909,4,2,1,70,0,1
71212,-90.9090909090909,4,2,1,70,0,1
72160,-90.9090909090909,4,2,1,70,0,1
72791,-90.9090909090909,4,2,1,70,0,1
74370,-90.9090909090909,4,2,1,70,0,1
74686,-90.9090909090909,4,2,1,70,0,1
75317,-90.9090909090909,4,2,1,70,0,1
75949,-90.9090909090909,4,2,1,70,0,0
86370,-90.9090909090909,4,2,1,70,0,0
86686,-90.9090909090909,4,2,1,70,0,0
87317,-90.9090909090909,4,2,1,70,0,0
87949,-90.9090909090909,4,2,1,70,0,0
88581,-90.9090909090909,4,2,1,70,0,0
89844,-90.9090909090909,4,2,1,70,0,0
90475,-90.9090909090909,4,2,1,70,0,0
92370,-90.9090909090909,4,2,1,70,0,0
93002,-90.9090909090909,4,2,1,70,0,0
93633,-90.9090909090909,4,2,1,70,0,0
94265,-90.9090909090909,4,2,1,70,0,0
96160,-90.9090909090909,4,2,1,60,0,0
99949,-90.9090909090909,4,2,1,55,0,0
101212,-90.9090909090909,4,2,1,50,0,0
103738,-90.9090909090909,4,2,1,45,0,0
106265,-100,4,2,1,40,0,0

[Colours]
Combo1 : 255,255,130
Combo2 : 0,119,176
Combo3 : 0,206,206
Combo4 : 0,89,179

[HitObjects]
64,360,160,6,0,L|60:144,1,200,2|0,0:2|0:0,0:0:0:0:
260,152,1423,2,0,L|264:368,1,200,2|0,0:2|0:0,0:0:0:0:
464,356,2686,6,0,L|472:144,1,200,2|0,0:2|0:0,0:0:0:0:
272,152,3949,2,0,L|472:152,1,200,2|0,0:2|0:0,0:0:0:0:
248,344,5212,6,0,P|200:296|264:192,1,200,2|0,0:2|0:0,0:0:0:0:
456,200,6475,2,0,L|244:200,1,200,2|0,0:2|0:0,0:0:0:0:
56,192,7738,6,0,L|280:192,1,200,2|0,0:2|0:0,0:0:0:0:
56,200,9002,6,0,L|56:72,1,100,2|0,0:2|0:0,0:0:0:0:
156,96,9633,2,0,L|288:96,1,100,2|0,0:2|0:0,0:0:0:0:
128,112,10265,6,0,P|60:172|128:248,1,200,2|0,0:2|0:0,0:0:0:0:
312,248,11528,2,0,L|96:248,1,200,2|0,0:2|0:0,0:0:0:0:
312,260,12791,6,0,P|356:212|276:104,1,200,2|0,0:2|0:0,0:0:0:0:
100,100,14054,2,0,L|324:100,1,200,2|0,0:2|0:0,0:0:0:0:
500,108,15317,6,0,L|284:108,1,200,2|0,0:2|0:0,0:0:0:0:
100,104,16581,2,0,P|64:176|156:252,1,200,2|0,0:2|0:0,0:0:0:0:
340,256,17844,6,0,P|416:160|388:88,1,200,2|0,0:2|0:0,0:0:0:0:
194,92,19107,2,0,L|414:96,1,200,2|0,0:2|0:0,0:0:0:0:
168,260,20370,6,0,L|32:260,1,110.000003356934,6|0,1:2|0:0,0:0:0:0:
132,260,20896,1,0,0:0:0:0:
244,260,21212,2,0,L|308:260,1,36.6666677856446,0|0,0:0|0:0,0:0:0:0:
392,260,21633,6,0,P|416:208|368:152,1,110.000003356934,2|0,0:2|0:0,0:0:0:0:
320,164,22160,1,0,0:0:0:0:
212,168,22475,2,0,L|212:108,1,36.6666677856446,0|0,0:0|0:0,0:0:0:0:
344,64,22896,6,0,L|204:64,1,110.000003356934,2|0,1:2|0:0,0:0:0:0:
160,68,23423,1,0,0:0:0:0:
52,64,23738,2,0,L|96:64,1,36.6666677856446,0|0,0:0|0:0,0:0:0:0:
200,68,24160,6,0,L|200:208,1,110.000003356934,2|0,0:2|0:0,0:0:0:0:
128,172,24686,1,0,0:0:0:0:
236,176,25002,2,0,L|304:176,1,36.6666677856446,0|0,0:0|0:0,0:0:0:0:
408,344,25423,6,0,L|264:344,1,110.000003356934,2|0,1:2|0:0,0:0:0:0:
224,344,25949,1,0,0:0:0:0:
112,340,26265,2,0,L|112:272,1,36.6666677856446,0|0,0:0|0:0,0:0:0:0:
220,296,26686,6,0,L|352:296,1,110.000003356934,2|0,0:2|0:0,0:0:0:0:
256,296,27212,1,0,0:0:0:0:
144,296,27528,2,0,L|144:248,1,36.6666677856446,0|0,0:0|0:0,0:0:0:0:
276,252,27949,6,0,P|284:200|256:120,1,110.000003356934,2|0,1:2|0:0,0:0:0:0:
160,140,28581,2,0,P|144:80|176:24,1,110.000003356934,0|0,0:0|0:0,0:0:0:0:
272,36,29212,6,0,L|416:36,1,110.000003356934,2|0,0:2|0:0,0:0:0:0:
272,36,29844,2,0,L|152:36,1,110.000003356934,2|0,0:2|0:0,0:0:0:0:
292,188,30475,5,14,1:2:0:0:
76,196,31107,1,8,0:2:0:0:
260,200,31633,6,0,L|388:200,2,110.000003356934,8|8|8,0:2|0:2|0:2,0:0:0:0:
148,204,32581,2,0,L|148:72,1,110.000003356934,8|8,0:2|0:2,0:0:0:0:
184,96,33002,6,0,L|288:96,1,73.3333355712891,2|8,1:2|0:2,0:0:0:0:
368,96,33528,1,8,0:2:0:0:
256,100,33844,2,0,L|132:100,1,110.000003356934,8|8,0:2|0:2,0:0:0:0:
108,100,34265,6,0,L|108:228,1,110.000003356934,2|8,1:2|0:2,0:0:0:0:
216,204,34896,2,0,L|344:204,1,110.000003356934,8|8,0:2|0:2,0:0:0:0:
200,276,35528,6,0,L|200:148,1,110.000003356934,2|8,1:2|0:2,0:0:0:0:
312,168,36160,2,0,L|312:40,1,110.000003356934,0|8,1:2|0:2,0:0:0:0:
420,68,36791,6,0,L|284:68,1,110.000003356934,2|8,1:2|0:2,0:0:0:0:
200,72,37423,2,0,L|328:72,1,110.000003356934,0|8,1:2|0:2,0:0:0:0:
420,72,38054,6,0,L|420:200,1,110.000003356934,2|0,1:2|1:2,0:0:0:0:
308,180,38686,1,0,1:2:0:0:
196,180,39002,1,0,1:2:0:0:
304,180,39317,5,0,1:2:0:0:
416,180,39633,1,0,1:2:0:0:
272,132,39949,1,0,1:2:0:0:
488,296,40581,6,0,L|344:296,1,110.000003356934,6|2,1:1|0:2,0:0:0:0:
304,292,41107,1,2,0:2:0:0:
268,292,41212,2,0,L|268:160,1,110.000003356934,10|0,0:1|3:3,0:0:0:0:
400,104,41844,6,0,L|276:104,1,110.000003356934,6|2,1:1|0:2,0:0:0:0:
180,104,42475,2,0,L|180:196,1,73.3333355712891,8|0,3:1|1:1,0:0:0:0:
352,344,43107,6,0,P|376:288|328:236,1,110.000003356934,6|2,1:1|0:2,0:0:0:0:
244,248,43738,2,0,P|232:192|256:132,1,110.000003356934,8|2,0:1|0:2,0:0:0:0:
380,88,44370,5,6,1:1:0:0:
268,88,44686,1,6,1:1:0:0:
156,92,45002,2,0,L|64:92,2,73.3333355712891,8|0|2,0:1|1:1|0:1,0:0:0:0:
228,92,45633,6,0,L|372:92,1,110.000003356934,6|2,1:1|0:2,0:0:0:0:
228,92,46265,2,0,L|228:236,1,110.000003356934,10|2,0:1|0:2,0:0:0:0:
356,280,46896,5,6,1:1:0:0:
244,280,47212,1,6,1:1:0:0:
132,280,47528,2,0,L|240:280,1,73.3333355712891,8|0,0:1|1:1,0:0:0:0:
352,276,48160,6,0,P|376:236|340:164,1,110.000003356934,6|0,1:1|0:0,0:0:0:0:
248,176,48791,2,0,L|104:176,1,110.000003356934,10|0,0:1|0:0,0:0:0:0:
268,176,49423,5,6,1:1:0:0:
376,176,49738,1,6,1:1:0:0:
264,180,50054,2,0,L|160:180,1,73.3333355712891,10|0,0:1|1:1,0:0:0:0:
368,344,50686,6,0,L|368:208,1,110.000003356934,6|2,1:1|0:2,0:0:0:0:
296,232,51212,1,2,0:2:0:0:
260,232,51317,2,0,L|120:232,1,110.000003356934,8|2,0:1|0:1,0:0:0:0:
272,144,51949,6,0,L|400:144,2,110.000003356934,6|2|8,1:1|0:2|0:1,0:0:0:0:
200,144,52791,1,0,1:1:0:0:
24,144,53212,6,0,L|24:280,1,110.000003356934,6|0,1:1|3:2,0:0:0:0:
132,244,53844,2,0,L|276:244,1,110.000003356934,8|0,0:1|3:2,0:0:0:0:
116,172,54475,5,6,1:1:0:0:
116,60,54791,1,6,1:1:0:0:
228,60,55107,2,0,L|312:60,2,73.3333355712891,8|0|0,0:1|1:1|3:0,0:0:0:0:
140,360,55738,6,0,P|96:336|160:208,1,220.000006713867,6|8,1:1|0:0,0:0:0:0:
220,208,56581,1,8,0:0:0:0:
256,208,56686,1,8,0:0:0:0:
384,208,57002,6,0,P|428:184|364:56,1,220.000006713867,6|8,1:1|0:0,0:0:0:0:
304,56,57845,1,8,0:0:0:0:
268,56,57950,1,8,0:0:0:0:
136,64,58265,5,6,1:1:0:0:
256,192,58581,12,2,60160,0:1:0:0:
160,196,60475,5,8,0:1:0:0:
296,324,60791,2,0,L|436:324,1,110.000003356934,6|2,1:1|0:2,0:0:0:0:
276,240,61423,1,8,0:1:0:0:
256,192,61738,12,2,63002,3:1:0:0:
176,340,63317,6,0,P|152:296|192:236,1,110.000003356934,6|0,1:1|1:1,0:0:0:0:
284,244,63949,2,0,L|424:244,1,110.000003356934,8|2,3:1|0:2,0:0:0:0:
260,192,64581,5,6,1:1:0:0:
152,192,64896,1,6,1:1:0:0:
40,192,65212,2,0,L|40:108,1,73.3333355712891,8|0,0:1|1:1,0:0:0:0:
212,328,65844,6,0,L|344:328,1,110.000003356934,6|0,1:1|0:0,0:0:0:0:
212,328,66475,2,0,L|72:328,1,110.000003356934,10|0,0:1|0:0,0:0:0:0:
224,248,67107,5,6,1:1:0:0:
224,136,67423,1,6,1:1:0:0:
116,136,67738,2,0,L|220:136,1,73.3333355712891,10|2,0:1|1:1,0:0:0:0:
352,224,68370,6,0,P|368:176|336:108,1,110.000003356934,6|0,1:1|0:0,0:0:0:0:
240,112,69002,2,0,L|116:112,1,110.000003356934,10|2,0:1|0:1,0:0:0:0:
204,108,69528,1,2,1:1:0:0:
240,108,69633,6,0,L|240:232,1,110.000003356934,6|4,1:1|1:1,0:0:0:0:
128,224,70265,2,0,L|8:224,1,110.000003356934,10|4,0:1|1:1,0:0:0:0:
108,336,70791,1,0,1:1:0:0:
144,340,70896,6,0,L|276:340,1,110.000003356934,6|2,1:1|0:2,0:0:0:0:
364,344,71528,2,0,P|376:272|344:216,1,110.000003356934,10|2,0:1|0:1,0:0:0:0:
240,200,72160,5,2,1:1:0:0:
348,200,72475,1,2,1:2:0:0:
460,200,72791,2,0,L|460:100,1,73.3333355712891,14|2,0:1|1:1,0:0:0:0:
300,272,73423,6,0,L|168:272,1,110.000003356934,6|0,1:1|0:0,0:0:0:0:
300,272,74054,2,0,L|432:272,1,110.000003356934,8|2,0:1|0:1,0:0:0:0:
328,208,74581,1,0,1:1:0:0:
292,208,74686,6,0,P|280:164|304:80,1,110.000003356934,6|6,1:1|1:1,0:0:0:0:
400,96,75317,2,0,L|264:96,1,110.000003356934,14|4,0:1|1:1,0:0:0:0:
160,368,75949,6,0,P|104:340|188:236,1,220.000006713867,6|8,1:1|0:1,0:0:0:0:
236,228,76791,1,8,1:2:0:0:
272,228,76896,1,2,0:1:0:0:
384,232,77212,6,0,L|384:92,1,110.000003356934,2|2,1:1|1:1,0:0:0:0:
272,124,77844,2,0,L|184:124,1,73.3333355712891,10|8,0:1|1:2,0:0:0:0:
360,368,78475,6,0,P|416:340|332:236,1,220.000006713867,6|8,1:1|0:1,0:0:0:0:
284,228,79317,1,8,0:0:0:0:
248,228,79422,1,8,0:0:0:0:
136,232,79738,6,0,L|136:92,1,110.000003356934,8|2,1:2|1:1,0:0:0:0:
248,124,80370,2,0,L|336:124,1,73.3333355712891,10|8,0:1|0:0,0:0:0:0:
144,372,81002,6,0,L|144:228,1,110.000003356934,6|8,1:1|0:0,0:0:0:0:
252,256,81633,2,0,L|384:256,1,110.000003356934,6|8,1:1|0:0,0:0:0:0:
252,256,82265,6,0,L|120:256,1,110.000003356934,6|8,1:1|0:0,0:0:0:0:
252,256,82896,2,0,L|252:128,1,110.000003356934,6|8,1:1|0:0,0:0:0:0:
120,156,83528,6,0,L|8:156,2,110.000003356934,6|6|6,1:1|1:1|1:1,0:0:0:0:
232,156,84475,1,6,1:1:0:0:
344,156,84791,6,0,L|448:156,2,73.3333355712891,6|8|8,1:1|1:2|1:2,0:0:0:0:
272,156,85423,2,0,L|152:156,1,110.000003356934,6|6,1:1|1:1,0:0:0:0:
412,344,86370,6,0,P|420:272|400:216,1,110.000003356934,6|8,1:1|0:1,0:0:0:0:
336,240,86896,1,2,0:2:0:0:
300,240,87002,1,2,0:2:0:0:
176,160,87317,5,6,1:1:0:0:
288,160,87633,1,6,1:1:0:0:
400,160,87949,2,0,L|300:160,1,73.3333355712891,8|0,0:1|1:1,0:0:0:0:
164,324,88581,6,0,L|296:324,1,110.000003356934,6|0,1:1|0:0,0:0:0:0:
384,316,89212,2,0,P|400:256|364:192,1,110.000003356934,10|0,0:1|0:0,0:0:0:0:
252,200,89844,6,0,L|108:200,2,110.000003356934,6|6|8,1:1|1:1|0:1,0:0:0:0:
324,200,90686,1,0,1:1:0:0:
484,200,91107,6,0,P|492:144|464:80,1,110.000003356934,6|0,1:1|0:0,0:0:0:0:
364,92,91738,2,0,L|232:92,1,110.000003356934,8|0,0:1|0:0,0:0:0:0:
384,40,92370,6,0,L|500:40,2,110.000003356934,6|6|8,1:1|1:1|0:1,0:0:0:0:
312,40,93212,1,0,1:1:0:0:
136,356,93633,6,0,L|136:236,1,110.000003356934,6|0,1:1|1:1,0:0:0:0:
244,232,94265,2,0,L|380:232,1,110.000003356934,14|0,0:1|0:0,0:0:0:0:
232,164,94896,5,6,1:1:0:0:
120,164,95212,1,2,1:1:0:0:
8,164,95528,2,0,L|84:164,1,73.3333355712891,14|0,0:1|1:1,0:0:0:0:
244,360,96160,6,0,P|268:296|220:264,1,110.000003356934,6|0,1:1|0:0,0:0:0:0:
136,272,96791,2,0,P|120:228|160:164,1,110.000003356934,8|0,0:1|0:0,0:0:0:0:
256,172,97423,5,2,1:1:0:0:
364,172,97738,1,2,1:1:0:0:
256,172,98054,2,0,L|160:172,1,73.3333355712891,8|0,0:1|1:1,0:0:0:0:
336,344,98686,6,0,L|336:204,1,110.000003356934,6|0,1:1|0:0,0:0:0:0:
224,236,99317,2,0,L|224:96,1,110.000003356934,8|0,0:1|0:0,0:0:0:0:
356,68,99949,5,2,1:1:0:0:
468,68,100265,1,2,1:1:0:0:
356,68,100581,1,10,0:1:0:0:
284,68,100791,1,2,1:1:0:0:
128,352,101212,6,0,L|128:224,1,110.000003356934,6|0,1:1|0:0,0:0:0:0:
240,240,101844,2,0,L|240:108,1,110.000003356934,8|0,0:1|0:0,0:0:0:0:
348,120,102475,6,0,L|484:120,2,110.000003356934,2|0|8,1:1|1:1|0:1,0:0:0:0:
276,120,103317,1,0,1:1:0:0:
128,124,103738,6,0,L|256:124,1,110.000003356934,6|0,1:1|1:1,0:0:0:0:
348,124,104370,2,0,L|348:256,1,110.000003356934,8|0,0:1|0:0,0:0:0:0:
236,232,105002,5,0,1:1:0:0:
128,232,105317,1,0,1:1:0:0:
240,236,105633,1,8,0:1:0:0:
312,236,105844,1,0,1:1:0:0:
152,340,106265,6,0,P|104:312|168:212,1,200,2|0,0:2|0:0,0:0:0:0:
360,200,107528,2,0,L|136:200,1,200,2|0,0:2|0:0,0:0:0:0:
360,200,108791,6,0,P|404:160|340:52,1,200,2|0,0:2|0:0,0:0:0:0:
148,48,110054,6,0,L|148:168,1,100,2|0,0:2|0:0,0:0:0:0:
248,152,110686,2,0,L|356:152,1,100,2|0,0:2|0:0,0:0:0:0:
224,356,111317,6,0,P|164:336|232:260,1,200,2|0,0:2|0:0,0:0:0:0:
424,248,112581,2,0,P|468:236|400:152,1,200,2|0,0:2|0:0,0:0:0:0:
212,160,113844,6,0,L|416:160,1,200,2|0,0:2|0:0,0:0:0:0:
212,176,115107,6,0,L|108:176,1,100,2|0,0:2|0:0,0:0:0:0:
212,172,115738,2,0,L|328:172,1,100,2|0,0:2|0:0,0:0:0:0:
200,352,116370,6,0,P|104:336|56:232,1,200,2|0,0:2|0:0,0:0:0:0:
256,240,117633,2,0,P|320:236|380:112,1,200,2|0,0:2|0:0,0:0:0:0:
184,360,118896,6,0,P|132:332|192:232,1,200,2|0,0:2|0:0,0:0:0:0:
384,228,120160,6,0,L|384:120,1,100,2|0,0:2|0:0,0:0:0:0:
284,128,120791,2,0,L|176:128,1,100,2|0,0:2|0:0,0:0:0:0:
304,368,121423,6,0,P|356:336|280:244,1,200,2|0,0:2|0:0,0:0:0:0:
96,236,122686,2,0,L|312:236,1,200,2|0,0:2|0:0,0:0:0:0:
96,252,123949,6,0,P|44:224|112:128,1,200,2|0,0:2|0:0,0:0:0:0:
300,128,125212,2,0,P|344:156|284:272,1,200,2|0,0:2|0:0,0:0:0:0:
256,192,126160,12,0,128844,0:0:0:0:
