osu file format v14

[General]
AudioFilename: audio.ogg
AudioLeadIn: 0
PreviewTime: 158
Countdown: 0
SampleSet: Normal
StackLeniency: 0.7
Mode: 3
LetterboxInBreaks: 0
SpecialStyle: 0
WidescreenStoryboard: 0

[Editor]
DistanceSpacing: 0.8
BeatDivisor: 4
GridSize: 4
TimelineZoom: 3.299999

[Metadata]
Title:enchanted love
TitleUnicode:enchanted love
Artist:linear ring
ArtistUnicode:linear ring
Creator:[Sick]Catcat
Version:eternal love
Source:BOFXVI
Tags:_Rokii Arcaea World Extend 百舌谷 mozuya 2020 Rhythm Game glitch future hop bass riddim emotional electronic instrumental piano violin chord synth redux THE BMS OF FIGHTERS XVI -NEO DYSTOPIA- Groundbreaking COMPILATION ALBUM sixteen 16 featured artist fa
BeatmapID:2714923
BeatmapSetID:1309606

[Difficulty]
HPDrainRate:8
CircleSize:7
OverallDifficulty:7.6
ApproachRate:5
SliderMultiplier:1.4
SliderTickRate:1

[Events]
//Background and Video events
0,0,"enchanted love bg.png",0,0
//Break Periods
//Storyboard Layer 0 (Background)
//Storyboard Layer 1 (Fail)
//Storyboard Layer 2 (Pass)
//Storyboard Layer 3 (Foreground)
//Storyboard Layer 4 (Overlay)
//Storyboard Sound Samples

[TimingPoints]
158,315.789473684211,4,1,1,60,1,0
86368,-100,4,1,1,60,0,1
106263,-100,4,1,1,60,0,0
128052,333.333333333333,4,1,1,60,1,0
128052,-94.3396226415094,4,1,1,60,0,0
128388,434.782608695652,4,1,1,60,1,0
128388,-72.463768115942,4,1,1,60,0,0

[HitObjects]
475,192,158,128,0,789:0:0:0:0:
329,192,368,128,0,473:0:0:0:0:
256,192,473,128,0,789:0:0:0:0:
109,192,684,128,0,789:0:0:0:0:
329,192,1000,128,0,1105:0:0:0:0:
36,192,1105,128,0,1421:0:0:0:0:
182,192,1315,128,0,1421:0:0:0:0:
475,192,1421,128,0,2052:0:0:0:0:
329,192,1631,128,0,1736:0:0:0:0:
256,192,1736,128,0,2052:0:0:0:0:
109,192,1947,128,0,2052:0:0:0:0:
329,192,2263,128,0,2368:0:0:0:0:
36,192,2368,128,0,2684:0:0:0:0:
182,192,2579,128,0,2684:0:0:0:0:
402,192,2684,128,0,3315:0:0:0:0:
36,192,2894,128,0,3000:0:0:0:0:
109,192,3000,128,0,3315:0:0:0:0:
256,192,3210,128,0,3315:0:0:0:0:
402,192,3526,128,0,3631:0:0:0:0:
109,192,3631,128,0,3947:0:0:0:0:
256,192,3842,128,0,3947:0:0:0:0:
36,192,3947,128,0,4579:0:0:0:0:
402,192,4158,128,0,4263:0:0:0:0:
329,192,4263,128,0,4579:0:0:0:0:
182,192,4473,128,0,4579:0:0:0:0:
402,192,4789,128,0,4894:0:0:0:0:
36,192,4894,128,0,5210:0:0:0:0:
256,192,5105,128,0,5210:0:0:0:0:
475,192,5210,128,0,5842:0:0:0:0:
329,192,5421,128,0,5526:0:0:0:0:
182,192,5526,128,0,5842:0:0:0:0:
36,192,5736,128,0,5842:0:0:0:0:
402,192,6052,128,0,6158:0:0:0:0:
109,192,6158,128,0,6473:0:0:0:0:
256,192,6368,128,0,6473:0:0:0:0:
36,192,6473,128,0,7105:0:0:0:0:
182,192,6684,128,0,6789:0:0:0:0:
329,192,6789,128,0,7105:0:0:0:0:
475,192,7000,128,0,7105:0:0:0:0:
402,192,7315,128,0,7421:0:0:0:0:
36,192,7421,128,0,7736:0:0:0:0:
182,192,7631,128,0,7736:0:0:0:0:
475,192,7736,128,0,8368:0:0:0:0:
329,192,7947,128,0,8052:0:0:0:0:
256,192,8052,128,0,8368:0:0:0:0:
109,192,8263,128,0,8368:0:0:0:0:
329,192,8579,128,0,8684:0:0:0:0:
475,192,8684,128,0,9000:0:0:0:0:
256,192,8894,128,0,9000:0:0:0:0:
109,192,9000,128,0,10263:0:0:0:0:
402,192,9210,128,0,9315:0:0:0:0:
256,192,9315,128,0,9631:0:0:0:0:
36,192,9526,128,0,9631:0:0:0:0:
402,192,9631,128,0,10263:0:0:0:0:
182,192,9842,128,0,9947:0:0:0:0:
256,192,9947,128,0,10263:0:0:0:0:
329,192,10158,128,0,10263:0:0:0:0:
475,192,10263,128,0,10894:0:0:0:0:
329,192,10473,128,0,10579:0:0:0:0:
256,192,10579,128,0,10894:0:0:0:0:
109,192,10789,128,0,10894:0:0:0:0:
329,192,11105,128,0,11210:0:0:0:0:
36,192,11210,128,0,11526:0:0:0:0:
182,192,11421,128,0,11526:0:0:0:0:
475,192,11526,128,0,12158:0:0:0:0:
329,192,11736,128,0,11842:0:0:0:0:
256,192,11842,128,0,12158:0:0:0:0:
109,192,12052,128,0,12158:0:0:0:0:
329,192,12368,128,0,12473:0:0:0:0:
36,192,12473,128,0,12789:0:0:0:0:
182,192,12684,128,0,12789:0:0:0:0:
402,192,12789,128,0,13421:0:0:0:0:
36,192,13000,128,0,13105:0:0:0:0:
109,192,13105,128,0,13421:0:0:0:0:
256,192,13315,128,0,13421:0:0:0:0:
182,192,13631,128,0,13736:0:0:0:0:
402,192,13736,128,0,14052:0:0:0:0:
182,192,13947,128,0,14052:0:0:0:0:
36,192,14052,128,0,14684:0:0:0:0:
402,192,14263,128,0,14368:0:0:0:0:
329,192,14368,128,0,14684:0:0:0:0:
182,192,14579,128,0,14684:0:0:0:0:
182,192,14894,128,0,15000:0:0:0:0:
36,192,15000,128,0,15315:0:0:0:0:
329,192,15210,128,0,15315:0:0:0:0:
402,192,15315,128,0,15947:0:0:0:0:
256,192,15526,128,0,15631:0:0:0:0:
109,192,15631,128,0,15947:0:0:0:0:
36,192,15842,128,0,15947:0:0:0:0:
329,192,16158,128,0,16263:0:0:0:0:
182,192,16263,128,0,16579:0:0:0:0:
475,192,16473,128,0,16579:0:0:0:0:
109,192,16579,128,0,17210:0:0:0:0:
256,192,16789,128,0,16894:0:0:0:0:
402,192,16894,128,0,17210:0:0:0:0:
475,192,17105,128,0,17210:0:0:0:0:
329,192,17421,128,0,17526:0:0:0:0:
182,192,17526,128,0,17842:0:0:0:0:
329,192,17736,128,0,17842:0:0:0:0:
475,192,17842,128,0,18473:0:0:0:0:
329,192,18052,128,0,18158:0:0:0:0:
256,192,18158,128,0,18473:0:0:0:0:
109,192,18368,128,0,18473:0:0:0:0:
36,192,18684,128,0,18789:0:0:0:0:
182,192,18789,128,0,19105:0:0:0:0:
329,192,19000,128,0,19105:0:0:0:0:
475,192,19105,128,0,19736:0:0:0:0:
329,192,19315,128,0,19421:0:0:0:0:
256,192,19421,128,0,19736:0:0:0:0:
109,192,19631,128,0,19736:0:0:0:0:
329,192,19947,128,0,20052:0:0:0:0:
36,192,20052,128,0,20368:0:0:0:0:
182,192,20263,128,0,20368:0:0:0:0:
109,192,20368,1,0,0:0:0:0:
475,192,20368,128,0,21000:0:0:0:0:
402,192,20368,1,0,0:0:0:0:
256,192,20368,1,0,0:0:0:0:
329,192,20579,128,0,20684:0:0:0:0:
36,192,20684,1,0,0:0:0:0:
256,192,20684,128,0,21000:0:0:0:0:
109,192,20894,128,0,21000:0:0:0:0:
182,192,21210,128,0,21315:0:0:0:0:
329,192,21210,128,0,21315:0:0:0:0:
475,192,21315,128,0,21526:0:0:0:0:
36,192,21315,128,0,21526:0:0:0:0:
329,192,21526,128,0,21631:0:0:0:0:
182,192,21526,128,0,21631:0:0:0:0:
475,192,21631,128,0,22263:0:0:0:0:
182,192,21842,1,0,0:0:0:0:
329,192,21842,128,0,21947:0:0:0:0:
36,192,21947,1,0,0:0:0:0:
256,192,21947,128,0,22263:0:0:0:0:
36,192,22158,1,0,0:0:0:0:
109,192,22158,128,0,22263:0:0:0:0:
475,192,22473,128,0,22579:0:0:0:0:
329,192,22473,128,0,22579:0:0:0:0:
36,192,22579,128,0,22789:0:0:0:0:
182,192,22579,128,0,22789:0:0:0:0:
329,192,22789,128,0,22894:0:0:0:0:
475,192,22789,128,0,22894:0:0:0:0:
182,192,22894,1,0,0:0:0:0:
36,192,22894,1,0,0:0:0:0:
402,192,22894,128,0,23526:0:0:0:0:
36,192,23105,128,0,23210:0:0:0:0:
182,192,23210,1,0,0:0:0:0:
109,192,23210,128,0,23526:0:0:0:0:
329,192,23421,1,0,0:0:0:0:
256,192,23421,128,0,23526:0:0:0:0:
329,192,23736,128,0,23842:0:0:0:0:
402,192,23736,128,0,23842:0:0:0:0:
109,192,23842,128,0,24052:0:0:0:0:
182,192,23842,128,0,24052:0:0:0:0:
329,192,24052,128,0,24158:0:0:0:0:
256,192,24052,128,0,24158:0:0:0:0:
475,192,24158,128,0,24789:0:0:0:0:
109,192,24368,128,0,24473:0:0:0:0:
36,192,24473,1,0,0:0:0:0:
182,192,24473,128,0,24789:0:0:0:0:
329,192,24684,128,0,24789:0:0:0:0:
256,192,24789,1,0,0:0:0:0:
182,192,25000,128,0,25105:0:0:0:0:
109,192,25000,128,0,25105:0:0:0:0:
329,192,25105,128,0,25315:0:0:0:0:
256,192,25105,128,0,25315:0:0:0:0:
182,192,25315,128,0,25421:0:0:0:0:
109,192,25315,128,0,25421:0:0:0:0:
256,192,25421,1,0,0:0:0:0:
329,192,25421,1,0,0:0:0:0:
475,192,25421,128,0,26052:0:0:0:0:
329,192,25631,128,0,25736:0:0:0:0:
36,192,25736,1,0,0:0:0:0:
182,192,25736,128,0,26052:0:0:0:0:
36,192,25947,128,0,26052:0:0:0:0:
329,192,26263,128,0,26368:0:0:0:0:
402,192,26263,128,0,26368:0:0:0:0:
182,192,26368,128,0,26579:0:0:0:0:
109,192,26368,128,0,26579:0:0:0:0:
402,192,26579,128,0,26684:0:0:0:0:
256,192,26579,128,0,26684:0:0:0:0:
36,192,26684,128,0,27315:0:0:0:0:
475,192,26894,1,0,0:0:0:0:
182,192,26894,128,0,27000:0:0:0:0:
109,192,27000,1,0,0:0:0:0:
329,192,27000,128,0,27315:0:0:0:0:
256,192,27210,1,0,0:0:0:0:
475,192,27210,128,0,27315:0:0:0:0:
109,192,27526,128,0,27631:0:0:0:0:
256,192,27526,128,0,27631:0:0:0:0:
329,192,27631,128,0,27842:0:0:0:0:
36,192,27631,128,0,27842:0:0:0:0:
256,192,27842,128,0,27947:0:0:0:0:
109,192,27842,128,0,27947:0:0:0:0:
329,192,27947,1,0,0:0:0:0:
402,192,27947,1,0,0:0:0:0:
475,192,27947,128,0,28473:0:0:0:0:
329,192,28158,128,0,28263:0:0:0:0:
36,192,28263,1,0,0:0:0:0:
256,192,28263,128,0,28579:0:0:0:0:
36,192,28473,1,0,0:0:0:0:
109,192,28473,128,0,28579:0:0:0:0:
475,192,28579,128,0,29210:0:0:0:0:
182,192,28789,128,0,28894:0:0:0:0:
329,192,28789,128,0,28894:0:0:0:0:
109,192,28894,128,0,29105:0:0:0:0:
256,192,28894,128,0,29105:0:0:0:0:
402,192,29105,128,0,29210:0:0:0:0:
329,192,29105,128,0,29210:0:0:0:0:
36,192,29210,128,0,29842:0:0:0:0:
182,192,29421,128,0,29526:0:0:0:0:
329,192,29526,1,0,0:0:0:0:
256,192,29526,128,0,29842:0:0:0:0:
402,192,29736,128,0,29842:0:0:0:0:
182,192,29842,1,0,0:0:0:0:
109,192,29842,128,0,30052:0:0:0:0:
475,192,29842,128,0,30368:0:0:0:0:
182,192,30052,128,0,30158:0:0:0:0:
36,192,30158,1,0,0:0:0:0:
329,192,30158,128,0,30473:0:0:0:0:
256,192,30368,1,0,0:0:0:0:
182,192,30368,128,0,30473:0:0:0:0:
475,192,30473,128,0,31105:0:0:0:0:
36,192,30473,128,0,35421:0:0:0:0:
402,192,30473,1,0,0:0:0:0:
109,192,30473,1,0,0:0:0:0:
329,192,30684,128,0,30789:0:0:0:0:
256,192,30789,128,0,31105:0:0:0:0:
109,192,31000,128,0,31105:0:0:0:0:
182,192,31105,1,0,0:0:0:0:
402,192,31105,1,0,0:0:0:0:
329,192,31315,128,0,31421:0:0:0:0:
402,192,31315,128,0,31421:0:0:0:0:
256,192,31421,128,0,31631:0:0:0:0:
182,192,31421,128,0,31631:0:0:0:0:
329,192,31631,128,0,31736:0:0:0:0:
402,192,31631,128,0,31736:0:0:0:0:
256,192,31736,1,0,0:0:0:0:
475,192,31736,128,0,32368:0:0:0:0:
109,192,31736,1,0,0:0:0:0:
329,192,31947,128,0,32052:0:0:0:0:
182,192,31947,1,0,0:0:0:0:
402,192,32052,1,0,0:0:0:0:
256,192,32052,128,0,32368:0:0:0:0:
109,192,32263,128,0,32368:0:0:0:0:
182,192,32263,1,0,0:0:0:0:
402,192,32579,128,0,32684:0:0:0:0:
329,192,32579,128,0,32684:0:0:0:0:
182,192,32684,128,0,32894:0:0:0:0:
109,192,32684,128,0,32894:0:0:0:0:
256,192,32894,128,0,33000:0:0:0:0:
329,192,32894,128,0,33000:0:0:0:0:
475,192,33000,1,0,0:0:0:0:
402,192,33000,128,0,33631:0:0:0:0:
329,192,33210,1,0,0:0:0:0:
182,192,33210,128,0,33315:0:0:0:0:
109,192,33315,128,0,33631:0:0:0:0:
329,192,33526,1,0,0:0:0:0:
256,192,33526,128,0,33631:0:0:0:0:
329,192,33842,128,0,33947:0:0:0:0:
182,192,33842,128,0,33947:0:0:0:0:
402,192,33947,128,0,34158:0:0:0:0:
475,192,33947,128,0,34158:0:0:0:0:
109,192,34158,128,0,34263:0:0:0:0:
256,192,34158,128,0,34263:0:0:0:0:
329,192,34263,1,0,0:0:0:0:
475,192,34263,128,0,34894:0:0:0:0:
109,192,34473,1,0,0:0:0:0:
329,192,34473,128,0,34579:0:0:0:0:
402,192,34579,1,0,0:0:0:0:
182,192,34579,128,0,34894:0:0:0:0:
109,192,34789,1,0,0:0:0:0:
329,192,34789,128,0,34894:0:0:0:0:
402,192,34894,1,0,0:0:0:0:
256,192,34894,1,0,0:0:0:0:
402,192,35105,128,0,35210:0:0:0:0:
475,192,35105,128,0,35210:0:0:0:0:
329,192,35210,128,0,35421:0:0:0:0:
182,192,35210,128,0,35421:0:0:0:0:
256,192,35421,128,0,35526:0:0:0:0:
109,192,35421,128,0,35526:0:0:0:0:
36,192,35526,1,0,0:0:0:0:
329,192,35526,128,0,35736:0:0:0:0:
475,192,35526,128,0,36052:0:0:0:0:
402,192,35526,128,0,36052:0:0:0:0:
109,192,35736,128,0,35842:0:0:0:0:
256,192,35842,128,0,36158:0:0:0:0:
36,192,36052,128,0,36158:0:0:0:0:
109,192,36158,128,0,36473:0:0:0:0:
402,192,36158,128,0,36684:0:0:0:0:
475,192,36158,128,0,36684:0:0:0:0:
256,192,36368,128,0,36473:0:0:0:0:
182,192,36473,128,0,36789:0:0:0:0:
329,192,36684,128,0,36789:0:0:0:0:
475,192,36789,128,0,37000:0:0:0:0:
109,192,36789,128,0,37315:0:0:0:0:
36,192,36789,128,0,37315:0:0:0:0:
329,192,37000,128,0,37105:0:0:0:0:
402,192,37105,128,0,37315:0:0:0:0:
256,192,37315,128,0,37421:0:0:0:0:
475,192,37421,128,0,37526:0:0:0:0:
36,192,37421,128,0,37947:0:0:0:0:
109,192,37421,128,0,37947:0:0:0:0:
329,192,37526,128,0,37631:0:0:0:0:
475,192,37631,128,0,37947:0:0:0:0:
329,192,37736,128,0,38052:0:0:0:0:
182,192,37947,128,0,38052:0:0:0:0:
402,192,38052,1,0,0:0:0:0:
109,192,38052,1,0,0:0:0:0:
475,192,38052,128,0,38263:0:0:0:0:
36,192,38052,128,0,38263:0:0:0:0:
182,192,38158,1,0,0:0:0:0:
256,192,38263,1,0,0:0:0:0:
402,192,38368,1,0,0:0:0:0:
36,192,38368,128,0,38579:0:0:0:0:
475,192,38368,128,0,38579:0:0:0:0:
329,192,38473,1,0,0:0:0:0:
256,192,38579,1,0,0:0:0:0:
109,192,38684,1,0,0:0:0:0:
36,192,38684,128,0,38894:0:0:0:0:
475,192,38684,128,0,38894:0:0:0:0:
182,192,38789,1,0,0:0:0:0:
256,192,38894,1,0,0:0:0:0:
402,192,39000,1,0,0:0:0:0:
475,192,39000,128,0,39210:0:0:0:0:
36,192,39000,128,0,39210:0:0:0:0:
329,192,39105,1,0,0:0:0:0:
256,192,39210,1,0,0:0:0:0:
109,192,39315,1,0,0:0:0:0:
36,192,39315,128,0,39526:0:0:0:0:
475,192,39315,128,0,39526:0:0:0:0:
182,192,39421,1,0,0:0:0:0:
329,192,39526,1,0,0:0:0:0:
256,192,39526,1,0,0:0:0:0:
402,192,39631,1,0,0:0:0:0:
109,192,39631,1,0,0:0:0:0:
36,192,39631,128,0,39842:0:0:0:0:
475,192,39631,128,0,39842:0:0:0:0:
329,192,39736,1,0,0:0:0:0:
256,192,39842,1,0,0:0:0:0:
182,192,39842,1,0,0:0:0:0:
402,192,39947,1,0,0:0:0:0:
109,192,39947,1,0,0:0:0:0:
475,192,40158,128,0,40263:0:0:0:0:
329,192,40158,128,0,40263:0:0:0:0:
36,192,40263,128,0,40473:0:0:0:0:
182,192,40263,128,0,40473:0:0:0:0:
402,192,40473,128,0,40579:0:0:0:0:
256,192,40473,128,0,40579:0:0:0:0:
475,192,40579,128,0,40789:0:0:0:0:
329,192,40579,128,0,40789:0:0:0:0:
36,192,40579,128,0,41210:0:0:0:0:
182,192,40579,1,0,0:0:0:0:
109,192,40579,128,0,41210:0:0:0:0:
329,192,40894,1,0,0:0:0:0:
475,192,40894,1,0,0:0:0:0:
475,192,41105,128,0,41210:0:0:0:0:
329,192,41105,128,0,41210:0:0:0:0:
402,192,41210,128,0,41526:0:0:0:0:
182,192,41210,128,0,41526:0:0:0:0:
256,192,41210,128,0,41526:0:0:0:0:
36,192,41421,1,0,0:0:0:0:
109,192,41526,128,0,41631:0:0:0:0:
475,192,41526,1,0,0:0:0:0:
256,192,41736,128,0,41842:0:0:0:0:
109,192,41842,128,0,42473:0:0:0:0:
36,192,41842,128,0,42473:0:0:0:0:
402,192,41842,128,0,42158:0:0:0:0:
475,192,41842,128,0,42473:0:0:0:0:
256,192,42052,1,0,0:0:0:0:
329,192,42158,128,0,42263:0:0:0:0:
182,192,42263,128,0,42368:0:0:0:0:
256,192,42368,128,0,42473:0:0:0:0:
402,192,42473,1,0,0:0:0:0:
329,192,42473,128,0,42684:0:0:0:0:
182,192,42473,128,0,42684:0:0:0:0:
109,192,42684,1,0,0:0:0:0:
402,192,42684,1,0,0:0:0:0:
475,192,42684,1,0,0:0:0:0:
36,192,42684,1,0,0:0:0:0:
256,192,42789,1,0,0:0:0:0:
329,192,42894,1,0,0:0:0:0:
182,192,42894,1,0,0:0:0:0:
329,192,43000,1,0,0:0:0:0:
182,192,43000,1,0,0:0:0:0:
109,192,43105,128,0,43315:0:0:0:0:
36,192,43105,128,0,43315:0:0:0:0:
475,192,43105,128,0,43315:0:0:0:0:
256,192,43105,128,0,43315:0:0:0:0:
402,192,43421,128,0,43631:0:0:0:0:
109,192,43421,128,0,43631:0:0:0:0:
475,192,43631,128,0,43736:0:0:0:0:
329,192,43631,128,0,43736:0:0:0:0:
256,192,43736,1,0,0:0:0:0:
36,192,43736,1,0,0:0:0:0:
182,192,43736,1,0,0:0:0:0:
402,192,43842,1,0,0:0:0:0:
329,192,43842,1,0,0:0:0:0:
109,192,43947,1,0,0:0:0:0:
182,192,43947,1,0,0:0:0:0:
256,192,44052,128,0,44158:0:0:0:0:
402,192,44052,128,0,44158:0:0:0:0:
182,192,44158,128,0,44263:0:0:0:0:
329,192,44158,128,0,44263:0:0:0:0:
256,192,44263,128,0,44368:0:0:0:0:
109,192,44263,128,0,44368:0:0:0:0:
182,192,44368,128,0,44579:0:0:0:0:
36,192,44368,128,0,44579:0:0:0:0:
475,192,44368,128,0,44579:0:0:0:0:
402,192,44368,128,0,44579:0:0:0:0:
329,192,44684,128,0,44894:0:0:0:0:
475,192,44684,128,0,44894:0:0:0:0:
36,192,44684,128,0,44894:0:0:0:0:
109,192,44684,128,0,44894:0:0:0:0:
256,192,45000,1,0,0:0:0:0:
402,192,45000,128,0,45105:0:0:0:0:
182,192,45105,128,0,45210:0:0:0:0:
329,192,45210,128,0,45315:0:0:0:0:
109,192,45210,1,0,0:0:0:0:
475,192,45210,1,0,0:0:0:0:
256,192,45315,1,0,0:0:0:0:
36,192,45315,128,0,45421:0:0:0:0:
182,192,45421,128,0,45526:0:0:0:0:
329,192,45526,1,0,0:0:0:0:
402,192,45526,128,0,45631:0:0:0:0:
475,192,45631,128,0,45947:0:0:0:0:
256,192,45631,128,0,46263:0:0:0:0:
36,192,45631,128,0,45947:0:0:0:0:
109,192,45631,128,0,45947:0:0:0:0:
182,192,45947,128,0,46263:0:0:0:0:
329,192,45947,128,0,46263:0:0:0:0:
36,192,46263,1,0,0:0:0:0:
475,192,46263,128,0,46579:0:0:0:0:
402,192,46263,1,0,0:0:0:0:
182,192,46473,1,0,0:0:0:0:
36,192,46579,128,0,46684:0:0:0:0:
256,192,46579,128,0,46684:0:0:0:0:
329,192,46684,128,0,46789:0:0:0:0:
109,192,46684,128,0,46789:0:0:0:0:
402,192,46789,128,0,46894:0:0:0:0:
182,192,46789,128,0,46894:0:0:0:0:
256,192,46894,128,0,47105:0:0:0:0:
475,192,46894,128,0,47105:0:0:0:0:
109,192,46894,128,0,47105:0:0:0:0:
36,192,46894,128,0,47105:0:0:0:0:
329,192,47105,1,0,0:0:0:0:
256,192,47210,128,0,47421:0:0:0:0:
475,192,47210,128,0,47421:0:0:0:0:
402,192,47210,128,0,47421:0:0:0:0:
36,192,47210,128,0,47421:0:0:0:0:
182,192,47421,1,0,0:0:0:0:
256,192,47526,1,0,0:0:0:0:
109,192,47526,128,0,47631:0:0:0:0:
329,192,47631,128,0,47736:0:0:0:0:
36,192,47736,1,0,0:0:0:0:
182,192,47736,128,0,47842:0:0:0:0:
475,192,47736,1,0,0:0:0:0:
256,192,47736,1,0,0:0:0:0:
329,192,47842,1,0,0:0:0:0:
402,192,47842,128,0,47947:0:0:0:0:
182,192,47947,128,0,48052:0:0:0:0:
329,192,48052,128,0,48158:0:0:0:0:
109,192,48158,128,0,48684:0:0:0:0:
256,192,48158,128,0,48789:0:0:0:0:
475,192,48158,128,0,50052:0:0:0:0:
36,192,48158,1,0,0:0:0:0:
402,192,48473,1,0,0:0:0:0:
329,192,48684,1,0,0:0:0:0:
402,192,48789,1,0,0:0:0:0:
36,192,48789,128,0,49315:0:0:0:0:
182,192,48789,128,0,49421:0:0:0:0:
256,192,49000,1,0,0:0:0:0:
402,192,49105,1,0,0:0:0:0:
256,192,49315,1,0,0:0:0:0:
402,192,49421,128,0,50052:0:0:0:0:
36,192,49421,1,0,0:0:0:0:
109,192,49421,1,0,0:0:0:0:
109,192,49736,1,0,0:0:0:0:
36,192,49736,1,0,0:0:0:0:
329,192,50052,1,0,0:0:0:0:
182,192,50052,128,0,50684:0:0:0:0:
36,192,50052,128,0,50368:0:0:0:0:
329,192,50263,1,0,0:0:0:0:
402,192,50263,1,0,0:0:0:0:
475,192,50263,1,0,0:0:0:0:
109,192,50368,1,0,0:0:0:0:
329,192,50579,1,0,0:0:0:0:
402,192,50684,128,0,51315:0:0:0:0:
256,192,50684,128,0,51315:0:0:0:0:
475,192,50684,1,0,0:0:0:0:
109,192,50684,128,0,50894:0:0:0:0:
36,192,50684,128,0,50894:0:0:0:0:
109,192,51000,1,0,0:0:0:0:
36,192,51000,1,0,0:0:0:0:
36,192,51210,128,0,51315:0:0:0:0:
109,192,51210,128,0,51315:0:0:0:0:
329,192,51315,1,0,0:0:0:0:
475,192,51315,128,0,51421:0:0:0:0:
182,192,51315,128,0,51421:0:0:0:0:
402,192,51421,128,0,51526:0:0:0:0:
109,192,51421,128,0,51526:0:0:0:0:
329,192,51526,128,0,51631:0:0:0:0:
36,192,51526,128,0,51631:0:0:0:0:
402,192,51631,128,0,51736:0:0:0:0:
475,192,51631,128,0,51736:0:0:0:0:
329,192,51736,128,0,51842:0:0:0:0:
256,192,51736,128,0,51842:0:0:0:0:
109,192,51842,128,0,51947:0:0:0:0:
182,192,51842,128,0,51947:0:0:0:0:
475,192,51947,128,0,52263:0:0:0:0:
36,192,51947,128,0,52263:0:0:0:0:
256,192,51947,128,0,52263:0:0:0:0:
402,192,51947,128,0,52263:0:0:0:0:
182,192,52158,1,0,0:0:0:0:
329,192,52263,1,0,0:0:0:0:
109,192,52263,128,0,52473:0:0:0:0:
182,192,52368,128,0,52579:0:0:0:0:
329,192,52473,1,0,0:0:0:0:
256,192,52473,128,0,52684:0:0:0:0:
475,192,52579,1,0,0:0:0:0:
36,192,52579,1,0,0:0:0:0:
402,192,52684,128,0,52894:0:0:0:0:
182,192,52789,1,0,0:0:0:0:
109,192,52789,1,0,0:0:0:0:
36,192,52789,1,0,0:0:0:0:
329,192,52894,1,0,0:0:0:0:
182,192,53000,128,0,53210:0:0:0:0:
256,192,53105,1,0,0:0:0:0:
109,192,53105,128,0,53210:0:0:0:0:
402,192,53210,128,0,53526:0:0:0:0:
475,192,53210,128,0,53526:0:0:0:0:
36,192,53210,128,0,53526:0:0:0:0:
329,192,53210,128,0,53526:0:0:0:0:
256,192,53526,128,0,53631:0:0:0:0:
109,192,53631,128,0,53736:0:0:0:0:
182,192,53736,1,0,0:0:0:0:
402,192,53736,128,0,53842:0:0:0:0:
36,192,53842,1,0,0:0:0:0:
475,192,53842,1,0,0:0:0:0:
109,192,53842,128,0,53947:0:0:0:0:
256,192,53947,128,0,54052:0:0:0:0:
329,192,54052,1,0,0:0:0:0:
402,192,54052,128,0,54158:0:0:0:0:
256,192,54158,128,0,54263:0:0:0:0:
109,192,54263,128,0,54368:0:0:0:0:
182,192,54368,1,0,0:0:0:0:
402,192,54368,128,0,54473:0:0:0:0:
256,192,54473,128,0,54684:0:0:0:0:
475,192,54473,1,0,0:0:0:0:
36,192,54473,1,0,0:0:0:0:
329,192,54473,128,0,54684:0:0:0:0:
109,192,54684,128,0,54789:0:0:0:0:
182,192,54684,128,0,54789:0:0:0:0:
402,192,54789,1,0,0:0:0:0:
256,192,54789,128,0,55000:0:0:0:0:
329,192,54789,128,0,55000:0:0:0:0:
109,192,55000,128,0,55105:0:0:0:0:
182,192,55000,128,0,55105:0:0:0:0:
36,192,55105,1,0,0:0:0:0:
475,192,55105,128,0,55210:0:0:0:0:
402,192,55210,128,0,55315:0:0:0:0:
182,192,55315,1,0,0:0:0:0:
109,192,55315,1,0,0:0:0:0:
329,192,55315,128,0,55421:0:0:0:0:
256,192,55421,1,0,0:0:0:0:
36,192,55421,128,0,55526:0:0:0:0:
109,192,55526,128,0,55631:0:0:0:0:
256,192,55631,1,0,0:0:0:0:
182,192,55631,128,0,55736:0:0:0:0:
36,192,55736,1,0,0:0:0:0:
402,192,55736,128,0,56368:0:0:0:0:
475,192,55736,128,0,56368:0:0:0:0:
329,192,55736,1,0,0:0:0:0:
109,192,55842,1,0,0:0:0:0:
256,192,55947,1,0,0:0:0:0:
109,192,56052,1,0,0:0:0:0:
256,192,56158,1,0,0:0:0:0:
109,192,56263,1,0,0:0:0:0:
329,192,56368,128,0,57000:0:0:0:0:
36,192,56368,1,0,0:0:0:0:
182,192,56368,128,0,57000:0:0:0:0:
109,192,56579,1,0,0:0:0:0:
402,192,56684,1,0,0:0:0:0:
256,192,56894,1,0,0:0:0:0:
109,192,57000,128,0,57631:0:0:0:0:
402,192,57000,1,0,0:0:0:0:
36,192,57000,128,0,57631:0:0:0:0:
475,192,57000,1,0,0:0:0:0:
329,192,57105,1,0,0:0:0:0:
475,192,57210,1,0,0:0:0:0:
256,192,57315,1,0,0:0:0:0:
402,192,57421,1,0,0:0:0:0:
182,192,57526,1,0,0:0:0:0:
329,192,57631,128,0,58263:0:0:0:0:
475,192,57631,128,0,60158:0:0:0:0:
256,192,57631,1,0,0:0:0:0:
36,192,57736,1,0,0:0:0:0:
402,192,57842,1,0,0:0:0:0:
109,192,57947,1,0,0:0:0:0:
256,192,58158,1,0,0:0:0:0:
109,192,58263,1,0,0:0:0:0:
402,192,58263,128,0,58473:0:0:0:0:
36,192,58263,128,0,60158:0:0:0:0:
182,192,58263,1,0,0:0:0:0:
256,192,58368,128,0,58579:0:0:0:0:
109,192,58473,128,0,58684:0:0:0:0:
329,192,58579,128,0,58789:0:0:0:0:
182,192,58684,128,0,58894:0:0:0:0:
402,192,58789,128,0,59000:0:0:0:0:
256,192,58894,128,0,59105:0:0:0:0:
109,192,59000,128,0,59210:0:0:0:0:
329,192,59105,128,0,59315:0:0:0:0:
182,192,59210,128,0,59421:0:0:0:0:
402,192,59315,128,0,59526:0:0:0:0:
256,192,59421,128,0,59631:0:0:0:0:
109,192,59526,128,0,59736:0:0:0:0:
329,192,59631,128,0,59842:0:0:0:0:
182,192,59736,128,0,59947:0:0:0:0:
402,192,59842,128,0,60158:0:0:0:0:
256,192,59947,128,0,60158:0:0:0:0:
109,192,60052,128,0,60158:0:0:0:0:
182,192,60158,1,0,0:0:0:0:
329,192,60158,1,0,0:0:0:0:
475,192,60368,1,0,0:0:0:0:
36,192,60368,1,0,0:0:0:0:
256,192,60473,1,0,0:0:0:0:
109,192,60473,1,0,0:0:0:0:
402,192,60473,1,0,0:0:0:0:
475,192,60789,128,0,61105:0:0:0:0:
36,192,60789,128,0,61105:0:0:0:0:
182,192,60789,128,0,61105:0:0:0:0:
256,192,60789,1,0,0:0:0:0:
329,192,60789,128,0,61105:0:0:0:0:
402,192,61105,128,0,61210:0:0:0:0:
109,192,61105,128,0,61210:0:0:0:0:
256,192,61210,128,0,61421:0:0:0:0:
36,192,61421,1,0,0:0:0:0:
475,192,61421,1,0,0:0:0:0:
329,192,61421,1,0,0:0:0:0:
402,192,61421,1,0,0:0:0:0:
182,192,61421,1,0,0:0:0:0:
109,192,61421,1,0,0:0:0:0:
36,192,61736,1,0,0:0:0:0:
475,192,61736,1,0,0:0:0:0:
109,192,61842,1,0,0:0:0:0:
402,192,61842,1,0,0:0:0:0:
329,192,61947,1,0,0:0:0:0:
182,192,61947,1,0,0:0:0:0:
475,192,62052,128,0,62158:0:0:0:0:
402,192,62052,128,0,62158:0:0:0:0:
36,192,62158,128,0,62263:0:0:0:0:
109,192,62158,128,0,62263:0:0:0:0:
329,192,62263,128,0,62368:0:0:0:0:
256,192,62263,128,0,62368:0:0:0:0:
36,192,62368,128,0,62473:0:0:0:0:
182,192,62368,128,0,62473:0:0:0:0:
475,192,62473,128,0,62579:0:0:0:0:
329,192,62473,128,0,62579:0:0:0:0:
256,192,62579,128,0,62684:0:0:0:0:
109,192,62579,128,0,62684:0:0:0:0:
402,192,62684,1,0,0:0:0:0:
329,192,62684,1,0,0:0:0:0:
475,192,62684,1,0,0:0:0:0:
36,192,62684,1,0,0:0:0:0:
475,192,62789,1,0,0:0:0:0:
329,192,62789,1,0,0:0:0:0:
475,192,62894,1,0,0:0:0:0:
329,192,62894,1,0,0:0:0:0:
36,192,63000,1,0,0:0:0:0:
182,192,63000,1,0,0:0:0:0:
182,192,63105,1,0,0:0:0:0:
36,192,63105,1,0,0:0:0:0:
182,192,63210,1,0,0:0:0:0:
36,192,63210,1,0,0:0:0:0:
475,192,63315,128,0,63526:0:0:0:0:
329,192,63315,1,0,0:0:0:0:
402,192,63315,128,0,63526:0:0:0:0:
109,192,63315,128,0,63526:0:0:0:0:
256,192,63315,128,0,63526:0:0:0:0:
182,192,63631,1,0,0:0:0:0:
402,192,63631,128,0,63736:0:0:0:0:
36,192,63631,1,0,0:0:0:0:
329,192,63736,128,0,63947:0:0:0:0:
182,192,63842,128,0,63947:0:0:0:0:
109,192,63947,1,0,0:0:0:0:
36,192,63947,1,0,0:0:0:0:
402,192,63947,1,0,0:0:0:0:
256,192,63947,1,0,0:0:0:0:
329,192,64158,1,0,0:0:0:0:
475,192,64158,1,0,0:0:0:0:
109,192,64263,128,0,64473:0:0:0:0:
182,192,64263,128,0,64473:0:0:0:0:
402,192,64473,1,0,0:0:0:0:
256,192,64473,128,0,64579:0:0:0:0:
329,192,64579,128,0,64789:0:0:0:0:
475,192,64579,128,0,64789:0:0:0:0:
36,192,64579,128,0,64789:0:0:0:0:
109,192,64579,128,0,64789:0:0:0:0:
182,192,64894,128,0,65105:0:0:0:0:
36,192,64894,128,0,65105:0:0:0:0:
475,192,64894,128,0,65105:0:0:0:0:
402,192,64894,128,0,65105:0:0:0:0:
256,192,65210,1,0,0:0:0:0:
109,192,65210,128,0,65315:0:0:0:0:
329,192,65315,128,0,65421:0:0:0:0:
109,192,65421,128,0,65526:0:0:0:0:
475,192,65421,1,0,0:0:0:0:
402,192,65421,1,0,0:0:0:0:
256,192,65526,128,0,65631:0:0:0:0:
402,192,65631,128,0,65736:0:0:0:0:
182,192,65736,128,0,65842:0:0:0:0:
36,192,65842,128,0,66368:0:0:0:0:
256,192,65842,128,0,66368:0:0:0:0:
475,192,65842,128,0,66368:0:0:0:0:
109,192,65842,128,0,66368:0:0:0:0:
402,192,66158,1,0,0:0:0:0:
475,192,66473,128,0,67000:0:0:0:0:
36,192,66473,128,0,67000:0:0:0:0:
182,192,66473,128,0,67000:0:0:0:0:
402,192,66684,1,0,0:0:0:0:
256,192,66789,1,0,0:0:0:0:
402,192,67000,1,0,0:0:0:0:
475,192,67105,128,0,67315:0:0:0:0:
36,192,67105,128,0,67315:0:0:0:0:
109,192,67105,128,0,67315:0:0:0:0:
256,192,67105,128,0,67315:0:0:0:0:
329,192,67315,1,0,0:0:0:0:
402,192,67421,128,0,67526:0:0:0:0:
256,192,67421,128,0,67631:0:0:0:0:
36,192,67421,128,0,67631:0:0:0:0:
182,192,67421,128,0,67631:0:0:0:0:
475,192,67526,128,0,67631:0:0:0:0:
109,192,67631,128,0,67736:0:0:0:0:
329,192,67631,1,0,0:0:0:0:
402,192,67736,1,0,0:0:0:0:
256,192,67736,128,0,67842:0:0:0:0:
329,192,67842,128,0,67947:0:0:0:0:
182,192,67947,128,0,68052:0:0:0:0:
475,192,67947,1,0,0:0:0:0:
36,192,67947,1,0,0:0:0:0:
402,192,68052,128,0,68158:0:0:0:0:
329,192,68158,128,0,68263:0:0:0:0:
182,192,68263,128,0,68368:0:0:0:0:
402,192,68368,128,0,68684:0:0:0:0:
36,192,68368,128,0,68684:0:0:0:0:
475,192,68368,1,0,0:0:0:0:
256,192,68368,128,0,68684:0:0:0:0:
182,192,68684,1,0,0:0:0:0:
256,192,68894,128,0,69000:0:0:0:0:
329,192,68894,128,0,69000:0:0:0:0:
36,192,69000,128,0,69526:0:0:0:0:
109,192,69000,1,0,0:0:0:0:
475,192,69000,128,0,69526:0:0:0:0:
182,192,69210,1,0,0:0:0:0:
329,192,69315,128,0,69526:0:0:0:0:
182,192,69526,1,0,0:0:0:0:
109,192,69526,1,0,0:0:0:0:
36,192,69631,128,0,69842:0:0:0:0:
475,192,69631,128,0,69842:0:0:0:0:
256,192,69631,128,0,69842:0:0:0:0:
402,192,69631,1,0,0:0:0:0:
475,192,69947,128,0,70263:0:0:0:0:
256,192,69947,128,0,70158:0:0:0:0:
36,192,69947,128,0,70158:0:0:0:0:
402,192,69947,1,0,0:0:0:0:
256,192,70263,1,0,0:0:0:0:
329,192,70263,128,0,70894:0:0:0:0:
182,192,70263,128,0,70579:0:0:0:0:
402,192,70579,1,0,0:0:0:0:
475,192,70579,1,0,0:0:0:0:
36,192,70579,1,0,0:0:0:0:
182,192,70789,1,0,0:0:0:0:
109,192,70789,1,0,0:0:0:0:
256,192,70789,1,0,0:0:0:0:
36,192,70894,128,0,71210:0:0:0:0:
475,192,70894,128,0,71210:0:0:0:0:
402,192,70894,1,0,0:0:0:0:
256,192,71210,1,0,0:0:0:0:
402,192,71210,128,0,71315:0:0:0:0:
182,192,71315,128,0,71421:0:0:0:0:
36,192,71315,128,0,71421:0:0:0:0:
475,192,71421,128,0,71526:0:0:0:0:
329,192,71421,128,0,71526:0:0:0:0:
109,192,71526,128,0,71736:0:0:0:0:
256,192,71526,1,0,0:0:0:0:
329,192,71736,128,0,71842:0:0:0:0:
402,192,71842,1,0,0:0:0:0:
109,192,71842,128,0,71947:0:0:0:0:
256,192,71947,128,0,72052:0:0:0:0:
182,192,72052,1,0,0:0:0:0:
329,192,72052,128,0,72158:0:0:0:0:
256,192,72158,1,0,0:0:0:0:
36,192,72158,128,0,72368:0:0:0:0:
475,192,72158,128,0,72368:0:0:0:0:
329,192,72368,128,0,72473:0:0:0:0:
182,192,72368,128,0,72473:0:0:0:0:
256,192,72473,1,0,0:0:0:0:
36,192,72473,128,0,72789:0:0:0:0:
475,192,72473,128,0,72789:0:0:0:0:
256,192,72684,1,0,0:0:0:0:
329,192,72789,128,0,73000:0:0:0:0:
182,192,72789,1,0,0:0:0:0:
182,192,73000,1,0,0:0:0:0:
109,192,73000,1,0,0:0:0:0:
36,192,73000,1,0,0:0:0:0:
256,192,73105,1,0,0:0:0:0:
402,192,73105,128,0,73315:0:0:0:0:
109,192,73315,1,0,0:0:0:0:
256,192,73315,128,0,73421:0:0:0:0:
475,192,73421,1,0,0:0:0:0:
402,192,73421,1,0,0:0:0:0:
36,192,73421,128,0,73947:0:0:0:0:
182,192,73421,128,0,73947:0:0:0:0:
329,192,73736,1,0,0:0:0:0:
329,192,73947,1,0,0:0:0:0:
109,192,74052,128,0,74473:0:0:0:0:
36,192,74052,128,0,74473:0:0:0:0:
475,192,74052,128,0,74684:0:0:0:0:
182,192,74158,128,0,74473:0:0:0:0:
402,192,74263,1,0,0:0:0:0:
329,192,74368,1,0,0:0:0:0:
182,192,74579,1,0,0:0:0:0:
256,192,74579,1,0,0:0:0:0:
36,192,74579,1,0,0:0:0:0:
36,192,74684,128,0,74894:0:0:0:0:
182,192,74684,128,0,74894:0:0:0:0:
402,192,74684,1,0,0:0:0:0:
329,192,74894,128,0,75000:0:0:0:0:
402,192,74894,128,0,75000:0:0:0:0:
475,192,75000,1,0,0:0:0:0:
256,192,75000,1,0,0:0:0:0:
182,192,75000,128,0,75210:0:0:0:0:
36,192,75000,128,0,75210:0:0:0:0:
329,192,75210,128,0,75315:0:0:0:0:
402,192,75210,128,0,75315:0:0:0:0:
109,192,75315,1,0,0:0:0:0:
36,192,75315,128,0,75526:0:0:0:0:
182,192,75315,128,0,75526:0:0:0:0:
329,192,75526,128,0,75631:0:0:0:0:
402,192,75526,128,0,75631:0:0:0:0:
256,192,75631,1,0,0:0:0:0:
475,192,75631,1,0,0:0:0:0:
182,192,75631,128,0,75842:0:0:0:0:
36,192,75631,128,0,75842:0:0:0:0:
329,192,75842,1,0,0:0:0:0:
402,192,75842,1,0,0:0:0:0:
475,192,75842,1,0,0:0:0:0:
36,192,75947,1,0,0:0:0:0:
109,192,75947,1,0,0:0:0:0:
256,192,75947,1,0,0:0:0:0:
329,192,76052,1,0,0:0:0:0:
182,192,76158,1,0,0:0:0:0:
329,192,76263,1,0,0:0:0:0:
182,192,76368,1,0,0:0:0:0:
329,192,76473,1,0,0:0:0:0:
109,192,76579,1,0,0:0:0:0:
36,192,76579,1,0,0:0:0:0:
182,192,76579,1,0,0:0:0:0:
256,192,76684,1,0,0:0:0:0:
475,192,76789,1,0,0:0:0:0:
182,192,76789,1,0,0:0:0:0:
402,192,76789,1,0,0:0:0:0:
329,192,76894,1,0,0:0:0:0:
36,192,76894,128,0,77210:0:0:0:0:
109,192,76894,128,0,77210:0:0:0:0:
329,192,77105,1,0,0:0:0:0:
256,192,77210,1,0,0:0:0:0:
182,192,77210,1,0,0:0:0:0:
475,192,77210,1,0,0:0:0:0:
402,192,77210,1,0,0:0:0:0:
329,192,77315,1,0,0:0:0:0:
182,192,77421,1,0,0:0:0:0:
329,192,77526,1,0,0:0:0:0:
402,192,77526,1,0,0:0:0:0:
475,192,77526,1,0,0:0:0:0:
182,192,77631,1,0,0:0:0:0:
329,192,77736,1,0,0:0:0:0:
475,192,77842,1,0,0:0:0:0:
402,192,77842,1,0,0:0:0:0:
182,192,77842,1,0,0:0:0:0:
36,192,77947,1,0,0:0:0:0:
182,192,78052,1,0,0:0:0:0:
475,192,78052,1,0,0:0:0:0:
256,192,78052,128,0,78158:0:0:0:0:
109,192,78052,128,0,78158:0:0:0:0:
329,192,78158,128,0,78473:0:0:0:0:
402,192,78158,128,0,78473:0:0:0:0:
256,192,78368,1,0,0:0:0:0:
475,192,78473,1,0,0:0:0:0:
182,192,78473,1,0,0:0:0:0:
36,192,78473,128,0,79105:0:0:0:0:
109,192,78473,128,0,79105:0:0:0:0:
329,192,78579,1,0,0:0:0:0:
475,192,78684,1,0,0:0:0:0:
256,192,78789,1,0,0:0:0:0:
402,192,78894,1,0,0:0:0:0:
329,192,79000,1,0,0:0:0:0:
256,192,79105,1,0,0:0:0:0:
475,192,79105,128,0,79631:0:0:0:0:
402,192,79105,128,0,79631:0:0:0:0:
182,192,79210,1,0,0:0:0:0:
36,192,79315,1,0,0:0:0:0:
256,192,79421,1,0,0:0:0:0:
109,192,79421,1,0,0:0:0:0:
182,192,79631,1,0,0:0:0:0:
329,192,79631,1,0,0:0:0:0:
475,192,79736,1,0,0:0:0:0:
256,192,79736,1,0,0:0:0:0:
36,192,79736,128,0,79842:0:0:0:0:
329,192,79842,1,0,0:0:0:0:
109,192,79842,128,0,79947:0:0:0:0:
402,192,79947,1,0,0:0:0:0:
256,192,79947,128,0,80052:0:0:0:0:
475,192,80052,1,0,0:0:0:0:
182,192,80052,128,0,80368:0:0:0:0:
36,192,80052,128,0,80263:0:0:0:0:
402,192,80158,1,0,0:0:0:0:
256,192,80263,1,0,0:0:0:0:
36,192,80368,1,0,0:0:0:0:
329,192,80368,128,0,80473:0:0:0:0:
109,192,80473,1,0,0:0:0:0:
256,192,80473,128,0,80579:0:0:0:0:
182,192,80579,1,0,0:0:0:0:
475,192,80579,128,0,80684:0:0:0:0:
329,192,80684,128,0,80789:0:0:0:0:
109,192,80684,1,0,0:0:0:0:
36,192,80684,1,0,0:0:0:0:
182,192,80789,128,0,80894:0:0:0:0:
109,192,80894,1,0,0:0:0:0:
36,192,80894,1,0,0:0:0:0:
402,192,80894,128,0,81000:0:0:0:0:
109,192,81000,1,0,0:0:0:0:
36,192,81000,1,0,0:0:0:0:
256,192,81000,128,0,81631:0:0:0:0:
475,192,81000,1,0,0:0:0:0:
329,192,81105,1,0,0:0:0:0:
475,192,81210,1,0,0:0:0:0:
109,192,81315,1,0,0:0:0:0:
329,192,81421,1,0,0:0:0:0:
475,192,81526,1,0,0:0:0:0:
329,192,81631,128,0,81736:0:0:0:0:
36,192,81631,1,0,0:0:0:0:
109,192,81631,1,0,0:0:0:0:
182,192,81736,1,0,0:0:0:0:
475,192,81736,128,0,81842:0:0:0:0:
36,192,81842,1,0,0:0:0:0:
256,192,81842,128,0,81947:0:0:0:0:
109,192,81947,1,0,0:0:0:0:
402,192,81947,128,0,82052:0:0:0:0:
36,192,82052,1,0,0:0:0:0:
182,192,82052,128,0,82158:0:0:0:0:
402,192,82158,1,0,0:0:0:0:
329,192,82158,128,0,82263:0:0:0:0:
256,192,82263,128,0,82894:0:0:0:0:
475,192,82263,1,0,0:0:0:0:
109,192,82263,1,0,0:0:0:0:
36,192,82263,1,0,0:0:0:0:
182,192,82368,1,0,0:0:0:0:
36,192,82473,1,0,0:0:0:0:
475,192,82579,1,0,0:0:0:0:
329,192,82684,1,0,0:0:0:0:
182,192,82789,1,0,0:0:0:0:
329,192,82894,128,0,83526:0:0:0:0:
402,192,82894,1,0,0:0:0:0:
36,192,82894,1,0,0:0:0:0:
109,192,82894,1,0,0:0:0:0:
182,192,83000,1,0,0:0:0:0:
475,192,83000,128,0,83526:0:0:0:0:
36,192,83105,1,0,0:0:0:0:
182,192,83210,1,0,0:0:0:0:
109,192,83315,1,0,0:0:0:0:
182,192,83421,1,0,0:0:0:0:
256,192,83526,1,0,0:0:0:0:
109,192,83526,1,0,0:0:0:0:
36,192,83526,1,0,0:0:0:0:
402,192,83526,1,0,0:0:0:0:
329,192,83631,1,0,0:0:0:0:
256,192,83736,1,0,0:0:0:0:
329,192,83842,1,0,0:0:0:0:
402,192,83842,1,0,0:0:0:0:
36,192,83842,1,0,0:0:0:0:
475,192,83842,1,0,0:0:0:0:
109,192,83947,1,0,0:0:0:0:
182,192,84052,1,0,0:0:0:0:
475,192,84158,1,0,0:0:0:0:
256,192,84158,1,0,0:0:0:0:
109,192,84158,1,0,0:0:0:0:
36,192,84158,1,0,0:0:0:0:
402,192,84263,1,0,0:0:0:0:
329,192,84368,1,0,0:0:0:0:
475,192,84473,1,0,0:0:0:0:
402,192,84473,1,0,0:0:0:0:
36,192,84473,1,0,0:0:0:0:
256,192,84473,1,0,0:0:0:0:
109,192,84579,1,0,0:0:0:0:
256,192,84684,1,0,0:0:0:0:
329,192,84684,1,0,0:0:0:0:
182,192,84684,1,0,0:0:0:0:
36,192,84789,1,0,0:0:0:0:
402,192,84789,1,0,0:0:0:0:
475,192,84789,1,0,0:0:0:0:
109,192,84894,1,0,0:0:0:0:
182,192,84894,1,0,0:0:0:0:
182,192,85000,1,0,0:0:0:0:
109,192,85000,1,0,0:0:0:0:
256,192,85105,1,0,0:0:0:0:
475,192,85105,1,0,0:0:0:0:
36,192,85105,1,0,0:0:0:0:
329,192,85210,1,0,0:0:0:0:
402,192,85210,1,0,0:0:0:0:
402,192,85315,1,0,0:0:0:0:
329,192,85315,1,0,0:0:0:0:
182,192,85421,1,0,0:0:0:0:
36,192,85421,1,0,0:0:0:0:
109,192,85421,1,0,0:0:0:0:
329,192,85526,1,0,0:0:0:0:
475,192,85526,1,0,0:0:0:0:
36,192,85631,1,0,0:0:0:0:
182,192,85631,1,0,0:0:0:0:
402,192,85736,128,0,86052:0:0:0:0:
109,192,85736,128,0,86052:0:0:0:0:
256,192,85736,128,0,86315:0:0:0:0:
475,192,86052,128,0,86315:0:0:0:0:
36,192,86052,128,0,86315:0:0:0:0:
475,192,86368,128,0,87000:0:0:0:0:
109,192,86368,1,0,0:0:0:0:
402,192,86368,1,0,0:0:0:0:
182,192,86368,128,0,86684:0:0:0:0:
36,192,86368,128,0,86684:0:0:0:0:
329,192,86368,128,0,87000:0:0:0:0:
256,192,86684,1,0,0:0:0:0:
109,192,86684,1,0,0:0:0:0:
36,192,86894,128,0,87000:0:0:0:0:
109,192,86894,128,0,87000:0:0:0:0:
256,192,87000,128,0,87210:0:0:0:0:
402,192,87000,128,0,87210:0:0:0:0:
182,192,87210,128,0,87315:0:0:0:0:
36,192,87210,128,0,87315:0:0:0:0:
475,192,87315,128,0,87526:0:0:0:0:
402,192,87315,128,0,87526:0:0:0:0:
109,192,87315,128,0,87526:0:0:0:0:
329,192,87315,128,0,87526:0:0:0:0:
256,192,87526,1,0,0:0:0:0:
402,192,87631,128,0,87842:0:0:0:0:
475,192,87631,128,0,87842:0:0:0:0:
109,192,87631,128,0,87842:0:0:0:0:
329,192,87631,128,0,87842:0:0:0:0:
256,192,87842,1,0,0:0:0:0:
475,192,87947,1,0,0:0:0:0:
182,192,87947,128,0,88158:0:0:0:0:
109,192,88052,128,0,88263:0:0:0:0:
402,192,88158,1,0,0:0:0:0:
475,192,88158,1,0,0:0:0:0:
36,192,88158,128,0,88368:0:0:0:0:
329,192,88158,1,0,0:0:0:0:
182,192,88263,1,0,0:0:0:0:
256,192,88263,128,0,88473:0:0:0:0:
329,192,88368,128,0,88579:0:0:0:0:
109,192,88473,1,0,0:0:0:0:
402,192,88473,128,0,88579:0:0:0:0:
256,192,88579,128,0,89736:0:0:0:0:
182,192,88579,1,0,0:0:0:0:
36,192,88579,128,0,89736:0:0:0:0:
475,192,88579,128,0,89736:0:0:0:0:
182,192,88894,1,0,0:0:0:0:
182,192,89105,1,0,0:0:0:0:
109,192,89210,1,0,0:0:0:0:
402,192,89210,1,0,0:0:0:0:
329,192,89210,1,0,0:0:0:0:
182,192,89421,1,0,0:0:0:0:
329,192,89526,1,0,0:0:0:0:
182,192,89736,1,0,0:0:0:0:
329,192,89842,128,0,90052:0:0:0:0:
402,192,89842,128,0,90052:0:0:0:0:
109,192,89842,128,0,90052:0:0:0:0:
256,192,89842,128,0,90052:0:0:0:0:
256,192,90158,128,0,90368:0:0:0:0:
402,192,90158,128,0,90368:0:0:0:0:
109,192,90158,128,0,90368:0:0:0:0:
182,192,90158,128,0,90368:0:0:0:0:
256,192,90473,1,0,0:0:0:0:
475,192,90473,128,0,90579:0:0:0:0:
36,192,90579,128,0,90684:0:0:0:0:
402,192,90684,1,0,0:0:0:0:
329,192,90684,1,0,0:0:0:0:
109,192,90789,1,0,0:0:0:0:
36,192,90789,128,0,90894:0:0:0:0:
475,192,90894,128,0,91000:0:0:0:0:
256,192,91000,1,0,0:0:0:0:
182,192,91000,128,0,91105:0:0:0:0:
475,192,91105,128,0,92263:0:0:0:0:
109,192,91105,1,0,0:0:0:0:
36,192,91105,128,0,92263:0:0:0:0:
402,192,91105,128,0,92263:0:0:0:0:
329,192,91421,1,0,0:0:0:0:
329,192,91736,1,0,0:0:0:0:
256,192,91736,1,0,0:0:0:0:
182,192,91736,1,0,0:0:0:0:
256,192,91947,1,0,0:0:0:0:
182,192,92052,1,0,0:0:0:0:
109,192,92263,1,0,0:0:0:0:
36,192,92368,128,0,92579:0:0:0:0:
329,192,92368,128,0,92579:0:0:0:0:
256,192,92368,128,0,92579:0:0:0:0:
182,192,92368,128,0,92579:0:0:0:0:
402,192,92579,1,0,0:0:0:0:
329,192,92684,128,0,92894:0:0:0:0:
475,192,92684,128,0,92894:0:0:0:0:
256,192,92684,128,0,92894:0:0:0:0:
182,192,92684,128,0,92894:0:0:0:0:
36,192,92894,1,0,0:0:0:0:
256,192,93000,1,0,0:0:0:0:
109,192,93000,128,0,93105:0:0:0:0:
402,192,93105,128,0,93210:0:0:0:0:
182,192,93210,1,0,0:0:0:0:
36,192,93210,1,0,0:0:0:0:
329,192,93315,1,0,0:0:0:0:
256,192,93315,128,0,93421:0:0:0:0:
109,192,93421,128,0,93526:0:0:0:0:
182,192,93526,1,0,0:0:0:0:
402,192,93526,128,0,93631:0:0:0:0:
36,192,93631,128,0,93842:0:0:0:0:
475,192,93631,128,0,93842:0:0:0:0:
329,192,93631,128,0,93842:0:0:0:0:
109,192,93631,128,0,93842:0:0:0:0:
109,192,93947,1,0,0:0:0:0:
475,192,93947,1,0,0:0:0:0:
329,192,93947,1,0,0:0:0:0:
36,192,93947,1,0,0:0:0:0:
109,192,94158,1,0,0:0:0:0:
256,192,94158,1,0,0:0:0:0:
402,192,94158,1,0,0:0:0:0:
475,192,94263,128,0,94789:0:0:0:0:
36,192,94263,128,0,95526:0:0:0:0:
182,192,94263,128,0,94789:0:0:0:0:
329,192,94263,128,0,94789:0:0:0:0:
402,192,94473,1,0,0:0:0:0:
256,192,94579,1,0,0:0:0:0:
109,192,94789,1,0,0:0:0:0:
256,192,94894,128,0,95105:0:0:0:0:
182,192,94894,1,0,0:0:0:0:
402,192,94894,128,0,95105:0:0:0:0:
475,192,94894,128,0,95105:0:0:0:0:
475,192,95210,128,0,95421:0:0:0:0:
182,192,95210,1,0,0:0:0:0:
256,192,95210,128,0,95421:0:0:0:0:
402,192,95210,128,0,95421:0:0:0:0:
329,192,95526,128,0,96158:0:0:0:0:
109,192,95526,128,0,96158:0:0:0:0:
475,192,95526,128,0,96052:0:0:0:0:
402,192,95526,1,0,0:0:0:0:
182,192,95736,1,0,0:0:0:0:
256,192,95736,1,0,0:0:0:0:
36,192,95842,1,0,0:0:0:0:
256,192,96052,1,0,0:0:0:0:
475,192,96158,128,0,97315:0:0:0:0:
402,192,96158,1,0,0:0:0:0:
36,192,96158,128,0,98684:0:0:0:0:
182,192,96158,128,0,98684:0:0:0:0:
256,192,96473,1,0,0:0:0:0:
402,192,96789,1,0,0:0:0:0:
109,192,96789,1,0,0:0:0:0:
256,192,96789,1,0,0:0:0:0:
109,192,97000,128,0,97105:0:0:0:0:
329,192,97105,128,0,97315:0:0:0:0:
256,192,97315,128,0,97421:0:0:0:0:
402,192,97421,1,0,0:0:0:0:
329,192,97421,1,0,0:0:0:0:
475,192,97421,1,0,0:0:0:0:
256,192,97631,1,0,0:0:0:0:
402,192,97736,1,0,0:0:0:0:
329,192,97736,1,0,0:0:0:0:
475,192,97736,1,0,0:0:0:0:
109,192,97947,1,0,0:0:0:0:
475,192,98052,1,0,0:0:0:0:
402,192,98052,1,0,0:0:0:0:
256,192,98052,1,0,0:0:0:0:
475,192,98263,1,0,0:0:0:0:
402,192,98263,1,0,0:0:0:0:
329,192,98263,1,0,0:0:0:0:
256,192,98368,1,0,0:0:0:0:
402,192,98579,1,0,0:0:0:0:
109,192,98684,128,0,99947:0:0:0:0:
329,192,98684,1,0,0:0:0:0:
256,192,98684,128,0,99947:0:0:0:0:
475,192,98684,128,0,99842:0:0:0:0:
182,192,99000,1,0,0:0:0:0:
402,192,99210,1,0,0:0:0:0:
36,192,99315,1,0,0:0:0:0:
182,192,99315,1,0,0:0:0:0:
329,192,99315,1,0,0:0:0:0:
402,192,99526,1,0,0:0:0:0:
182,192,99631,1,0,0:0:0:0:
182,192,99842,1,0,0:0:0:0:
36,192,99947,1,0,0:0:0:0:
402,192,99947,1,0,0:0:0:0:
475,192,99947,128,0,100158:0:0:0:0:
329,192,99947,128,0,100158:0:0:0:0:
182,192,100158,128,0,100263:0:0:0:0:
36,192,100263,1,0,0:0:0:0:
109,192,100263,1,0,0:0:0:0:
475,192,100263,128,0,100473:0:0:0:0:
329,192,100263,128,0,100473:0:0:0:0:
182,192,100473,128,0,100579:0:0:0:0:
109,192,100579,1,0,0:0:0:0:
256,192,100579,1,0,0:0:0:0:
475,192,100579,128,0,100789:0:0:0:0:
329,192,100579,128,0,100789:0:0:0:0:
182,192,100789,128,0,100894:0:0:0:0:
402,192,100789,1,0,0:0:0:0:
36,192,100789,1,0,0:0:0:0:
256,192,100894,1,0,0:0:0:0:
475,192,100894,128,0,101105:0:0:0:0:
329,192,100894,128,0,101105:0:0:0:0:
256,192,101105,1,0,0:0:0:0:
182,192,101105,128,0,101210:0:0:0:0:
109,192,101210,1,0,0:0:0:0:
475,192,101210,128,0,102473:0:0:0:0:
329,192,101210,128,0,102473:0:0:0:0:
36,192,101210,1,0,0:0:0:0:
182,192,101526,1,0,0:0:0:0:
256,192,101842,1,0,0:0:0:0:
36,192,101842,1,0,0:0:0:0:
109,192,101842,1,0,0:0:0:0:
182,192,102052,1,0,0:0:0:0:
36,192,102158,1,0,0:0:0:0:
182,192,102368,1,0,0:0:0:0:
402,192,102473,1,0,0:0:0:0:
36,192,102473,1,0,0:0:0:0:
256,192,102473,128,0,105526:0:0:0:0:
329,192,102684,1,0,0:0:0:0:
402,192,102789,1,0,0:0:0:0:
36,192,102789,1,0,0:0:0:0:
182,192,103000,1,0,0:0:0:0:
36,192,103105,1,0,0:0:0:0:
475,192,103105,1,0,0:0:0:0:
329,192,103105,1,0,0:0:0:0:
402,192,103315,1,0,0:0:0:0:
109,192,103315,1,0,0:0:0:0:
329,192,103421,1,0,0:0:0:0:
329,192,103631,1,0,0:0:0:0:
402,192,103736,1,0,0:0:0:0:
109,192,103736,1,0,0:0:0:0:
36,192,103736,128,0,105526:0:0:0:0:
475,192,103736,128,0,105526:0:0:0:0:
109,192,104052,1,0,0:0:0:0:
402,192,104052,1,0,0:0:0:0:
402,192,104263,1,0,0:0:0:0:
182,192,104368,1,0,0:0:0:0:
329,192,104368,1,0,0:0:0:0:
109,192,104368,1,0,0:0:0:0:
329,192,104579,1,0,0:0:0:0:
182,192,104684,1,0,0:0:0:0:
329,192,104894,1,0,0:0:0:0:
109,192,105000,1,0,0:0:0:0:
402,192,105000,1,0,0:0:0:0:
402,192,105315,1,0,0:0:0:0:
109,192,105315,1,0,0:0:0:0:
475,192,105631,5,0,0:0:0:0:
256,192,105631,1,0,0:0:0:0:
36,192,105631,1,0,0:0:0:0:
329,192,105842,1,0,0:0:0:0:
182,192,105842,1,0,0:0:0:0:
256,192,105947,1,0,0:0:0:0:
256,192,106158,1,0,0:0:0:0:
182,192,106263,1,0,0:0:0:0:
475,192,106263,128,0,106894:0:0:0:0:
329,192,106473,128,0,106579:0:0:0:0:
36,192,106579,1,0,0:0:0:0:
256,192,106579,128,0,106894:0:0:0:0:
109,192,106789,128,0,106894:0:0:0:0:
182,192,106894,1,0,0:0:0:0:
36,192,107210,1,0,0:0:0:0:
182,192,107526,1,0,0:0:0:0:
475,192,107526,128,0,108158:0:0:0:0:
329,192,107736,128,0,107842:0:0:0:0:
36,192,107842,1,0,0:0:0:0:
256,192,107842,128,0,108158:0:0:0:0:
109,192,108052,128,0,108158:0:0:0:0:
182,192,108158,1,0,0:0:0:0:
36,192,108473,1,0,0:0:0:0:
182,192,108789,128,0,108894:0:0:0:0:
475,192,108789,1,0,0:0:0:0:
402,192,108789,128,0,109421:0:0:0:0:
36,192,109000,128,0,109105:0:0:0:0:
182,192,109105,1,0,0:0:0:0:
109,192,109105,128,0,109421:0:0:0:0:
256,192,109315,128,0,109421:0:0:0:0:
475,192,109421,1,0,0:0:0:0:
182,192,109736,1,0,0:0:0:0:
329,192,110052,128,0,110158:0:0:0:0:
402,192,110052,1,0,0:0:0:0:
475,192,110052,128,0,110684:0:0:0:0:
109,192,110263,128,0,110368:0:0:0:0:
36,192,110368,1,0,0:0:0:0:
182,192,110368,128,0,110684:0:0:0:0:
329,192,110579,128,0,110684:0:0:0:0:
402,192,110684,1,0,0:0:0:0:
256,192,110684,128,0,110789:0:0:0:0:
36,192,111000,1,0,0:0:0:0:
402,192,111315,1,0,0:0:0:0:
109,192,111315,128,0,111421:0:0:0:0:
475,192,111315,128,0,111947:0:0:0:0:
329,192,111526,128,0,111631:0:0:0:0:
36,192,111631,1,0,0:0:0:0:
182,192,111631,128,0,111947:0:0:0:0:
36,192,111842,128,0,111947:0:0:0:0:
402,192,111947,1,0,0:0:0:0:
36,192,112263,1,0,0:0:0:0:
402,192,112579,1,0,0:0:0:0:
36,192,112579,128,0,113210:0:0:0:0:
182,192,112789,128,0,112894:0:0:0:0:
109,192,112894,1,0,0:0:0:0:
475,192,112894,128,0,113210:0:0:0:0:
256,192,113105,128,0,113210:0:0:0:0:
402,192,113210,1,0,0:0:0:0:
109,192,113526,1,0,0:0:0:0:
36,192,113842,1,0,0:0:0:0:
475,192,113842,128,0,114473:0:0:0:0:
329,192,114052,128,0,114158:0:0:0:0:
182,192,114158,1,0,0:0:0:0:
256,192,114158,128,0,114473:0:0:0:0:
109,192,114368,128,0,114473:0:0:0:0:
36,192,114473,1,0,0:0:0:0:
182,192,114789,1,0,0:0:0:0:
36,192,115105,128,0,115736:0:0:0:0:
475,192,115105,1,0,0:0:0:0:
109,192,115315,128,0,115421:0:0:0:0:
329,192,115421,1,0,0:0:0:0:
256,192,115421,128,0,115736:0:0:0:0:
402,192,115631,128,0,115736:0:0:0:0:
475,192,115736,1,0,0:0:0:0:
109,192,115736,128,0,115947:0:0:0:0:
182,192,115947,128,0,116052:0:0:0:0:
329,192,116052,1,0,0:0:0:0:
256,192,116052,128,0,116263:0:0:0:0:
402,192,116263,128,0,116368:0:0:0:0:
182,192,116368,1,0,0:0:0:0:
475,192,116368,128,0,117000:0:0:0:0:
329,192,116579,128,0,116684:0:0:0:0:
36,192,116684,1,0,0:0:0:0:
256,192,116684,128,0,117000:0:0:0:0:
109,192,116894,128,0,117000:0:0:0:0:
182,192,117000,1,0,0:0:0:0:
36,192,117315,1,0,0:0:0:0:
182,192,117631,1,0,0:0:0:0:
475,192,117631,128,0,118263:0:0:0:0:
329,192,117842,128,0,117947:0:0:0:0:
36,192,117947,1,0,0:0:0:0:
256,192,117947,128,0,118263:0:0:0:0:
109,192,118158,128,0,118263:0:0:0:0:
182,192,118263,1,0,0:0:0:0:
36,192,118579,1,0,0:0:0:0:
182,192,118894,1,0,0:0:0:0:
36,192,118894,128,0,119000:0:0:0:0:
402,192,118894,128,0,119526:0:0:0:0:
182,192,119105,128,0,119210:0:0:0:0:
475,192,119210,1,0,0:0:0:0:
109,192,119210,128,0,119526:0:0:0:0:
256,192,119421,128,0,119526:0:0:0:0:
182,192,119526,1,0,0:0:0:0:
475,192,119842,1,0,0:0:0:0:
256,192,120158,1,0,0:0:0:0:
36,192,120158,128,0,120263:0:0:0:0:
475,192,120158,128,0,120789:0:0:0:0:
109,192,120368,128,0,120473:0:0:0:0:
402,192,120473,1,0,0:0:0:0:
182,192,120473,128,0,120789:0:0:0:0:
329,192,120684,128,0,120789:0:0:0:0:
36,192,120789,1,0,0:0:0:0:
256,192,120789,128,0,120894:0:0:0:0:
182,192,121105,1,0,0:0:0:0:
329,192,121421,128,0,121526:0:0:0:0:
475,192,121421,1,0,0:0:0:0:
402,192,121421,128,0,122052:0:0:0:0:
256,192,121631,128,0,121736:0:0:0:0:
182,192,121736,1,0,0:0:0:0:
109,192,121736,128,0,122052:0:0:0:0:
36,192,121947,128,0,122052:0:0:0:0:
475,192,122052,1,0,0:0:0:0:
182,192,122368,1,0,0:0:0:0:
475,192,122684,1,0,0:0:0:0:
256,192,122684,128,0,123315:0:0:0:0:
329,192,122894,128,0,123000:0:0:0:0:
36,192,123000,1,0,0:0:0:0:
109,192,123000,128,0,123315:0:0:0:0:
402,192,123210,128,0,123315:0:0:0:0:
475,192,123315,1,0,0:0:0:0:
36,192,123631,1,0,0:0:0:0:
329,192,123947,1,0,0:0:0:0:
36,192,123947,128,0,124579:0:0:0:0:
182,192,124158,128,0,124263:0:0:0:0:
475,192,124263,1,0,0:0:0:0:
256,192,124263,128,0,124579:0:0:0:0:
402,192,124473,128,0,124579:0:0:0:0:
329,192,124579,1,0,0:0:0:0:
475,192,124894,1,0,0:0:0:0:
329,192,125210,1,0,0:0:0:0:
36,192,125210,128,0,125842:0:0:0:0:
182,192,125421,128,0,125526:0:0:0:0:
475,192,125526,1,0,0:0:0:0:
256,192,125526,128,0,125842:0:0:0:0:
402,192,125736,128,0,125842:0:0:0:0:
329,192,125842,1,0,0:0:0:0:
475,192,126158,1,0,0:0:0:0:
329,192,126473,1,0,0:0:0:0:
475,192,126789,1,0,0:0:0:0:
329,192,127105,1,0,0:0:0:0:
475,192,127421,1,0,0:0:0:0:
329,192,127736,1,0,0:0:0:0:
475,192,128052,1,0,0:0:0:0:
402,192,128388,1,0,0:0:0:0:
256,192,128822,1,0,0:0:0:0:
