osu file format v14

[General]
AudioFilename: audio.mp3
AudioLeadIn: 0
PreviewTime: 39941
Countdown: 0
SampleSet: Soft
StackLeniency: 0.3
Mode: 0
LetterboxInBreaks: 0
WidescreenStoryboard: 1

[Editor]
Bookmarks: 20257,29737,30362,40468,60678,86257,90994,96047,99836,106152
DistanceSpacing: 1
BeatDivisor: 6
GridSize: 4
TimelineZoom: 3.799998

[Metadata]
Title:enchanted love
TitleUnicode:enchanted love
Artist:linear ring
ArtistUnicode:linear ring
Creator:[Hatsune Miku]
Version:captin's Special
Source:
Tags:captin1 Necho gary00737 Arcaea 百舌谷 mozuya BOFXVI Rhythm Game future hop emotional future bass THE BMS OF FIGHTERS XVI -NEO DYSTOPIA- sixteen 16 electronic instrumental glitch hop
BeatmapID:3055117
BeatmapSetID:1403832

[Difficulty]
HPDrainRate:5
CircleSize:4.5
OverallDifficulty:9
ApproachRate:9.3
SliderMultiplier:1.8
SliderTickRate:1

[Events]
//Background and Video events
Video,0,"video.mp4"
0,0,"enchanted love.jpg",0,0
//Break Periods
//Storyboard Layer 0 (Background)
//Storyboard Layer 1 (Fail)
//Storyboard Layer 2 (Pass)
//Storyboard Layer 3 (Foreground)
//Storyboard Layer 4 (Overlay)
//Storyboard Sound Samples

[TimingPoints]
99,315.789473684211,4,2,0,40,1,0
20309,-100,4,2,0,60,0,0
40204,-200,4,2,0,50,0,0
40520,-50,4,2,0,80,0,0
40835,-66.6666666666667,4,2,0,80,0,0
41783,-50,4,2,0,80,0,0
42414,-66.6666666666667,4,2,0,80,0,0
43046,-50,4,2,0,80,0,0
43362,-66.6666666666667,4,2,0,80,0,0
45572,-50,4,2,0,80,0,0
45888,-100,4,2,0,80,0,0
46204,-66.6666666666667,4,2,0,80,0,0
48730,-45.4545454545455,4,2,0,80,0,0
49046,-66.6666666666667,4,2,0,80,0,0
50204,-50,4,2,0,80,0,0
50941,-66.6666666666667,4,2,0,80,0,0
51888,-50,4,2,0,80,0,0
54414,-66.6666666666667,4,2,0,80,0,0
55888,-66.6666666666667,4,2,0,70,0,0
61677,-66.6666666666667,4,2,0,50,0,0
61993,-66.6666666666667,4,2,0,60,0,0
62309,-66.6666666666667,4,2,0,70,0,0
62625,-66.6666666666667,4,2,0,80,0,0
62941,-66.6666666666667,4,2,0,90,0,0
63256,-50,4,2,0,80,0,0
63572,-66.6666666666667,4,2,0,80,0,0
65783,-50,4,2,0,80,0,0
66309,-66.6666666666667,4,2,0,80,0,0
68941,-90.9090909090909,4,2,0,80,0,0
69888,-66.6666666666667,4,2,0,80,0,0
70204,-50,4,2,0,80,0,0
71467,-66.6666666666667,4,2,0,80,0,0
73362,-50,4,2,0,80,0,0
73993,-66.6666666666667,4,2,0,80,0,0
83467,-100,4,2,0,80,0,0
83783,-83.3333333333333,4,2,0,80,0,0
84099,-71.4285714285714,4,2,0,80,0,0
84414,-62.5,4,2,0,80,0,0
85993,-200,4,2,0,80,0,0
86309,-66.6666666666667,4,2,0,80,0,0
86941,-100,4,2,0,80,0,0
87256,-66.6666666666667,4,2,0,80,0,0
89467,-100,4,2,0,80,0,0
89783,-66.6666666666667,4,2,0,80,0,0
91993,-100,4,2,0,80,0,0
92309,-66.6666666666667,4,2,0,80,0,0
94204,-50,4,2,0,80,0,0
95677,-66.6666666666667,4,2,0,80,0,0
96099,-100,4,2,0,80,0,0
98625,-100,4,2,0,70,0,0
101151,-76.9230769230769,4,2,0,70,0,0
101993,-100,4,2,0,70,0,0
106204,-100,4,2,0,60,0,0

[Colours]
Combo1 : 0,204,199
Combo2 : 4,225,148
Combo3 : 170,244,217
Combo4 : 255,223,198

[HitObjects]
76,311,99,5,2,0:0:0:0:
189,159,309,1,0,0:0:0:0:
181,188,414,1,2,0:0:0:0:
63,231,625,1,2,0:0:0:0:
211,346,941,5,2,0:0:0:0:
196,276,1046,1,2,0:0:0:0:
301,362,1256,5,0,0:0:0:0:
307,334,1361,1,2,0:0:0:0:
476,298,1572,1,0,0:0:0:0:
449,288,1677,1,2,0:0:0:0:
324,249,1888,1,2,0:0:0:0:
421,358,2204,5,2,0:0:0:0:
488,380,2309,1,2,0:0:0:0:
391,204,2520,5,0,0:0:0:0:
419,212,2625,1,2,0:0:0:0:
474,117,2835,1,0,0:0:0:0:
502,125,2940,1,2,0:0:0:0:
367,44,3151,1,2,0:0:0:0:
494,197,3467,5,2,0:0:0:0:
477,267,3572,1,2,0:0:0:0:
324,116,3783,5,0,0:0:0:0:
330,144,3888,1,2,0:0:0:0:
240,32,4099,1,0,0:0:0:0:
234,60,4204,1,2,0:0:0:0:
184,144,4414,1,2,0:0:0:0:
50,78,4730,5,2,0:0:0:0:
142,57,4835,1,2,0:0:0:0:
216,234,5046,5,0,0:0:0:0:
184,229,5151,1,2,0:0:0:0:
99,164,5362,1,0,0:0:0:0:
67,169,5467,1,2,0:0:0:0:
177,327,5677,1,2,0:0:0:0:
23,239,5993,5,2,0:0:0:0:
8,310,6099,1,2,0:0:0:0:
173,152,6309,5,0,0:0:0:0:
167,125,6414,1,2,0:0:0:0:
315,214,6625,1,0,0:0:0:0:
322,190,6730,1,2,0:0:0:0:
260,108,6941,1,2,0:0:0:0:
221,283,7256,5,2,0:0:0:0:
242,188,7362,1,2,0:0:0:0:
386,144,7572,5,0,0:0:0:0:
382,114,7677,1,2,0:0:0:0:
493,26,7888,1,0,0:0:0:0:
488,54,7993,1,2,0:0:0:0:
369,34,8204,1,2,0:0:0:0:
479,146,8520,5,2,0:0:0:0:
469,217,8625,1,2,0:0:0:0:
393,274,8835,5,0,0:0:0:0:
407,301,8941,1,2,0:0:0:0:
317,361,9151,1,0,0:0:0:0:
331,334,9257,1,2,0:0:0:0:
254,276,9467,5,0,0:0:0:0:
262,289,9572,1,2,0:0:0:0:
206,362,9783,1,0,0:0:0:0:
214,349,9888,1,2,0:0:0:0:
118,308,10099,5,0,0:0:0:0:
147,298,10204,1,2,0:0:0:0:
274,157,10414,1,0,0:0:0:0:
269,187,10520,1,2,0:0:0:0:
159,217,10730,1,2,0:0:0:0:
342,177,11046,5,2,0:0:0:0:
329,107,11151,1,2,0:0:0:0:
236,94,11362,5,0,0:0:0:0:
246,66,11467,1,2,0:0:0:0:
383,35,11677,1,0,0:0:0:0:
376,6,11783,1,2,0:0:0:0:
421,163,11993,1,2,0:0:0:0:
256,164,12309,5,2,0:0:0:0:
186,148,12414,1,2,0:0:0:0:
160,9,12625,5,0,0:0:0:0:
166,38,12730,1,2,0:0:0:0:
38,107,12941,1,0,0:0:0:0:
44,136,13046,1,2,0:0:0:0:
174,219,13256,1,2,0:0:0:0:
26,292,13572,5,2,0:0:0:0:
31,303,13677,1,2,0:0:0:0:
96,195,13888,5,0,0:0:0:0:
91,224,13993,1,2,0:0:0:0:
217,298,14204,1,0,0:0:0:0:
223,327,14309,1,2,0:0:0:0:
371,346,14520,1,2,0:0:0:0:
149,271,14835,5,2,0:0:0:0:
134,342,14941,1,2,0:0:0:0:
305,306,15151,5,0,0:0:0:0:
310,276,15256,1,2,0:0:0:0:
229,192,15467,1,0,0:0:0:0:
257,186,15572,1,2,0:0:0:0:
402,245,15783,1,2,0:0:0:0:
506,160,16099,5,2,0:0:0:0:
436,175,16204,1,2,0:0:0:0:
238,110,16414,5,0,0:0:0:0:
308,125,16519,1,2,0:0:0:0:
481,235,16730,1,0,0:0:0:0:
476,264,16835,1,2,0:0:0:0:
287,199,17046,1,2,0:0:0:0:
392,109,17362,5,2,0:0:0:0:
384,37,17467,1,2,0:0:0:0:
224,123,17677,5,2,0:0:0:0:
232,51,17782,1,2,0:0:0:0:
110,56,17993,1,0,0:0:0:0:
124,83,18099,1,2,0:0:0:0:
18,106,18309,1,2,0:0:0:0:
183,206,18625,5,2,0:0:0:0:
158,190,18730,1,2,0:0:0:0:
89,310,18941,5,0,0:0:0:0:
83,280,19046,1,2,0:0:0:0:
81,142,19256,1,0,0:0:0:0:
76,171,19362,1,2,0:0:0:0:
194,109,19572,1,2,0:0:0:0:
281,27,19888,5,0,0:0:0:0:
267,98,19993,1,2,0:0:0:0:
288,355,20204,5,2,0:0:0:0:
185,295,20309,2,0,L|307:277,1,120,4|0,1:0|0:0,0:0:0:0:
314,241,20625,1,2,0:0:0:0:
412,345,20835,1,2,0:0:0:0:
246,143,21151,5,2,0:0:0:0:
224,211,21256,1,2,0:0:0:0:
122,123,21467,5,2,0:0:0:0:
144,55,21572,2,0,P|84:52|50:111,1,120,2|0,0:0|0:0,0:0:0:0:
23,169,21888,1,2,0:0:0:0:
219,74,22099,1,2,0:0:0:0:
75,229,22414,5,2,0:0:0:0:
148,223,22520,1,2,0:0:0:0:
290,67,22730,5,2,0:0:0:0:
347,171,22835,2,0,L|366:46,1,120,2|0,1:2|0:0,0:0:0:0:
434,39,23151,1,2,0:0:0:0:
271,186,23362,1,2,0:0:0:0:
425,155,23677,5,2,0:0:0:0:
441,225,23783,1,2,0:0:0:0:
256,261,23993,5,2,0:0:0:0:
272,332,24099,2,0,B|210:333|210:333|180:266,1,120,2|0,0:0|0:0,0:0:0:0:
177,246,24414,1,2,0:0:0:0:
280,360,24625,1,2,0:0:0:0:
78,248,24941,5,0,0:0:0:0:
126,161,25046,1,0,0:0:0:0:
336,289,25256,5,2,0:0:0:0:
290,196,25362,2,0,L|415:218,1,120,2|0,1:2|0:0,0:0:0:0:
468,172,25677,1,2,0:0:0:0:
245,132,25888,1,2,0:0:0:0:
416,35,26204,5,2,0:0:0:0:
441,102,26309,1,2,0:0:0:0:
220,199,26520,5,2,0:0:0:0:
245,132,26625,2,0,P|202:91|137:97,1,120,2|0,0:0|0:0,0:0:0:0:
114,166,26941,1,2,0:0:0:0:
316,126,27151,1,2,0:0:0:0:
93,40,27467,5,2,0:0:0:0:
38,146,27572,1,2,0:0:0:0:
131,348,27783,5,2,0:0:0:0:
91,237,27888,2,0,B|66:262|66:262|92:353,1,120,2|0,1:2|0:0,0:0:0:0:
263,384,28204,2,0,B|288:359|288:359|262:268,1,120,2|0,0:0|0:0,0:0:0:0:
226,263,28520,1,2,0:0:0:0:
99,142,28730,5,2,0:0:0:0:
162,174,28835,1,2,0:0:0:0:
420,123,29046,5,2,0:0:0:0:
357,155,29151,1,2,0:0:0:0:
176,95,29362,5,2,0:0:0:0:
203,109,29467,1,2,0:0:0:0:
357,73,29677,5,2,0:0:0:0:
330,87,29782,1,2,0:0:0:0:
257,33,29993,5,2,0:0:0:0:
260,18,30099,1,2,0:0:0:0:
264,207,30309,5,2,0:0:0:0:
246,360,30414,2,0,B|282:268|214:276|255:168,1,180,4|2,1:0|0:0,0:0:0:0:
380,13,31046,2,0,P|456:32|451:138,1,180,8|0,0:0|0:0,0:0:0:0:
322,231,31572,5,8,0:0:0:0:
329,200,31677,1,0,1:0:0:0:
156,99,31888,1,10,0:0:0:0:
168,125,31993,1,10,0:0:0:0:
410,200,32204,5,10,0:0:0:0:
242,171,32520,1,10,0:0:0:0:
109,274,32835,1,8,0:0:0:0:
22,286,32941,6,0,B|54:244|54:244|125:234,1,120,0|8,1:0|0:0,0:0:0:0:
82,60,33467,1,8,0:0:0:0:
99,312,33783,1,10,0:0:0:0:
96,340,33888,1,10,0:0:0:0:
34,132,34099,5,8,0:0:0:0:
26,163,34204,1,10,0:0:0:0:
208,66,34414,1,8,0:0:0:0:
218,95,34520,1,10,0:0:0:0:
88,221,34730,5,8,0:0:0:0:
70,246,34835,1,10,0:0:0:0:
291,141,35046,1,8,0:0:0:0:
309,166,35151,1,10,0:0:0:0:
231,339,35362,5,8,0:0:0:0:
137,293,35467,2,0,P|195:303|258:306,1,120,0|8,1:0|0:0,0:0:0:0:
444,337,35783,2,0,P|384:339|325:350,1,120,8|8,0:0|0:0,0:0:0:0:
151,201,36099,6,0,B|204:224|204:224|274:212,1,120,0|8,1:0|0:0,0:0:0:0:
452,242,36414,2,0,B|399:265|399:265|329:253,1,120,8|8,0:0|0:0,0:0:0:0:
201,138,36730,6,0,B|184:99|166:84|166:84|191:76|214:40,1,120,0|8,1:0|0:0,0:0:0:0:
395,106,37046,2,0,B|412:145|430:160|430:160|405:168|382:204,1,120,8|8,0:0|0:0,0:0:0:0:
282,202,37362,5,0,1:0:0:0:
290,148,37467,1,8,0:0:0:0:
298,94,37572,1,8,0:0:0:0:
307,40,37677,1,8,0:0:0:0:
93,164,37888,5,8,0:0:0:0:
89,134,37993,5,0,1:0:0:0:
141,146,38099,1,8,0:0:0:0:
164,194,38204,1,8,0:0:0:0:
138,309,38309,5,0,1:0:0:0:
103,268,38415,1,8,0:0:0:0:
113,216,38520,1,8,0:0:0:0:
201,138,38624,5,0,1:0:0:0:
205,191,38730,1,8,0:0:0:0:
168,228,38835,1,8,0:0:0:0:
49,239,38940,5,0,1:0:0:0:
77,192,39046,1,8,0:0:0:0:
129,185,39151,1,8,0:0:0:0:
231,246,39256,5,0,1:0:0:0:
182,267,39362,1,8,0:0:0:0:
135,243,39467,1,8,0:0:0:0:
128,114,39572,5,0,1:0:0:0:
129,89,39678,1,8,0:0:0:0:
130,63,39783,1,8,0:0:0:0:
201,16,39888,5,0,1:0:0:0:
476,97,40099,5,2,0:0:0:0:
458,69,40204,2,0,B|423:71|435:88|400:93,1,60,2|2,0:0|0:0,0:0:0:0:
290,20,40520,6,2,B|358:24|381:111|338:104|345:184|443:190,1,240,4|0,1:2|0:0,0:1:0:0:
508,236,40835,6,0,B|475:227|464:217|464:217|469:234|458:261,1,90,2|0,0:0|0:0,0:0:0:0:
336,341,41046,1,0,0:0:0:0:
460,328,41151,6,0,P|390:318|283:284,1,180.000006866455,8|0,1:0|0:0,0:0:0:0:
221,323,41467,1,2,0:0:0:0:
285,163,41677,1,2,0:0:0:0:
362,240,41783,6,2,B|294:265|294:265|216:191|216:191|141:216,1,240,4|0,1:2|0:0,0:1:0:0:
34,234,42099,5,2,0:0:0:0:
91,168,42204,1,2,0:0:0:0:
120,250,42309,1,2,0:0:0:0:
12,147,42414,6,0,B|19:199|19:199|9:221|9:221|23:242|23:242|37:336,1,180.000006866455,8|0,1:0|1:0,0:0:0:0:
126,369,42730,1,2,0:0:0:0:
121,349,42835,1,2,0:3:0:0:
118,330,42941,1,2,0:3:0:0:
186,282,43046,6,2,L|150:40,1,240,4|0,1:2|0:0,0:1:0:0:
87,81,43362,6,0,B|53:89|43:104|43:104|40:76|19:48,1,90.0000034332277,2|0,0:0|0:0,0:0:0:0:
214,19,43572,1,2,0:0:0:0:
267,146,43677,5,8,1:0:0:0:
204,98,43783,1,2,0:3:0:0:
275,66,43888,1,2,0:3:0:0:
194,176,43993,5,2,0:0:0:0:
191,195,44099,1,2,0:0:0:0:
188,214,44204,1,2,0:0:0:0:
263,294,44309,6,2,B|314:301|356:259|325:243|372:213|426:222,1,180.000006866455,4|0,1:2|0:0,0:1:0:0:
263,221,44625,2,2,B|314:214|356:256|325:272|372:302|426:293,1,180.000006866455,4|0,1:2|0:0,0:1:0:0:
480,171,44941,6,0,L|472:123,1,45.0000017166138,8|0,1:0|0:0,0:0:0:0:
441,140,45046,2,0,L|433:92,1,45.0000017166138,2|0,0:0|0:0,0:0:0:0:
402,109,45151,2,0,L|394:61,1,45.0000017166138,2|0,1:2|0:0,0:0:0:0:
448,23,45256,5,2,0:3:0:0:
394,47,45362,1,2,0:3:0:0:
340,69,45467,1,2,0:0:0:0:
243,23,45572,6,2,B|283:-2|327:22|338:84|278:118|278:118|308:141|304:184,1,240,4|0,1:2|0:0,0:1:0:0:
154,142,45888,6,0,B|176:167|172:193|172:193|194:172|235:173,1,120,2|0,0:0|0:0,0:0:0:0:
231,384,46204,6,0,P|185:346|229:245,1,180.000006866455,8|0,1:0|0:0,0:0:0:0:
342,325,46520,1,2,0:0:0:0:
370,315,46625,1,2,0:0:0:0:
399,309,46730,1,2,0:0:0:0:
306,250,46835,6,2,B|328:276|328:276|402:270|472:293,1,180.000006866455,4|0,1:2|0:0,0:1:0:0:
231,172,47151,2,2,B|196:171|196:171|144:211|57:220,1,180.000006866455,4|0,1:2|0:0,0:1:0:0:
133,124,47467,5,8,1:0:0:0:
126,190,47572,1,2,0:3:0:0:
72,150,47677,1,2,1:2:0:0:
117,262,47783,5,2,0:3:0:0:
171,302,47888,1,2,0:3:0:0:
110,328,47993,1,2,0:0:0:0:
183,232,48099,6,2,B|277:238|246:301|344:303,1,180.000006866455,0|0,1:0|0:0,0:1:0:0:
415,269,48414,1,2,0:0:0:0:
234,345,48625,1,2,0:0:0:0:
325,229,48730,6,2,B|290:196|309:148|366:126|434:190|391:216|458:262|523:214,1,264.000008056641,8|0,1:0|0:0,0:1:0:0:
475,152,49046,2,0,P|478:222|494:355,1,180.000006866455,2|0,0:0|0:0,0:0:0:0:
342,302,49362,6,2,B|290:304|254:332|254:332|254:284|229:251,1,180.000006866455,0|0,1:0|0:0,0:1:0:0:
93,213,49677,2,2,B|118:180|118:132|118:132|154:160|205:162,1,180.000006866455,0|0,1:0|0:0,0:1:0:0:
290,134,49993,5,8,1:0:0:0:
98,60,50204,2,2,B|127:49|142:29|142:29|198:77|168:184|79:143|67:218|91:289|159:265,1,360,0|0,1:0|0:0,0:1:0:0:
206,204,50625,6,2,P|116:190|88:325,1,240,4|0,1:2|0:0,0:1:0:0:
154,355,50941,6,0,B|192:348|192:348|198:338|198:338|245:326,1,90.0000034332277,2|0,0:0|0:0,0:0:0:0:
436,267,51151,1,2,0:0:0:0:
420,384,51256,6,0,L|410:335,1,45.0000017166138,8|0,1:0|0:0,0:0:0:0:
380,355,51362,2,0,L|370:306,1,45.0000017166138,2|0,0:3|0:0,0:0:0:0:
340,326,51467,2,0,L|330:277,1,45.0000017166138,2|0,0:3|0:0,0:0:0:0:
357,174,51572,5,2,0:3:0:0:
399,209,51677,1,2,0:0:0:0:
441,244,51783,1,2,0:0:0:0:
266,255,51888,6,2,B|292:289|292:289|316:84,1,240,4|0,1:2|0:0,0:1:0:0:
399,23,52204,5,2,0:0:0:0:
410,95,52309,1,2,0:0:0:0:
468,50,52414,1,2,0:0:0:0:
341,72,52520,5,8,1:0:0:0:
341,72,52625,2,0,B|290:39|290:39|221:55,1,120,2|0,0:0|1:0,0:0:0:0:
45,80,52835,5,2,0:0:0:0:
99,115,52940,1,2,0:0:0:0:
163,100,53045,1,2,0:0:0:0:
112,36,53151,6,2,P|135:139|147:298,1,240,4|0,1:2|0:0,0:1:0:0:
283,320,53467,5,2,0:3:0:0:
219,300,53572,1,2,0:3:0:0:
235,365,53677,1,2,0:0:0:0:
269,251,53783,5,8,1:0:0:0:
317,206,53888,1,2,0:3:0:0:
253,186,53993,1,2,0:0:0:0:
338,273,54099,5,2,0:3:0:0:
354,338,54204,1,2,0:3:0:0:
402,293,54309,1,2,0:0:0:0:
283,320,54414,6,0,P|243:326|186:347,1,90.0000034332277,2|0,1:0|0:0,0:0:0:0:
77,212,54625,1,2,0:0:0:0:
16,270,54730,6,0,P|60:277|102:292,1,90.0000034332277,2|0,1:0|0:0,0:0:0:0:
192,128,54941,1,2,0:0:0:0:
253,186,55046,6,0,P|208:193|166:208,2,90.0000034332277,8|0|0,1:0|0:0|1:0,0:0:0:0:
118,122,55362,5,2,0:0:0:0:
157,63,55467,1,2,0:0:0:0:
228,67,55572,1,2,0:0:0:0:
139,32,55677,6,0,B|100:25|100:25|91:27|91:27|49:19,1,90.0000034332277,4|2,1:0|0:3,0:0:0:0:
283,120,55888,5,2,0:3:0:0:
362,161,55993,1,2,0:3:0:0:
425,97,56099,1,2,0:3:0:0:
385,17,56204,1,2,0:3:0:0:
296,31,56309,1,2,0:3:0:0:
259,209,56520,5,8,0:0:0:0:
271,295,56625,1,8,0:0:0:0:
129,268,56835,5,0,0:0:0:0:
59,231,56940,1,0,1:0:0:0:
3,286,57046,1,2,0:3:0:0:
38,357,57151,1,2,0:3:0:0:
117,344,57256,5,2,0:3:0:0:
124,281,57362,1,2,0:3:0:0:
68,253,57467,1,2,0:3:0:0:
23,297,57573,1,2,0:3:0:0:
285,284,57783,5,8,0:0:0:0:
274,223,57888,1,8,0:0:0:0:
418,59,58099,5,0,0:0:0:0:
375,1,58204,1,0,1:0:0:0:
342,43,58309,1,2,0:3:0:0:
355,95,58414,1,2,0:3:0:0:
295,121,58520,5,2,0:3:0:0:
317,160,58625,1,2,0:3:0:0:
361,164,58730,1,2,0:3:0:0:
409,212,58835,5,2,0:3:0:0:
433,185,58941,1,2,0:3:0:0:
428,149,59046,1,2,0:3:0:0:
460,90,59151,5,2,0:3:0:0:
436,77,59256,1,2,0:3:0:0:
410,85,59362,1,2,0:3:0:0:
351,59,59467,5,2,0:3:0:0:
340,73,59572,1,2,0:3:0:0:
345,90,59677,1,2,0:3:0:0:
334,158,59783,5,2,0:3:0:0:
341,162,59888,1,2,0:3:0:0:
349,160,59993,1,2,0:3:0:0:
389,101,60099,5,8,0:2:0:0:
334,342,60309,5,8,0:0:0:0:
494,326,60414,1,8,0:1:0:0:
484,354,60730,6,0,P|375:326|249:315,1,225.000008583069,4|0,1:0|0:0,0:0:0:0:
208,360,61046,2,0,B|189:342|178:343|178:343|199:325|197:290,1,90.0000034332277,2|2,0:0|0:0,0:0:0:0:
137,102,61362,5,8,0:1:0:0:
137,102,61677,5,2,0:0:0:0:
146,88,61783,1,2,0:0:0:0:
164,86,61888,1,2,0:0:0:0:
185,94,61994,1,2,0:0:0:0:
205,120,62099,1,2,0:0:0:0:
200,161,62204,1,2,0:0:0:0:
174,195,62310,1,2,0:0:0:0:
121,211,62415,1,2,0:0:0:0:
64,183,62520,1,2,0:0:0:0:
40,117,62625,1,2,0:0:0:0:
68,48,62731,1,2,0:0:0:0:
136,8,62835,1,2,0:0:0:0:
215,27,62941,1,2,0:0:0:0:
278,89,63046,1,2,0:0:0:0:
277,196,63151,1,2,0:0:0:0:
181,259,63256,6,2,B|111:262|91:190|151:172|130:91|60:96,1,240,4|0,1:2|0:0,0:1:0:0:
17,226,63572,6,0,B|20:202|4:184|4:184|20:185|49:168,1,90.0000034332277,0|0,1:0|0:0,0:0:0:0:
201,123,63783,1,2,0:3:0:0:
186,28,63888,6,0,B|144:38|144:38|120:183,1,180.000006866455,8|8,1:0|0:0,0:0:0:0:
70,339,64204,6,0,P|58:322|34:312,1,45.0000017166138,2|2,0:0|0:0,0:0:0:0:
256,277,64414,1,2,0:0:0:0:
148,270,64520,6,2,P|173:328|298:326,1,180.000006866455,4|0,1:2|0:0,0:1:0:0:
459,219,64835,2,2,P|434:277|309:275,1,180.000006866455,4|0,1:2|0:0,0:1:0:0:
306,221,65151,5,8,0:1:0:0:
312,162,65256,1,2,0:0:0:0:
318,103,65362,1,0,1:0:0:0:
356,166,65467,5,2,0:0:0:0:
288,151,65572,1,2,0:0:0:0:
334,99,65677,1,2,0:3:0:0:
306,221,65783,6,2,B|246:262|169:209|197:193|222:179|158:106|100:72|21:135|58:204,1,360.000013732911,4|0,1:2|0:0,0:1:0:0:
312,300,66309,5,2,0:0:0:0:
166,343,66414,2,2,B|261:349|272:234|191:259|218:149|300:150,1,270.000010299683,8|0,1:0|0:0,0:1:0:0:
91,22,66941,5,2,0:0:0:0:
25,72,67046,2,0,P|62:120|185:85,1,180.000006866455,0|0,1:0|0:0,0:0:0:0:
318,74,67362,5,0,1:0:0:0:
273,35,67467,1,2,0:0:0:0:
219,54,67572,1,2,0:0:0:0:
194,170,67677,5,8,1:0:0:0:
239,209,67782,1,2,0:0:0:0:
293,190,67887,1,2,1:2:0:0:
259,112,67993,5,2,0:0:0:0:
248,119,68099,1,2,0:0:0:0:
260,124,68204,1,2,0:0:0:0:
239,209,68309,6,2,B|214:284|319:302|272:382|272:382|220:371|236:317,1,270.000010299683,0|0,1:0|0:0,0:1:0:0:
172,286,68835,5,2,0:0:0:0:
311,231,68941,2,2,P|374:248|454:256,1,132.00000402832,8|0,1:0|0:0,0:1:0:0:
499,209,69256,1,2,0:0:0:0:
325,160,69467,5,0,1:0:0:0:
302,24,69572,2,2,B|303:67|284:97|284:97|310:83|347:90,1,132.00000402832,0|0,1:0|0:0,0:1:0:0:
479,38,69888,6,2,B|434:56|381:26|381:26|418:54|410:107,1,180.000006866455,0|0,1:0|0:0,0:1:0:0:
207,82,70204,6,2,P|141:62|226:52,1,240,8|0,1:1|0:0,0:1:0:0:
241,156,70520,2,0,B|233:209|233:209|224:220|224:220|214:293,1,120,0|0,1:0|0:0,0:0:0:0:
159,320,70730,5,0,1:0:0:0:
289,290,70835,2,2,P|221:284|33:245,1,240,4|0,1:2|0:0,0:1:0:0:
122,188,71151,5,2,0:0:0:0:
49,152,71256,1,2,0:0:0:0:
116,108,71362,1,2,0:0:0:0:
55,234,71467,6,0,P|100:219|167:211,1,90.0000034332277,10|0,1:0|0:0,0:0:0:0:
253,249,71677,1,2,0:0:0:0:
183,147,71783,6,0,P|226:158|267:176,2,90.0000034332277,2|0|0,0:1|0:0|0:0,0:0:0:0:
0,89,72099,6,0,B|4:48|4:48|-2:40|-2:40|2:-12,2,90.0000034332277,0|0|0,1:0|0:0|0:0,0:0:0:0:
71,22,72414,1,0,1:0:0:0:
89,27,72520,1,2,0:0:0:0:
107,31,72625,1,2,0:0:0:0:
116,108,72730,6,0,P|163:89|217:84,1,90.0000034332277,10|0,1:0|0:0,0:0:0:0:
374,143,72941,1,0,1:0:0:0:
450,83,73046,2,2,B|402:61|336:81|368:109|327:135|258:113,1,180.000006866455,2|0,0:0|0:0,0:1:0:0:
222,0,73362,6,2,B|327:23|313:181|217:141|226:285|345:286,1,360,4|0,1:2|0:0,0:1:0:0:
508,319,73888,5,2,0:0:0:0:
401,244,73993,2,0,P|457:265|460:373,1,180.000006866455,8|0,1:0|0:0,0:0:0:0:
317,302,74309,2,2,P|251:307|167:329,1,135.000005149842,2|0,0:0|0:0,0:1:0:0:
165,347,74520,5,0,1:0:0:0:
47,259,74625,2,0,P|99:271|140:277,1,90.0000034332277,2|0,1:0|0:0,0:0:0:0:
205,244,74835,5,0,0:0:0:0:
87,156,74940,2,0,P|139:168|180:174,1,90.0000034332277,2|0,1:0|0:0,0:0:0:0:
295,288,75151,5,2,0:0:0:0:
413,200,75256,2,0,P|361:212|320:218,1,90.0000034332277,10|0,1:0|0:0,0:0:0:0:
255,185,75466,5,2,0:0:0:0:
373,97,75572,2,0,P|321:109|280:115,1,90.0000034332277,2|0,1:0|0:0,0:0:0:0:
190,51,75783,5,0,1:0:0:0:
193,38,75888,5,2,1:3:0:0:
202,62,75993,1,2,0:3:0:0:
176,56,76099,1,2,0:3:0:0:
216,17,76204,5,2,0:3:0:0:
213,85,76309,1,2,0:3:0:0:
155,48,76414,1,2,0:3:0:0:
190,51,76520,5,8,0:1:0:0:
224,238,76730,5,8,1:2:0:0:
237,171,76835,1,8,0:0:0:0:
329,309,77046,5,2,0:3:0:0:
332,322,77151,5,2,1:3:0:0:
341,298,77256,1,2,0:3:0:0:
315,304,77362,1,2,0:3:0:0:
355,343,77467,5,2,1:3:0:0:
352,275,77572,1,2,0:3:0:0:
294,312,77677,1,2,0:3:0:0:
329,309,77783,5,8,0:0:0:0:
344,168,77993,5,8,1:2:0:0:
271,158,78099,1,8,0:2:0:0:
56,221,78309,5,2,0:3:0:0:
103,234,78414,5,2,1:3:0:0:
151,247,78520,1,2,0:3:0:0:
197,261,78625,1,2,0:3:0:0:
170,229,78730,5,2,0:3:0:0:
137,238,78835,1,2,0:3:0:0:
104,247,78941,1,2,0:3:0:0:
71,257,79046,5,8,0:0:0:0:
233,79,79256,5,8,0:2:0:0:
246,146,79361,1,8,0:2:0:0:
342,80,79572,5,2,0:3:0:0:
389,67,79677,5,2,1:3:0:0:
437,54,79783,1,2,0:3:0:0:
483,40,79888,1,2,0:3:0:0:
456,72,79993,5,2,1:3:0:0:
423,63,80098,1,2,0:3:0:0:
390,54,80204,1,2,0:3:0:0:
357,44,80309,5,8,0:0:0:0:
182,180,80520,5,8,0:2:0:0:
255,190,80626,1,8,1:2:0:0:
454,342,80835,5,0,1:0:0:0:
482,294,80941,5,2,1:3:0:0:
464,291,81046,1,2,0:3:0:0:
446,288,81151,1,2,0:3:0:0:
428,285,81256,1,2,0:3:0:0:
410,282,81362,1,2,0:3:0:0:
392,279,81467,1,2,0:3:0:0:
380,225,81572,5,2,1:3:0:0:
356,274,81677,5,2,0:3:0:0:
337,271,81783,1,2,0:3:0:0:
319,269,81888,1,2,0:3:0:0:
301,267,81993,1,2,0:3:0:0:
282,265,82099,1,2,0:3:0:0:
258,314,82204,5,2,1:3:0:0:
246,261,82309,5,2,0:3:0:0:
228,259,82414,1,2,0:3:0:0:
209,256,82520,1,2,0:3:0:0:
191,254,82625,1,2,0:3:0:0:
173,252,82730,1,2,0:3:0:0:
161,199,82835,5,2,1:3:0:0:
137,248,82941,5,2,0:3:0:0:
119,246,83046,1,2,0:3:0:0:
101,244,83151,1,2,0:3:0:0:
83,242,83256,1,2,0:3:0:0:
64,240,83362,1,2,0:3:0:0:
24,281,83467,6,0,B|29:310|29:310|26:320|26:320|30:365,2,60,2|2|2,0:3|0:3|0:3,0:3:0:0:
133,161,83783,6,0,B|127:129|127:129|130:118|130:118|125:70,2,71.9999978027344,2|2|2,1:3|0:3|0:3,0:3:0:0:
274,286,84099,6,0,B|280:322|280:322|275:334|275:334|281:391,2,83.9999974365235,2|2|2,1:3|0:3|0:3,0:3:0:0:
408,153,84414,6,0,B|400:113|400:113|404:99|404:99|399:37,2,96,2|2|2,1:3|0:3|0:3,0:3:0:0:
378,231,84730,5,2,1:3:0:0:
327,281,84835,1,2,1:3:0:0:
255,294,84941,1,2,1:3:0:0:
191,261,85046,1,2,1:3:0:0:
162,195,85151,1,2,1:3:0:0:
185,126,85256,1,2,1:3:0:0:
243,82,85362,1,2,1:3:0:0:
313,94,85467,1,2,1:3:0:0:
333,162,85572,1,2,1:3:0:0:
274,202,85677,5,2,1:3:0:0:
274,202,85993,6,0,B|265:170|281:174|273:135,1,60,2|0,0:0|0:0,0:0:0:0:
295,68,86309,6,2,B|245:51|197:84|227:116|180:144|130:131,1,180.000006866455,4|0,1:2|0:0,0:1:0:0:
75,87,86625,1,8,1:0:0:0:
95,284,86835,5,2,0:0:0:0:
176,331,86941,2,0,P|175:284|152:194,1,120,2|0,0:0|0:0,0:0:0:0:
17,209,87256,6,2,P|22:298|47:384,1,180.000006866455,0|0,1:0|0:0,0:1:0:0:
240,167,87572,2,2,P|265:253|270:342,1,180.000006866455,0|0,1:0|0:0,0:1:0:0:
447,330,87888,5,8,1:0:0:0:
397,297,87993,1,2,0:0:0:0:
340,311,88099,1,0,1:0:0:0:
390,344,88204,5,2,0:0:0:0:
399,284,88309,1,2,0:0:0:0:
409,225,88414,1,2,0:0:0:0:
491,156,88520,6,2,P|476:198|266:209,1,270.000010299683,0|0,1:0|0:0,0:1:0:0:
145,68,89046,5,2,0:0:0:0:
87,120,89151,2,0,P|97:149|244:157,1,180.000006866455,8|0,1:0|0:0,0:0:0:0:
296,151,89467,6,0,B|284:91|254:113|245:42,1,120,2|0,0:0|0:0,0:0:0:0:
311,9,89783,6,2,B|361:-1|410:36|371:55|407:99|484:85,1,180.000006866455,0|0,1:0|0:0,0:1:0:0:
233,120,90099,2,2,B|183:130|134:93|173:74|137:30|60:44,1,180.000006866455,0|0,1:0|0:0,0:1:0:0:
37,231,90414,5,8,1:0:0:0:
91,242,90520,1,2,0:0:0:0:
139,210,90625,1,0,1:0:0:0:
86,113,90730,5,2,0:3:0:0:
73,137,90835,1,2,0:0:0:0:
80,164,90941,1,2,0:0:0:0:
212,204,91046,6,2,B|219:293|154:274|145:348|145:348|162:372,1,180.000006866455,0|0,1:0|0:0,0:1:0:0:
224,348,91362,1,2,0:0:0:0:
423,179,91677,6,0,P|362:161|285:246,1,180.000006866455,8|0,1:0|0:0,0:0:0:0:
435,336,91993,6,0,B|416:278|381:303|369:234,1,120,2|0,0:0|0:0,0:0:0:0:
229,109,92309,6,2,B|277:111|313:74|313:74|302:118|340:166,1,180.000006866455,0|0,1:0|0:0,0:1:0:0:
500,50,92625,2,2,B|452:52|416:15|416:15|427:59|389:107,1,180.000006866455,0|0,1:0|0:0,0:1:0:0:
262,183,92941,5,8,1:0:0:0:
225,238,93046,1,2,0:3:0:0:
293,241,93151,1,2,1:2:0:0:
194,180,93256,5,2,0:3:0:0:
126,177,93361,1,2,0:3:0:0:
157,235,93467,1,2,0:0:0:0:
231,122,93572,6,2,P|162:130|46:152,1,180.000006866455,0|0,1:0|0:0,0:1:0:0:
20,80,93888,1,0,1:0:0:0:
121,324,94099,5,2,0:0:0:0:
48,359,94204,2,2,B|62:279|152:283|129:324|234:315|221:228,1,240,10|0,1:0|0:0,0:1:0:0:
191,173,94520,2,0,B|155:148|91:212|142:291|190:239|221:301|189:368,1,240,2|0,0:0|0:0,0:0:0:0:
63,264,94835,6,2,P|126:280|336:298,1,240,0|0,1:0|0:0,0:1:0:0:
496,343,95151,2,2,B|453:401|387:395|355:351|355:351|382:320|372:263,1,240,0|0,1:0|0:0,0:1:0:0:
322,224,95467,1,8,1:0:0:0:
277,371,95677,6,2,B|249:302|292:237|326:284|395:206|332:122,1,270.000010299683,0|0,1:0|0:0,0:1:0:0:
189,58,96099,6,2,P|178:135|279:177,1,180,4|0,1:2|0:0,0:1:0:0:
488,91,96730,5,8,1:0:0:0:
385,18,96941,1,2,0:0:0:0:
394,47,97046,1,2,0:0:0:0:
340,135,97256,1,2,0:0:0:0:
279,81,97362,6,2,P|223:98|152:107,1,120,0|0,1:0|0:0,0:1:0:0:
27,204,97677,2,2,P|83:187|154:178,1,120,0|0,1:0|0:0,0:1:0:0:
102,65,97993,5,8,1:0:0:0:
217,200,98204,1,0,1:0:0:0:
217,200,98309,2,0,B|218:273|182:254|177:329,1,120,2|0,0:0|0:0,0:0:0:0:
256,328,98625,6,2,B|209:360|125:331|161:277|83:241|21:285|13:355|69:375,1,300,0|0,1:0|0:0,0:1:0:0:
92,379,99256,5,8,1:0:0:0:
132,211,99467,1,2,0:0:0:0:
127,178,99572,1,2,0:0:0:0:
300,226,99783,5,2,0:0:0:0:
347,281,99888,2,0,P|384:266|412:258,1,60,2|0,1:0|0:0,0:0:0:0:
508,150,100099,5,2,0:0:0:0:
461,205,100204,2,0,P|424:190|396:182,1,60,2|0,1:0|0:0,0:0:0:0:
196,117,100414,5,2,0:0:0:0:
243,172,100519,2,0,P|280:157|308:149,1,60,10|0,1:0|0:0,0:0:0:0:
404,41,100730,5,0,1:0:0:0:
357,96,100835,2,0,P|320:81|292:73,1,60,2|0,0:1|0:0,0:0:0:0:
218,26,101046,5,2,0:0:0:0:
218,26,101151,2,0,B|153:3|112:45|144:66|80:157|6:160|-48:114|-54:4|23:-34|96:-24|135:63|88:86|142:131|193:119,1,467.999978576661,2|8,1:0|0:0,0:0:0:0:
208,208,101993,5,2,0:0:0:0:
208,208,102099,2,0,P|149:193|77:187,1,120,2|0,0:0|0:0,0:0:0:0:
96,366,102414,6,0,P|138:322|179:263,1,120,0|0,1:0|0:0,0:0:0:0:
15,190,102730,2,0,P|31:248|62:313,1,120,0|0,1:0|0:0,0:0:0:0:
196,375,103046,5,8,1:2:0:0:
286,233,103256,1,0,1:0:0:0:
286,233,103362,2,0,P|329:218|418:206,1,120,2|0,0:0|0:0,0:0:0:0:
512,146,103677,6,0,B|462:144|433:183|433:183|443:132|413:97,1,180,0|0,1:0|1:0,0:0:0:0:
265,211,104204,5,2,0:0:0:0:
302,135,104309,2,0,P|323:179|283:234,1,120,8|0,1:2|0:0,0:0:0:0:
194,215,104625,2,0,P|173:171|213:116,1,120,2|0,0:0|0:0,0:0:0:0:
348,69,104941,5,0,1:0:0:0:
235,39,105256,1,0,1:0:0:0:
127,75,105572,5,8,1:2:0:0:
47,58,105783,1,0,1:0:0:0:
25,145,106204,5,2,0:0:0:0:
106,162,106414,1,0,0:0:0:0:
137,168,106520,1,2,0:0:0:0:
183,240,106730,1,2,0:0:0:0:
0,226,107467,5,0,0:0:0:0:
80,243,107677,1,0,0:0:0:0:
111,249,107783,1,2,0:0:0:0:
156,321,107993,1,2,0:0:0:0:
295,366,108730,5,2,0:0:0:0:
245,288,108941,1,0,0:0:0:0:
249,261,109046,1,2,0:0:0:0:
318,205,109256,1,2,0:0:0:0:
173,201,109993,5,0,0:0:0:0:
223,123,110204,1,0,0:0:0:0:
219,96,110309,1,2,0:0:0:0:
150,40,110519,1,2,0:0:0:0:
441,118,111256,5,0,0:0:0:0:
360,101,111466,1,0,0:0:0:0:
329,95,111572,1,2,0:0:0:0:
283,23,111782,1,2,0:0:0:0:
228,226,112520,5,2,0:0:0:0:
301,180,112730,1,0,0:0:0:0:
332,186,112836,1,2,0:0:0:0:
413,203,113046,1,2,0:0:0:0:
504,312,113783,5,2,0:0:0:0:
431,358,113993,1,0,0:0:0:0:
400,352,114099,1,2,0:0:0:0:
319,335,114309,1,2,0:0:0:0:
212,180,115046,5,2,0:0:0:0:
332,139,115256,1,0,0:0:0:0:
345,110,115362,1,2,0:0:0:0:
188,78,115572,1,0,0:0:0:0:
175,49,115677,1,2,0:0:0:0:
296,38,115888,1,0,0:0:0:0:
293,23,115993,1,2,0:0:0:0:
212,180,116204,5,0,0:0:0:0:
239,195,116309,1,2,0:0:0:0:
322,244,116520,1,0,0:0:0:0:
318,276,116625,1,2,0:0:0:0:
240,328,116835,1,2,0:0:0:0:
378,191,117572,5,2,0:0:0:0:
461,240,117783,1,0,0:0:0:0:
457,272,117888,1,2,0:0:0:0:
379,324,118098,1,2,0:0:0:0:
194,261,118835,5,2,0:0:0:0:
113,278,119045,1,0,0:0:0:0:
82,284,119151,1,2,0:0:0:0:
36,356,119361,1,2,0:0:0:0:
178,138,120099,5,2,0:0:0:0:
97,155,120309,1,0,0:0:0:0:
66,161,120415,1,2,0:0:0:0:
20,233,120625,1,2,0:0:0:0:
46,35,121362,5,2,0:0:0:0:
140,55,121572,1,0,0:0:0:0:
169,62,121677,1,2,0:0:0:0:
262,81,121888,1,2,0:0:0:0:
240,2,122625,5,2,0:0:0:0:
334,22,122835,1,0,0:0:0:0:
363,29,122940,1,2,0:0:0:0:
456,48,123151,1,2,0:0:0:0:
309,224,123888,5,2,0:0:0:0:
249,163,124099,1,0,0:0:0:0:
256,134,124204,1,2,0:0:0:0:
173,195,124414,1,2,0:0:0:0:
287,335,125151,5,2,0:0:0:0:
227,274,125362,1,0,0:0:0:0:
234,245,125467,1,2,0:0:0:0:
151,306,125677,1,2,0:0:0:0:
