osu file format v14

[General]
AudioFilename: audio.mp3
AudioLeadIn: 0
PreviewTime: 39941
Countdown: 0
SampleSet: Soft
StackLeniency: 0.7
Mode: 0
LetterboxInBreaks: 0
WidescreenStoryboard: 1

[Editor]
Bookmarks: 20257,30362,40468,60678,86257,90994,96047,99836,106152
DistanceSpacing: 0.5
BeatDivisor: 3
GridSize: 4
TimelineZoom: 3.799998

[Metadata]
Title:enchanted love
TitleUnicode:enchanted love
Artist:linear ring
ArtistUnicode:linear ring
Creator:[Hatsune Miku]
Version:Normal
Source:
Tags:captin1 Necho gary00737 Arcaea 百舌谷 mozuya BOFXVI Rhythm Game future hop emotional future bass THE BMS OF FIGHTERS XVI -NEO DYSTOPIA- sixteen 16 electronic instrumental glitch hop
BeatmapID:2918807
BeatmapSetID:1403832

[Difficulty]
HPDrainRate:3
CircleSize:3
OverallDifficulty:4
ApproachRate:5
SliderMultiplier:1
SliderTickRate:1

[Events]
//Background and Video events
Video,0,"video.mp4"
0,0,"enchanted love.jpg",0,0
//Break Periods
//Storyboard Layer 0 (Background)
//Storyboard Layer 1 (Fail)
//Storyboard Layer 2 (Pass)
//Storyboard Layer 3 (Foreground)
//Storyboard Layer 4 (Overlay)
//Storyboard Sound Samples

[TimingPoints]
99,315.789473684211,4,2,1,40,1,0
20309,-100,4,2,1,60,0,0
40520,-100,4,2,1,80,0,0
61362,-100,4,2,2,80,0,0
63256,-100,4,2,1,80,0,0
86309,-100,4,2,1,60,0,0
101151,-100,4,2,1,50,0,0
106204,-100,4,2,1,40,0,0

[Colours]
Combo1 : 0,204,199
Combo2 : 4,225,148
Combo3 : 170,244,217
Combo4 : 255,223,198

[HitObjects]
198,313,99,6,0,P|116:305|33:311,1,166.666666666667,2|0,0:0|0:0,0:0:0:0:
38,145,1362,2,0,P|122:140|204:148,1,166.666666666667,2|0,0:0|0:0,0:0:0:0:
419,238,2625,2,0,P|335:242|253:234,1,166.666666666667,2|0,0:0|0:0,0:0:0:0:
424,72,3888,2,0,P|340:76|258:68,1,166.666666666667,2|0,0:0|0:0,0:0:0:0:
26,40,5151,6,0,L|39:219,1,166.666666666667,2|0,0:0|0:0,0:0:0:0:
194,379,6414,2,0,L|206:212,1,166.666666666667,2|0,0:0|0:0,0:0:0:0:
394,74,7677,2,0,P|457:85|483:184,1,166.666666666667,2|0,0:0|0:0,0:0:0:0:
474,307,8625,1,2,0:0:0:0:
390,252,8941,2,0,L|286:244,1,100,2|0,0:0|0:0,0:0:0:0:
240,331,9572,2,0,L|140:338,1,100,2|0,0:0|0:0,0:0:0:0:
46,302,10204,6,0,P|29:253|45:133,1,166.666666666667,2|0,0:0|0:0,0:0:0:0:
263,71,11467,2,0,P|181:55|101:75,1,166.666666666667,2|0,0:0|0:0,0:0:0:0:
232,269,12730,2,0,B|336:270|282:222|394:222,1,166.666666666667,2|0,0:0|0:0,0:0:0:0:
507,21,13993,2,0,P|497:113|494:193,1,166.666666666667,2|0,0:0|0:0,0:0:0:0:
480,319,14941,1,2,0:0:0:0:
380,323,15256,6,0,P|288:313|208:310,1,166.666666666667,2|0,0:0|0:0,0:0:0:0:
21,177,16520,2,0,P|113:187|193:190,1,166.666666666667,2|0,0:0|0:0,0:0:0:0:
307,131,17467,1,2,0:0:0:0:
406,134,17783,2,0,P|418:214|361:280,1,166.666666666667,2|0,0:0|0:0,0:0:0:0:
147,355,19046,2,0,P|210:304|295:320,1,166.666666666667,2|0,0:0|0:0,0:0:0:0:
415,361,19993,1,2,0:0:0:0:
473,279,20309,6,0,P|488:230|497:169,1,100,4|2,0:1|0:0,0:0:0:0:
488,117,20835,1,2,0:0:0:0:
379,39,21256,1,2,0:0:0:0:
281,59,21572,2,0,P|266:108|257:169,1,100,2|2,0:0|0:0,0:0:0:0:
265,223,22099,1,2,0:0:0:0:
320,344,22520,1,2,0:0:0:0:
225,375,22835,6,0,L|113:370,1,100,2|2,3:2|0:0,0:0:0:0:
58,366,23362,1,2,0:0:0:0:
1,245,23783,1,2,0:0:0:0:
77,180,24099,2,0,P|98:140|107:81,2,100,2|2|0,0:0|0:0|0:0,0:0:0:0:
96,278,25046,1,2,0:0:0:0:
192,251,25362,6,0,L|291:246,1,100,2|2,3:2|0:0,0:0:0:0:
358,242,25888,1,2,0:0:0:0:
451,337,26309,1,2,0:0:0:0:
493,246,26625,2,0,P|499:197|474:154,1,100,2|2,0:0|0:0,0:0:0:0:
415,122,27151,1,2,0:0:0:0:
358,242,27572,1,2,0:0:0:0:
282,175,27888,6,0,P|232:154|180:149,1,100,2|2,3:2|0:0,0:0:0:0:
122,225,28520,2,0,P|128:278|150:326,1,100,2|2,0:0|0:0,0:0:0:0:
244,340,29151,2,0,P|287:307|317:264,2,100,2|2|2,0:0|0:0|0:0,0:0:0:0:
146,320,30099,1,2,0:0:0:0:
55,361,30414,6,0,L|39:156,1,200,4|2,3:1|0:0,0:0:0:0:
30,61,31362,1,0,0:0:0:0:
129,51,31677,2,0,P|176:90|229:89,1,100,2|2,3:2|0:0,0:0:0:0:
277,75,32204,1,2,0:0:0:0:
407,49,32625,1,0,0:0:0:0:
464,130,32941,6,0,L|453:251,1,100,2|2,3:2|0:0,0:0:0:0:
445,295,33467,1,2,0:0:0:0:
337,374,33888,1,2,0:0:0:0:
238,384,34204,2,0,P|191:345|138:346,1,100,2|2,3:2|0:0,0:0:0:0:
79,274,34835,2,0,P|136:252|161:206,1,100,2|2,0:0|0:0,0:0:0:0:
154,121,35467,5,2,3:2:0:0:
240,68,35783,1,0,0:0:0:0:
329,117,36099,1,2,3:2:0:0:
506,205,36730,5,2,3:2:0:0:
420,258,37046,1,0,0:0:0:0:
332,211,37362,1,2,3:2:0:0:
503,107,37993,5,2,3:2:0:0:
412,60,38309,1,2,3:2:0:0:
329,117,38625,1,2,3:2:0:0:
332,211,38941,1,2,3:2:0:0:
248,264,39256,6,0,P|215:256|185:243,1,66.6666666666667,2|2,3:2|3:2,0:0:0:0:
151,243,39572,2,0,P|133:214|121:183,1,66.6666666666667,2|2,3:2|3:2,0:0:0:0:
114,150,39888,1,2,3:2:0:0:
255,7,40520,5,4,3:1:0:0:
299,96,40835,2,0,L|393:106,1,66.6666666666667,2|2,0:0|0:0,0:0:0:0:
396,90,41151,2,0,L|389:210,1,100,8|2,3:2|0:0,0:0:0:0:
383,289,41783,1,0,3:0:0:0:
303,349,42099,2,0,P|270:344|222:344,1,66.6666666666667,2|2,0:0|0:0,0:0:0:0:
205,354,42414,2,0,L|98:360,1,100,8|0,3:2|0:0,0:0:0:0:
8,333,43046,5,0,3:0:0:0:
74,256,43362,2,0,P|92:228|95:195,1,66.6666666666667,2|2,0:0|0:0,0:0:0:0:
76,168,43677,2,0,L|61:51,1,100,8|2,3:2|0:0,0:0:0:0:
150,19,44309,5,0,3:0:0:0:
225,84,44625,1,0,3:0:0:0:
317,45,44941,2,0,P|365:24|390:28,1,66.6666666666667,8|2,3:2|3:2,0:0:0:0:
410,17,45256,2,0,L|402:131,1,100,2|0,0:0|3:0,0:0:0:0:
451,204,45888,6,0,L|458:303,1,100,2|8,0:0|3:2,0:0:0:0:
366,346,46520,2,0,P|332:336|285:336,1,66.6666666666667,2|2,0:0|0:0,0:0:0:0:
269,343,46835,2,0,L|261:243,2,100,0|0|8,3:0|3:0|3:2,0:0:0:0:
175,379,47783,1,0,0:0:0:0:
80,342,48099,6,0,P|96:283|92:129,1,200,0|8,3:0|3:2,0:0:0:0:
279,67,49362,2,0,P|317:101|361:123,2,100,0|0|8,3:0|3:0|3:2,0:0:0:0:
247,9,50204,1,0,3:0:0:0:
129,71,50625,5,4,3:2:0:0:
203,137,50941,2,0,P|226:181|237:227,1,66.6666666666667,2|2,0:0|0:0,0:0:0:0:
243,227,51256,2,0,P|301:229|358:244,1,100,10|2,0:0|0:0,0:0:0:0:
417,304,51888,1,0,3:0:0:0:
496,243,52204,2,0,P|473:199|462:153,1,66.6666666666667,2|2,0:0|0:0,0:0:0:0:
489,157,52520,2,0,P|431:155|374:140,1,100,8|2,3:2|0:0,0:0:0:0:
300,93,53151,6,0,L|185:84,1,100,0|2,3:0|0:0,0:0:0:0:
119,23,53783,2,0,P|100:68|105:117,1,100,8|0,3:2|0:0,0:0:0:0:
181,182,54414,2,0,P|192:224|192:252,1,66.6666666666667,0|2,3:0|0:0,0:0:0:0:
176,276,54730,2,0,L|184:376,2,100,0|8|2,3:0|3:2|0:0,0:0:0:0:
265,321,55677,6,0,L|475:340,1,200,6|2,3:2|0:0,0:0:0:0:
512,147,56941,2,0,L|313:128,1,200,6|2,3:2|0:0,0:0:0:0:
235,312,58204,2,0,P|3:267|196:132,1,600,6|2,3:2|0:0,0:0:0:0:
286,176,60414,2,0,P|302:214|302:240,1,66.6666666666667,8|0,1:0|0:0,0:0:0:0:
310,271,60730,6,0,L|423:281,1,100,4|0,3:1|0:0,0:0:0:0:
509,287,61362,1,4,0:0:0:0:
333,16,63256,5,4,3:1:0:0:
244,62,63572,2,0,P|221:100|221:134,1,66.6666666666667,0|0,3:0|0:0,0:0:0:0:
208,153,63888,2,0,L|218:266,2,100,8|0|0,3:2|3:0|3:0,0:0:0:0:
117,109,64835,1,0,3:0:0:0:
23,146,65151,2,0,L|14:238,1,66.6666666666667,10|0,3:2|3:0,0:0:0:0:
72,333,65783,6,0,P|126:320|277:329,1,200,6|10,3:2|0:0,0:0:0:0:
382,161,67046,2,0,P|359:137|320:59,1,100,0|0,3:0|3:0,0:0:0:0:
263,1,67677,1,8,3:2:0:0:
192,71,67993,2,0,P|174:105|175:143,1,66.6666666666667,2|2,0:0|0:0,0:0:0:0:
150,157,68309,6,0,P|206:235|302:233,1,200,0|8,3:0|3:2,0:0:0:0:
397,263,69256,2,0,L|480:272,1,66.6666666666667,2|2,0:0|3:2,0:0:0:0:
496,268,69572,6,0,P|499:218|475:175,1,100,2|2,3:2|3:2,0:0:0:0:
479,75,70204,2,0,P|437:47|387:46,1,100,8|0,3:2|3:0,0:0:0:0:
298,1,70835,5,4,3:2:0:0:
143,119,71467,2,0,P|84:114|47:239,1,200,8|2,3:2|3:2,0:0:0:0:
81,318,72414,1,0,3:0:0:0:
179,331,72730,2,0,P|208:315|348:326,1,166.666666666667,8|0,3:2|3:0,0:0:0:0:
365,338,73362,6,0,L|378:229,1,100,0|0,3:0|0:0,0:0:0:0:
475,223,73993,2,0,L|463:123,1,100,8|0,3:2|0:0,0:0:0:0:
414,35,74625,2,0,P|379:17|348:15,1,66.6666666666667,0|2,3:0|0:0,0:0:0:0:
324,30,74941,2,0,L|224:41,2,100,0|8|0,3:0|3:2|3:0,0:0:0:0:
350,126,75888,6,0,P|335:173|282:194,1,100,4|0,3:2|3:0,0:0:0:0:
201,150,76520,2,0,L|134:157,1,66.6666666666667,8|0,3:2|3:0,0:0:0:0:
76,276,77151,1,0,3:0:0:0:
168,314,77467,1,0,3:0:0:0:
265,291,77783,2,0,L|268:357,1,66.6666666666667,8|0,3:2|3:0,0:0:0:0:
296,375,78099,2,0,P|343:369|405:370,1,100,0|0,3:0|3:0,0:0:0:0:
512,205,79046,5,8,3:2:0:0:
380,54,79677,2,0,P|394:101|380:158,1,100,0|0,3:2|3:0,0:0:0:0:
307,215,80309,2,0,P|259:229|203:215,1,100,8|0,3:2|3:0,0:0:0:0:
129,160,80941,6,0,P|113:224|102:368,1,200,4|0,3:2|3:0,0:0:0:0:
300,376,82204,2,0,P|316:312|327:168,1,200,0|0,3:0|3:0,0:0:0:0:
164,62,83467,6,0,P|108:52|68:68,2,100,0|0|0,3:0|3:0|3:0,0:0:0:0:
225,140,84414,1,0,3:0:0:0:
295,68,84730,2,0,P|343:46|365:45,1,66.6666666666667,0|2,3:0|3:2,0:0:0:0:
385,28,85046,2,0,P|428:58|439:77,1,66.6666666666667,0|2,3:0|3:2,0:0:0:0:
467,80,85362,2,0,P|462:132|451:152,1,66.6666666666667,0|2,3:0|3:2,0:0:0:0:
437,171,85677,2,0,L|445:286,1,100,0|2,3:0|0:0,0:0:0:0:
448,371,86309,5,4,3:1:0:0:
148,371,87256,1,0,3:0:0:0:
95,286,87572,2,0,P|82:237|104:162,1,100,0|8,3:0|3:2,0:0:0:0:
123,130,88099,1,2,3:2:0:0:
225,44,88520,6,0,L|440:64,2,200,0|10|0,3:0|0:0|3:0,0:0:0:0:
225,144,90099,1,0,3:0:0:0:
282,225,90414,2,0,L|357:232,1,66.6666666666667,8|2,3:2|3:2,0:0:0:0:
403,353,91046,6,0,P|313:335|182:333,1,200,0|10,3:0|0:0,0:0:0:0:
12,275,92309,1,0,3:0:0:0:
74,196,92625,2,0,P|93:147|95:99,1,100,0|10,3:2|3:2,0:0:0:0:
73,36,93151,1,0,3:0:0:0:
206,40,93572,6,0,L|312:44,1,100,2|2,3:2|3:2,0:0:0:0:
330,140,94204,2,0,P|428:155|511:209,1,200,10|2,3:2|3:2,0:0:0:0:
511,309,95151,1,2,3:2:0:0:
411,320,95467,2,0,P|378:316|349:298,1,66.6666666666667,10|0,3:2|3:0,0:0:0:0:
225,250,96099,6,0,L|0:265,2,200,4|10|0,3:2|3:2|3:0,0:0:0:0:
278,165,97677,1,0,3:0:0:0:
181,138,97993,2,0,L|98:143,1,66.6666666666667,8|0,3:2|3:0,0:0:0:0:
113,8,98625,6,0,L|344:23,1,200,2|10,3:2|3:2,0:0:0:0:
487,119,99888,1,2,3:2:0:0:
398,165,100204,1,2,3:2:0:0:
368,260,100520,1,10,3:2:0:0:
277,217,100835,1,2,3:2:0:0:
176,220,101151,6,0,P|161:262|180:327,2,100,2|2|10,3:2|0:0|0:0,0:0:0:0:
318,79,102414,2,0,P|282:112|233:123,1,100,2|2,3:2|3:2,0:0:0:0:
133,131,103046,2,0,P|107:102|71:92,1,66.6666666666667,10|0,3:2|3:0,0:0:0:0:
30,216,103677,6,0,L|39:346,1,100,0|2,3:0|3:2,0:0:0:0:
114,379,104309,2,0,P|174:363|333:370,1,200,10|0,3:2|3:0,0:0:0:0:
410,375,105256,1,0,3:0:0:0:
471,295,105572,2,0,L|477:225,1,66.6666666666667,10|0,3:2|3:0,0:0:0:0:
477,94,106204,6,0,P|428:98|290:98,1,166.666666666667,6|0,0:0|0:0,0:0:0:0:
174,288,107467,2,0,P|90:288|7:282,1,166.666666666667,2|0,0:0|0:0,0:0:0:0:
8,49,108730,2,0,P|74:34|149:114,1,166.666666666667,2|0,0:0|0:0,0:0:0:0:
317,251,109993,2,0,P|356:290|412:282,1,100,2|0,0:0|0:0,0:0:0:0:
488,247,110625,1,2,0:0:0:0:
342,383,111256,6,0,L|160:363,1,166.666666666667,2|0,0:0|0:0,0:0:0:0:
15,195,112520,2,0,P|5:142|40:83,1,100,2|2,0:0|0:0,0:0:0:0:
95,31,113151,1,0,0:0:0:0:
292,62,113783,2,0,L|457:80,1,166.666666666667,2|0,0:0|0:0,0:0:0:0:
502,309,115046,6,0,P|481:282|399:272,1,100,2|0,0:0|0:0,0:0:0:0:
363,183,115677,2,0,P|329:187|279:253,1,100,2|0,0:0|0:0,0:0:0:0:
246,325,116309,6,0,L|68:303,1,166.666666666667,2|0,0:0|0:0,0:0:0:0:
3,84,117572,2,0,L|168:105,1,166.666666666667,2|0,0:0|0:0,0:0:0:0:
394,162,118835,2,0,P|452:143|464:29,1,166.666666666667,2|0,0:0|0:0,0:0:0:0:
256,129,120099,2,0,L|272:247,1,100,2|0,0:0|0:0,0:0:0:0:
246,325,120730,1,2,0:0:0:0:
439,370,121362,6,0,P|441:289|374:236,1,166.666666666667,2|0,0:0|0:0,0:0:0:0:
151,287,122625,2,0,P|88:235|90:154,1,166.666666666667,2|0,0:0|0:0,0:0:0:0:
267,3,123888,6,0,L|459:13,1,166.666666666667,2|0,0:0|0:0,0:0:0:0:
379,238,125151,2,0,L|212:229,1,166.666666666667,2|0,0:0|0:0,0:0:0:0:
