osu file format v14

[General]
AudioFilename: audio.mp3
AudioLeadIn: 0
PreviewTime: 39941
Countdown: 0
SampleSet: Soft
StackLeniency: 0.4
Mode: 0
LetterboxInBreaks: 0
WidescreenStoryboard: 1

[Editor]
Bookmarks: 20257,30362,40468,60678,86257,90994,96047,99836,106152
DistanceSpacing: 2
BeatDivisor: 6
GridSize: 4
TimelineZoom: 1.9

[Metadata]
Title:enchanted love
TitleUnicode:enchanted love
Artist:linear ring
ArtistUnicode:linear ring
Creator:[Hatsune Miku]
Version:Necho's Another
Source:
Tags:captin1 Necho gary00737 Arcaea 百舌谷 mozuya BOFXVI Rhythm Game future hop emotional future bass THE BMS OF FIGHTERS XVI -NEO DYSTOPIA- sixteen 16 electronic instrumental glitch hop
BeatmapID:2895643
BeatmapSetID:1403832

[Difficulty]
HPDrainRate:6
CircleSize:4
OverallDifficulty:8
ApproachRate:9
SliderMultiplier:1.6
SliderTickRate:1

[Events]
//Background and Video events
0,0,"enchanted love.jpg",0,0
Video,0,"video.mp4"
//Break Periods
//Storyboard Layer 0 (Background)
//Storyboard Layer 1 (Fail)
//Storyboard Layer 2 (Pass)
//Storyboard Layer 3 (Foreground)
//Storyboard Layer 4 (Overlay)
//Storyboard Sound Samples

[TimingPoints]
99,315.789473684211,4,2,1,40,1,0
20309,-66.6666666666667,4,2,1,60,0,0
40520,-66.6666666666667,4,2,1,80,0,0
41520,-66.6666666666667,4,2,1,5,0,0
41677,-66.6666666666667,4,2,1,80,0,0
45256,-50,4,2,1,80,0,0
45572,-66.6666666666667,4,2,1,80,0,0
58520,-66.6666666666667,4,2,1,70,0,0
58835,-66.6666666666667,4,2,1,60,0,0
59151,-66.6666666666667,4,2,1,50,0,0
59467,-66.6666666666667,4,2,1,40,0,0
60099,-66.6666666666667,4,2,1,80,0,0
60151,-66.6666666666667,4,2,1,5,0,0
60309,-66.6666666666667,4,2,1,80,0,0
61362,-66.6666666666667,4,2,2,80,0,0
61677,-66.6666666666667,4,2,1,40,0,0
61888,-66.6666666666667,4,2,1,50,0,0
62099,-66.6666666666667,4,2,1,60,0,0
62309,-66.6666666666667,4,2,1,70,0,0
62520,-66.6666666666667,4,2,1,80,0,0
62730,-66.6666666666667,4,2,1,80,0,0
66204,-66.6666666666667,4,2,1,5,0,0
66414,-66.6666666666667,4,2,1,80,0,0
66835,-66.6666666666667,4,2,1,5,0,0
67046,-66.6666666666667,4,2,1,80,0,0
73783,-66.6666666666667,4,2,1,5,0,0
73993,-66.6666666666667,4,2,1,80,0,0
78414,-100,4,2,1,80,0,0
86309,-66.6666666666667,4,2,1,60,0,0
99888,-100,4,2,1,60,0,0
106204,-100,4,2,1,40,0,0

[Colours]
Combo1 : 0,204,199
Combo2 : 4,225,148
Combo3 : 170,244,217
Combo4 : 255,223,198

[HitObjects]
56,138,99,5,2,0:0:0:0:
136,165,309,1,0,0:0:0:0:
136,165,414,1,0,0:0:0:0:
176,96,625,1,0,0:0:0:0:
216,27,941,1,0,0:0:0:0:
216,27,1046,1,0,0:0:0:0:
56,138,1256,1,0,0:0:0:0:
56,138,1362,5,2,0:0:0:0:
136,165,1572,1,0,0:0:0:0:
136,165,1677,1,0,0:0:0:0:
176,96,1888,1,0,0:0:0:0:
216,27,2204,1,0,0:0:0:0:
216,27,2309,1,0,0:0:0:0:
176,96,2520,1,0,0:0:0:0:
176,96,2625,5,2,0:0:0:0:
256,123,2835,1,0,0:0:0:0:
256,123,2941,1,0,0:0:0:0:
336,150,3151,1,0,0:0:0:0:
320,68,3467,1,0,0:0:0:0:
320,68,3572,1,0,0:0:0:0:
336,150,3783,1,0,0:0:0:0:
336,150,3888,5,2,0:0:0:0:
352,232,4099,1,0,0:0:0:0:
352,232,4204,1,0,0:0:0:0:
416,177,4414,1,0,0:0:0:0:
384,13,4730,1,2,0:0:0:0:
384,13,4835,1,2,0:0:0:0:
336,150,5046,1,2,0:0:0:0:
336,150,5151,5,2,0:0:0:0:
416,177,5362,1,0,0:0:0:0:
416,177,5467,1,0,0:0:0:0:
456,108,5677,1,0,0:0:0:0:
496,39,5993,1,2,0:0:0:0:
496,39,6099,1,2,0:0:0:0:
456,108,6309,1,2,0:0:0:0:
456,108,6414,5,2,0:0:0:0:
376,81,6625,1,0,0:0:0:0:
376,81,6730,1,0,0:0:0:0:
296,54,6941,1,0,0:0:0:0:
496,39,7256,1,2,0:0:0:0:
496,39,7362,1,2,0:0:0:0:
376,81,7572,1,2,0:0:0:0:
376,81,7677,5,2,0:0:0:0:
336,150,7888,1,0,0:0:0:0:
336,150,7993,1,0,0:0:0:0:
391,206,8204,1,0,0:0:0:0:
376,81,8520,1,2,0:0:0:0:
376,81,8625,1,2,0:0:0:0:
336,150,8835,1,2,0:0:0:0:
336,150,8941,5,2,0:0:0:0:
281,94,9151,1,0,0:0:0:0:
281,94,9256,1,2,0:0:0:0:
336,150,9467,5,0,0:0:0:0:
336,150,9572,1,2,0:0:0:0:
376,81,9783,1,0,0:0:0:0:
376,81,9888,1,2,0:0:0:0:
456,138,10099,1,0,0:0:0:0:
456,138,10204,5,2,0:0:0:0:
376,165,10414,1,0,0:0:0:0:
376,165,10520,1,0,0:0:0:0:
336,96,10730,1,0,0:0:0:0:
296,27,11046,1,2,0:0:0:0:
296,27,11151,1,2,0:0:0:0:
456,138,11362,1,2,0:0:0:0:
456,138,11467,5,2,0:0:0:0:
376,165,11677,1,0,0:0:0:0:
376,165,11784,1,0,0:0:0:0:
336,96,11993,1,0,0:0:0:0:
296,27,12309,1,2,0:0:0:0:
296,27,12414,1,2,0:0:0:0:
336,96,12625,1,2,0:0:0:0:
336,96,12730,5,2,0:0:0:0:
256,123,12941,1,0,0:0:0:0:
256,123,13046,1,0,0:0:0:0:
176,150,13256,1,0,0:0:0:0:
192,68,13572,1,2,0:0:0:0:
192,68,13677,1,2,0:0:0:0:
176,150,13888,1,2,0:0:0:0:
176,150,13994,5,2,0:0:0:0:
160,232,14205,1,0,0:0:0:0:
160,232,14310,1,0,0:0:0:0:
96,177,14520,1,0,0:0:0:0:
128,13,14835,1,2,0:0:0:0:
128,13,14940,1,2,0:0:0:0:
176,150,15151,1,2,0:0:0:0:
176,150,15257,5,2,0:0:0:0:
96,177,15468,1,0,0:0:0:0:
96,177,15573,1,0,0:0:0:0:
56,108,15783,1,0,0:0:0:0:
16,39,16098,1,2,0:0:0:0:
16,39,16204,1,2,0:0:0:0:
56,108,16414,1,2,0:0:0:0:
56,108,16520,5,2,0:0:0:0:
136,81,16731,1,0,0:0:0:0:
136,81,16836,1,0,0:0:0:0:
216,54,17047,1,0,0:0:0:0:
16,39,17361,1,2,0:0:0:0:
16,39,17467,1,2,0:0:0:0:
136,81,17677,1,2,0:0:0:0:
136,81,17783,5,2,0:0:0:0:
176,150,17994,1,0,0:0:0:0:
176,150,18099,1,0,0:0:0:0:
121,206,18310,1,0,0:0:0:0:
136,81,18625,1,2,0:0:0:0:
136,81,18730,1,2,0:0:0:0:
176,150,18940,1,2,0:0:0:0:
176,150,19047,5,2,0:0:0:0:
231,94,19256,1,0,0:0:0:0:
231,94,19362,1,0,0:0:0:0:
176,150,19572,5,0,0:0:0:0:
136,81,19888,1,2,0:0:0:0:
136,81,19993,1,2,0:0:0:0:
216,219,20204,5,0,0:0:0:0:
216,219,20309,2,0,B|292:215|292:215|301:217|301:217|403:211,1,160.000006103516,4|2,0:1|0:0,0:0:0:0:
431,267,20625,2,0,B|425:298|425:298|493:259|461:166,1,160.000006103516,2|2,0:0|0:0,0:0:0:0:
225,7,21151,5,2,0:0:0:0:
225,7,21256,1,2,0:0:0:0:
195,88,21467,5,2,0:0:0:0:
195,88,21572,2,0,B|271:84|271:84|280:86|280:86|382:80,1,160.000006103516,2|2,0:0|0:0,0:0:0:0:
410,136,21888,2,0,B|404:167|404:167|472:128|440:35,1,160.000006103516,2|2,0:0|0:0,0:0:0:0:
327,163,22414,1,2,0:0:0:0:
327,163,22520,1,2,0:0:0:0:
281,238,22730,1,2,0:0:0:0:
281,238,22835,6,0,P|288:332|367:372,1,160.000006103516,2|2,3:2|0:0,0:0:0:0:
381,306,23151,2,0,B|390:276|357:244|357:244|448:259,1,160.000006103516,2|2,0:0|0:0,0:0:0:0:
195,88,23677,1,2,0:0:0:0:
195,88,23783,1,2,0:0:0:0:
60,163,23993,1,2,0:0:0:0:
60,163,24099,6,0,P|152:164|211:219,1,160.000006103516,2|2,0:0|0:0,0:0:0:0:
146,263,24414,2,0,B|127:225|77:238|77:238|118:239|143:285,1,160.000006103516,2|2,0:0|0:0,0:0:0:0:
329,73,24941,5,2,0:0:0:0:
329,73,25046,1,2,0:0:0:0:
470,189,25256,1,0,0:0:0:0:
470,189,25362,2,0,L|459:25,1,160.000006103516,2|2,3:2|0:0,0:0:0:0:
469,25,25677,2,0,P|455:113|370:86,1,160.000006103516,2|2,0:0|0:0,0:0:0:0:
237,209,26204,1,2,0:0:0:0:
237,209,26309,1,2,0:0:0:0:
229,317,26520,1,2,0:0:0:0:
229,317,26625,6,0,P|331:285|401:328,1,160.000006103516,2|2,0:0|0:0,0:0:0:0:
391,318,26941,2,0,L|380:154,1,160.000006103516,2|2,0:0|0:0,0:0:0:0:
319,33,27467,1,2,0:0:0:0:
319,33,27572,1,2,0:0:0:0:
250,116,27783,1,2,0:0:0:0:
250,116,27888,6,0,P|130:123|103:40,1,160.000006103516,2|0,3:2|0:0,0:0:0:0:
48,48,28204,2,0,P|168:41|195:124,1,160.000006103516,2|0,0:0|0:0,0:0:0:0:
250,116,28520,6,0,L|430:107,1,160.000006103516,2|0,0:0|0:0,0:0:0:0:
421,95,28835,2,0,L|409:266,1,160.000006103516,2|0,0:0|0:0,0:0:0:0:
332,283,29151,6,0,B|356:317|356:317|298:355|222:304,1,160.000006103516,2|0,0:0|0:0,0:0:0:0:
189,261,29467,2,0,P|89:262|43:329,1,160.000006103516,2|0,0:0|0:0,0:0:0:0:
17,373,29783,1,2,0:0:0:0:
73,263,29993,1,0,0:0:0:0:
73,263,30099,1,2,0:0:0:0:
129,153,30309,1,0,0:0:0:0:
129,153,30414,5,4,3:1:0:0:
129,153,31046,5,0,0:0:0:0:
129,153,31572,1,0,0:0:0:0:
129,153,31677,5,0,0:0:0:0:
195,83,31888,1,0,0:0:0:0:
195,83,31993,5,0,0:0:0:0:
292,81,32204,1,0,0:0:0:0:
364,142,32520,5,0,0:0:0:0:
358,232,32836,1,0,0:0:0:0:
358,232,32941,5,0,0:0:0:0:
293,284,33152,1,0,0:0:0:0:
212,273,33467,1,0,0:0:0:0:
167,216,33783,5,0,0:0:0:0:
166,215,33888,1,0,0:0:0:0:
179,140,34099,1,0,0:0:0:0:
179,140,34204,5,0,0:0:0:0:
251,115,34414,1,0,0:0:0:0:
251,115,34520,1,0,0:0:0:0:
320,152,34730,1,0,0:0:0:0:
320,152,34835,1,0,0:0:0:0:
323,230,35046,1,0,0:0:0:0:
323,230,35151,1,0,0:0:0:0:
256,192,35362,1,0,0:0:0:0:
256,192,35467,5,0,3:0:0:0:
323,230,35677,1,0,0:0:0:0:
323,230,35782,1,2,0:0:0:0:
320,152,35993,1,0,0:0:0:0:
320,152,36098,1,0,3:0:0:0:
251,115,36309,1,0,0:0:0:0:
251,115,36415,1,2,0:0:0:0:
179,140,36625,1,0,0:0:0:0:
179,140,36730,5,0,3:0:0:0:
161,214,36941,5,0,0:0:0:0:
160,213,37046,1,2,0:0:0:0:
201,298,37256,5,0,0:0:0:0:
201,298,37362,1,0,3:0:0:0:
201,298,37467,1,0,0:0:0:0:
201,298,37573,1,0,0:0:0:0:
201,298,37677,1,2,0:0:0:0:
285,327,37888,5,0,0:0:0:0:
285,327,37993,5,0,3:0:0:0:
285,327,38099,1,2,0:0:0:0:
285,327,38204,1,2,0:0:0:0:
363,315,38309,5,0,3:0:0:0:
363,315,38415,1,2,0:0:0:0:
363,315,38520,1,2,0:0:0:0:
428,268,38625,5,0,3:0:0:0:
428,268,38730,1,2,0:0:0:0:
428,268,38836,1,2,0:0:0:0:
449,191,38941,5,0,3:0:0:0:
449,191,39047,1,2,0:0:0:0:
449,191,39152,1,2,0:0:0:0:
440,110,39256,5,2,3:2:0:0:
440,110,39362,1,2,0:0:0:0:
440,110,39467,1,2,3:2:0:0:
386,44,39572,5,2,3:2:0:0:
386,44,39678,1,2,0:0:0:0:
386,44,39783,1,2,3:2:0:0:
386,44,39888,1,2,3:2:0:0:
256,0,40099,5,2,0:0:0:0:
256,0,40204,2,0,L|256:168,1,160.000006103516,2|0,0:0|0:0,0:0:0:0:
256,173,40520,6,0,P|343:131|422:167,1,160.000006103516,4|0,3:1|0:0,0:0:0:0:
491,70,40835,2,0,B|512:117|479:162|479:162|487:118|450:88,1,160.000006103516,2|2,0:0|0:0,0:0:0:0:
402,299,41151,6,0,B|411:269|411:269|398:239|398:239|405:211|405:211|392:182|392:182|399:148,1,160.000006103516,8|0,3:2|0:0,0:0:0:0:
394,72,41467,2,0,L|394:24,1,40.000001525879,2|0,0:0|0:0,0:0:0:0:
325,123,41677,5,2,0:0:0:0:
325,123,41783,2,0,P|207:108|186:37,1,160.000006103516,0|0,3:0|0:0,0:0:0:0:
203,4,42099,5,2,0:0:0:0:
226,13,42204,1,2,0:0:0:0:
249,22,42309,1,2,0:0:0:0:
191,82,42414,6,0,B|214:115|214:115|193:158,1,80.0000030517579,8|0,3:2|0:0,0:0:0:0:
111,90,42625,2,0,B|93:125|93:125|116:158,1,80.0000030517579,0|2,3:0|0:0,0:0:0:0:
83,230,42835,5,2,0:0:0:0:
83,230,42940,1,2,0:0:0:0:
51,297,43046,6,0,B|22:366|22:366|148:356,1,160.000006103516,0|0,3:0|0:0,0:0:0:0:
167,249,43362,2,0,P|252:241|300:326,1,160.000006103516,2|2,0:0|0:0,0:0:0:0:
297,305,43677,2,0,B|325:300|325:300|344:314|344:314|385:306,2,80.0000030517579,8|0|2,3:2|0:0|0:0,0:0:0:0:
217,318,43993,1,2,0:0:0:0:
215,334,44099,1,2,0:0:0:0:
213,349,44204,1,2,0:0:0:0:
297,305,44309,6,0,P|311:216|238:153,1,160.000006103516,0|0,3:0|0:0,0:0:0:0:
297,305,44625,2,0,P|329:220|424:202,1,160.000006103516,0|0,3:0|0:0,0:0:0:0:
489,277,44941,6,0,B|452:317|452:317|436:264|436:264|489:276,1,160.000006103516,8|2,3:2|3:2,0:0:0:0:
421,307,45256,6,0,B|489:322|489:322|467:249|467:249|416:304,1,213.333333333333,2|2,0:0|0:0,0:0:0:0:
297,305,45572,6,0,B|201:300|254:343|143:339,1,160.000006103516,0|0,3:0|0:0,0:0:0:0:
142,220,45888,2,0,B|192:171|192:171|170:276,1,160.000006103516,2|2,0:0|0:0,0:0:0:0:
142,220,46204,2,0,L|132:41,1,160.000006103516,8|0,3:2|0:0,0:0:0:0:
56,37,46520,2,0,L|62:138,2,80.0000030517579,2|2|2,0:0|0:0|0:0,0:0:0:0:
167,55,46835,6,0,B|157:84|157:84|238:111|285:34,1,160.000006103516,2|0,3:2|0:0,0:0:0:0:
371,21,47151,2,0,P|291:82|288:135,1,160.000006103516,2|0,3:2|0:0,0:0:0:0:
380,159,47467,6,0,B|347:105|347:105|276:114|276:114|247:175|247:175|288:231|288:231|358:222|358:222|381:170,1,400.00001525879,8|2,3:2|0:0,0:0:0:0:
457,53,48099,6,0,P|406:158|444:269,1,240.000009155274,0|0,3:0|0:0,0:0:0:0:
54,330,48730,2,0,P|105:225|68:115,1,240.000009155274,8|0,3:2|0:0,0:0:0:0:
0,219,49256,1,2,0:0:0:0:
0,219,49362,6,0,L|180:237,1,160.000006103516,0|0,3:0|0:0,0:0:0:0:
244,224,49677,2,0,B|357:225|286:264|400:264,1,160.000006103516,0|0,3:0|0:0,0:0:0:0:
470,235,49993,1,8,3:2:0:0:
386,98,50204,1,0,3:0:0:0:
386,98,50309,2,0,B|401:92|385:48|324:73|325:146|386:189,1,160.000006103516,0|0,0:0|0:0,0:0:0:0:
449,149,50625,6,0,P|443:26|356:1,1,160.000006103516,4|0,3:2|0:0,0:0:0:0:
418,24,50941,2,0,P|353:77|276:53,1,160.000006103516,2|2,0:0|0:0,0:0:0:0:
220,17,51256,6,0,B|190:23|190:23|177:10|177:10|137:19,2,80.0000030517579,10|2|2,0:0|0:0|0:0,0:0:0:0:
284,60,51572,2,0,P|274:116|251:132,1,80.0000030517579,2|2,0:0|0:0,0:0:0:0:
187,162,51783,1,2,0:0:0:0:
173,248,51888,6,0,P|160:155|66:118,1,160.000006103516,0|0,3:0|0:0,0:0:0:0:
53,69,52204,2,0,P|30:124|40:152,2,80.0000030517579,2|2|2,0:0|0:0|0:0,0:0:0:0:
127,46,52520,1,8,0:0:0:0:
127,46,52625,2,0,P|199:32|217:6,1,80.0000030517579,2|0,0:0|3:0,0:0:0:0:
278,36,52835,1,2,0:0:0:0:
351,68,52941,2,0,L|379:156,1,80.0000030517579,2|2,0:0|0:0,0:0:0:0:
445,116,53151,6,0,P|416:213|357:220,1,160.000006103516,0|0,3:0|0:0,0:0:0:0:
293,240,53467,6,0,B|239:245|239:245|217:216|217:216|231:181|231:181|269:176|269:176|291:206|291:206|262:274|262:274|188:282|188:282|137:221|137:221|182:115|182:115|289:99,1,640.000024414063,2|2,0:0|0:0,0:0:0:0:
268,88,54414,6,0,P|205:42|107:85,1,160.000006103516,0|2,3:0|0:0,0:0:0:0:
54,48,54730,2,0,P|8:111|51:209,1,160.000006103516,0|2,3:0|0:0,0:0:0:0:
53,259,55046,6,0,L|172:246,1,80.0000030517579,8|2,3:2|0:0,0:0:0:0:
203,218,55256,1,2,3:2:0:0:
280,233,55362,6,0,L|399:220,1,80.0000030517579,2|2,0:0|0:0,0:0:0:0:
430,192,55572,1,2,0:0:0:0:
450,324,55677,6,0,P|396:324|370:295,5,80.0000030517579,6|0|2|0|0|2,3:2|0:0|0:0|0:0|0:0|0:0,0:0:0:0:
430,192,56309,2,0,B|395:98|245:105|205:248|313:371,1,400.00001525879,2|0,0:0|0:0,0:0:0:0:
254,306,56941,6,0,P|220:285|181:290,5,80.0000030517579,4|0|0|0|0|0,3:2|0:0|0:0|0:0|0:0|0:0,0:0:0:0:
100,318,57572,2,0,B|135:412|285:405|325:262|217:139,1,400.00001525879,2|2,0:0|0:0,0:0:0:0:
82,49,58204,5,4,3:2:0:0:
82,49,58309,1,0,0:0:0:0:
82,49,58414,1,0,0:0:0:0:
168,63,58520,5,0,0:0:0:0:
168,63,58625,1,0,0:0:0:0:
168,63,58730,1,0,0:0:0:0:
254,77,58836,5,0,0:0:0:0:
254,77,58941,1,0,0:0:0:0:
254,77,59046,1,0,0:0:0:0:
340,91,59151,5,0,0:0:0:0:
340,91,59256,1,0,0:0:0:0:
340,91,59362,1,0,0:0:0:0:
426,105,59468,5,0,0:0:0:0:
426,105,59573,1,0,0:0:0:0:
426,105,59678,1,0,0:0:0:0:
512,119,59783,5,0,0:0:0:0:
512,119,59888,1,0,0:0:0:0:
512,119,59993,1,0,0:0:0:0:
472,39,60099,6,0,L|468:-6,1,40.000001525879,2|0,0:0|0:0,0:0:0:0:
440,264,60309,1,10,0:0:0:0:
440,264,60414,6,0,L|425:92,1,160.000006103516,8|0,1:0|0:0,0:0:0:0:
354,219,60730,6,0,B|357:249|357:249|207:235,1,160.000006103516,4|0,3:1|0:0,0:0:0:0:
158,165,61046,2,0,B|155:135|155:135|305:149,1,160.000006103516,0|0,0:0|0:0,0:0:0:0:
256,60,61362,5,4,0:0:0:0:
256,324,61677,5,0,0:0:0:0:
244,323,61783,1,2,0:0:0:0:
228,321,61888,1,2,0:0:0:0:
208,315,61993,5,2,0:0:0:0:
186,303,62099,1,2,0:0:0:0:
162,285,62204,1,2,0:0:0:0:
141,257,62309,5,2,0:0:0:0:
127,221,62414,1,2,0:0:0:0:
124,178,62520,1,2,0:0:0:0:
138,132,62625,5,2,0:0:0:0:
171,90,62730,1,2,0:0:0:0:
221,64,62835,1,2,0:0:0:0:
283,62,62941,5,2,0:0:0:0:
342,92,63046,1,2,0:0:0:0:
381,151,63151,1,2,0:0:0:0:
383,226,63256,6,0,B|486:218|486:218|515:162,1,160.000006103516,4|0,3:1|0:0,0:0:0:0:
381,151,63572,2,0,B|341:126|332:89|332:89|329:127|293:156,1,160.000006103516,0|0,3:0|0:0,0:0:0:0:
256,231,63888,2,0,L|256:55,1,160.000006103516,8|8,3:2|3:0,0:0:0:0:
128,61,64204,2,0,P|224:62|263:6,1,160.000006103516,0|0,3:0|0:0,0:0:0:0:
128,61,64520,6,0,B|125:25|125:25|40:54|81:167,1,160.000006103516,0|0,3:0|0:0,0:0:0:0:
197,132,64835,2,0,B|200:168|200:168|285:139|244:26,1,160.000006103516,0|0,3:0|0:0,0:0:0:0:
197,132,65151,6,0,L|299:122,2,80.0000030517579,8|2|0,0:0|0:0|3:0,0:0:0:0:
128,61,65467,5,2,0:0:0:0:
128,61,65572,2,0,L|26:71,1,80.0000030517579,2|2,0:0|0:0,0:0:0:0:
197,132,65783,6,0,P|189:252|21:341,1,320.000012207032,6|0,3:2|0:0,0:0:0:0:
314,251,66414,2,0,P|342:100|484:42,1,320.000012207032,10|0,0:0|0:0,0:0:0:0:
424,302,67046,6,0,B|470:314|481:353|481:353|467:315|495:279,1,160.000006103516,0|0,3:0|0:0,0:0:0:0:
468,206,67362,2,0,L|390:231,2,80.0000030517579,0|0|0,3:0|0:0|0:0,0:0:0:0:
314,251,67677,6,0,L|325:161,2,80.0000030517579,8|0|0,3:2|0:0|3:0,0:0:0:0:
198,133,67993,5,2,0:0:0:0:
198,133,68099,2,0,L|188:212,1,80.0000030517579,0|2,0:0|0:0,0:0:0:0:
237,281,68309,6,0,P|155:300|52:52,1,400.00001525879,0|2,3:0|0:0,0:0:0:0:
97,14,68941,2,0,L|255:45,1,160.000006103516,8|0,3:2|0:0,0:0:0:0:
310,100,69256,2,0,P|372:94|395:68,1,80.0000030517579,2|0,0:0|0:0,0:0:0:0:
438,25,69467,1,2,3:2:0:0:
438,25,69572,6,0,P|434:119|475:194,1,160.000006103516,2|0,3:2|0:0,0:0:0:0:
333,252,69888,2,0,P|337:158|296:83,1,160.000006103516,2|0,3:2|0:0,0:0:0:0:
254,44,70204,2,0,B|221:70|228:115|228:115|212:72|165:66,1,160.000006103516,8|0,3:2|0:0,0:0:0:0:
98,36,70520,1,0,3:0:0:0:
24,184,70730,5,0,3:0:0:0:
24,184,70835,2,0,L|226:207,1,160.000006103516,4|0,3:2|0:0,0:0:0:0:
253,242,71151,2,0,L|354:253,2,80.0000030517579,2|2|0,0:0|0:0|0:0,0:0:0:0:
182,202,71467,6,0,B|212:127|212:127|179:52,1,160.000006103516,8|2,3:2|0:0,0:0:0:0:
119,8,71783,2,0,L|73:90,1,80.0000030517579,2|2,0:0|0:0,0:0:0:0:
24,184,71993,1,2,0:0:0:0:
24,184,72099,6,0,L|226:207,1,160.000006103516,2|2,3:2|0:0,0:0:0:0:
253,242,72414,2,0,L|354:253,2,80.0000030517579,0|0|2,3:0|0:0|0:0,0:0:0:0:
182,278,72730,6,0,B|160:291|160:313|160:313|179:293|214:291,1,80.0000030517579,8|0,3:2|0:0,0:0:0:0:
253,242,72941,1,0,3:0:0:0:
253,242,73046,2,0,P|356:237|389:166,1,160.000006103516,0|0,0:0|3:0,0:0:0:0:
432,36,73362,6,0,B|374:161|374:161|482:357,1,320.000012207032,0|0,3:0|0:0,0:0:0:0:
253,242,73993,2,0,B|284:174|284:174|225:67,1,160.000006103516,8|0,3:2|0:0,0:0:0:0:
176,64,74309,2,0,B|156:99|156:99|175:140,1,80.0000030517579,0|0,0:0|0:0,0:0:0:0:
242,21,74520,1,2,3:2:0:0:
242,99,74625,6,0,L|411:122,1,160.000006103516,0|2,3:0|0:0,0:0:0:0:
434,49,74941,2,0,P|480:128|440:188,1,160.000006103516,0|2,3:0|0:0,0:0:0:0:
372,195,75256,2,0,B|361:233|361:233|385:281,2,80.0000030517579,8|0|2,3:2|0:0|0:0,0:0:0:0:
289,200,75572,2,0,B|278:238|278:238|302:286,1,80.0000030517579,0|0,3:0|0:0,0:0:0:0:
344,338,75783,1,2,0:0:0:0:
256,336,75888,6,0,L|176:336,2,80.0000030517579,4|2|2,3:2|0:3|0:3,0:0:0:0:
131,264,76204,2,0,L|91:194,2,80.0000030517579,2|2|2,0:3|0:3|0:3,0:0:0:0:
131,120,76520,5,8,0:2:0:0:
131,120,76625,2,0,L|171:50,1,80.0000030517579,2|2,0:3|3:0,0:0:0:0:
256,48,76836,2,0,L|336:48,2,80.0000030517579,2|2|2,0:3|0:3|0:3,0:0:0:0:
380,119,77151,6,0,L|420:189,2,80.0000030517579,2|2|2,3:0|0:3|0:3,0:0:0:0:
380,264,77467,2,0,L|340:333,2,80.0000030517579,2|2|2,3:0|0:3|3:0,0:0:0:0:
256,336,77783,5,10,3:2:0:0:
256,336,77888,2,0,L|176:336,1,80.0000030517579,0|2,0:0|3:0,0:0:0:0:
131,264,78099,2,0,B|92:192|92:192|136:112,1,160.000006103516,2|2,3:0|3:0,0:0:0:0:
192,165,78414,6,0,L|192:237,2,53.3333333333333,2|2|2,3:0|0:3|0:3,0:0:0:0:
320,219,78730,2,0,L|320:147,2,53.3333333333333,2|2|2,0:3|0:3|0:3,0:0:0:0:
200,233,79046,6,0,L|262:269,2,53.3333333333333,10|2|2,3:2|0:3|0:3,0:0:0:0:
311,150,79362,2,0,L|249:114,2,53.3333333333333,2|0|2,0:3|0:0|3:0,0:0:0:0:
264,260,79677,5,2,3:2:0:0:
264,260,79783,2,0,L|326:224,1,53.3333333333333,2|2,0:3|0:0,0:0:0:0:
247,123,79993,1,2,3:0:0:0:
247,123,80099,2,0,L|185:159,1,53.3333333333333,2|2,0:3|3:0,0:0:0:0:
320,219,80309,5,8,3:2:0:0:
320,219,80414,2,0,L|320:147,1,53.3333333333333,0|2,0:0|0:3,0:0:0:0:
192,165,80625,1,2,3:0:0:0:
192,165,80730,2,0,L|192:237,1,53.3333333333333,0|2,0:0|3:0,0:0:0:0:
292,84,80941,5,4,3:2:0:0:
280,84,81046,1,2,0:3:0:0:
268,80,81151,1,2,0:3:0:0:
244,80,81257,1,2,0:3:0:0:
232,84,81362,1,2,0:3:0:0:
220,84,81467,1,2,0:3:0:0:
180,106,81572,5,2,3:0:0:0:
174,117,81677,1,2,0:3:0:0:
165,125,81782,1,2,0:3:0:0:
153,146,81888,1,2,0:3:0:0:
150,158,81993,1,2,0:3:0:0:
144,169,82098,1,2,0:3:0:0:
144,214,82204,5,2,3:0:0:0:
150,225,82309,1,2,0:3:0:0:
153,237,82414,1,2,0:3:0:0:
165,258,82520,1,2,0:3:0:0:
174,266,82625,1,2,0:3:0:0:
180,277,82730,1,2,0:3:0:0:
220,300,82835,5,2,3:0:0:0:
232,300,82940,1,2,0:3:0:0:
244,304,83045,1,2,0:3:0:0:
268,304,83151,1,2,0:3:0:0:
280,300,83256,1,2,0:3:0:0:
292,300,83361,1,2,0:3:0:0:
331,277,83467,5,2,3:0:0:0:
337,266,83572,1,2,0:3:0:0:
346,258,83677,1,2,0:3:0:0:
369,188,83783,5,2,3:0:0:0:
365,177,83888,1,2,0:3:0:0:
365,164,83993,1,2,0:3:0:0:
326,102,84099,5,2,3:0:0:0:
315,98,84204,1,2,0:3:0:0:
305,90,84309,1,2,0:3:0:0:
233,80,84415,5,2,3:0:0:0:
222,86,84520,1,2,0:3:0:0:
210,89,84625,1,2,3:0:0:0:
153,131,84730,5,2,3:0:0:0:
137,208,84835,1,2,3:0:0:0:
173,277,84941,1,2,3:2:0:0:
245,307,85046,1,2,3:0:0:0:
319,283,85151,1,2,3:0:0:0:
361,218,85256,1,2,3:2:0:0:
350,140,85362,1,2,3:0:0:0:
294,87,85467,1,2,3:0:0:0:
217,86,85572,1,2,3:2:0:0:
153,131,85677,5,2,3:0:0:0:
256,192,85993,6,0,L|256:44,1,106.666666666667,2|0,0:0|0:0,0:0:0:0:
308,28,86309,6,0,P|406:35|438:121,1,160.000006103516,4|0,3:1|0:0,0:0:0:0:
457,156,86625,1,10,0:0:0:0:
413,254,86835,5,0,0:0:0:0:
413,254,86941,1,2,0:0:0:0:
326,202,87151,1,2,0:0:0:0:
326,202,87256,6,0,B|343:253|306:291|306:291|320:252|289:220,1,160.000006103516,0|0,3:0|0:0,0:0:0:0:
230,183,87572,2,0,B|213:132|250:94|250:94|236:133|267:165,1,160.000006103516,0|0,3:0|0:0,0:0:0:0:
325,116,87888,6,0,L|417:105,2,80.0000030517579,8|2|2,3:2|0:0|3:2,0:0:0:0:
324,13,88204,5,2,0:0:0:0:
317,27,88309,1,2,0:0:0:0:
310,41,88414,1,2,0:0:0:0:
325,116,88520,6,0,B|456:191|397:360|397:360|365:305|272:280,1,400.00001525879,0|0,3:0|0:0,0:0:0:0:
187,268,89151,2,0,B|56:193|114:23|114:23|147:79|240:104,1,400.00001525879,10|0,0:0|0:0,0:0:0:0:
259,161,89783,6,0,B|330:156|330:156|341:158|341:158|435:150,1,160.000006103516,0|0,3:0|0:0,0:0:0:0:
486,109,90099,2,0,P|440:35|347:57,1,160.000006103516,0|0,3:0|0:0,0:0:0:0:
299,29,90414,6,0,L|208:38,1,80.0000030517579,8|2,3:2|0:0,0:0:0:0:
152,0,90625,1,2,3:2:0:0:
153,76,90730,6,0,L|62:85,1,80.0000030517579,2|2,0:0|0:0,0:0:0:0:
6,47,90941,1,2,0:0:0:0:
8,125,91046,6,0,B|108:82|157:225|21:315,1,240.000009155274,0|2,3:0|0:0,0:0:0:0:
271,369,91677,2,0,B|170:411|121:268|257:178,1,240.000009155274,10|0,0:0|3:0,0:0:0:0:
307,162,92204,5,0,0:0:0:0:
307,162,92309,2,0,P|335:180|398:169,1,80.0000030517579,0|0,3:0|0:0,0:0:0:0:
461,151,92520,5,0,0:0:0:0:
461,151,92625,2,0,P|490:135|512:75,1,80.0000030517579,0|0,3:0|0:0,0:0:0:0:
252,56,92941,6,0,B|195:83|195:83|195:151|195:151|255:187|255:187|315:151|315:151|315:83|315:83|259:56,1,400.00001525879,8|2,3:2|0:0,0:0:0:0:
177,0,93572,2,0,L|25:78,1,160.000006103516,0|0,3:0|0:0,0:0:0:0:
26,87,93888,6,0,L|50:190,1,80.0000030517579,0|0,3:0|0:0,0:0:0:0:
93,229,94099,1,0,0:0:0:0:
93,229,94204,2,0,L|141:436,1,160.000006103516,8|0,3:2|0:0,0:0:0:0:
144,378,94520,2,0,P|198:292|170:233,1,160.000006103516,0|0,0:0|0:0,0:0:0:0:
93,229,94835,6,0,L|293:263,1,160.000006103516,0|0,3:0|0:0,0:0:0:0:
332,249,95151,2,0,L|532:283,1,160.000006103516,0|0,3:0|0:0,0:0:0:0:
507,269,95467,5,8,3:2:0:0:
466,191,95677,1,0,3:0:0:0:
466,191,95783,2,0,P|468:107|404:70,1,160.000006103516,0|0,3:0|0:0,0:0:0:0:
343,27,96099,6,0,P|251:90|283:370,1,400.00001525879,4|0,3:2|0:0,0:0:0:0:
341,332,96730,2,0,P|341:140|179:38,1,400.00001525879,8|2,3:2|0:0,0:0:0:0:
104,30,97362,2,0,P|56:109|71:175,1,160.000006103516,0|0,3:0|0:0,0:0:0:0:
99,245,97677,6,0,L|195:230,1,80.0000030517579,0|0,3:0|0:0,0:0:0:0:
238,179,97888,1,0,0:0:0:0:
275,250,97993,2,0,P|319:162|274:104,1,160.000006103516,8|0,3:2|3:0,0:0:0:0:
240,57,98309,2,0,B|345:65|279:102|390:113,1,160.000006103516,0|0,0:0|0:0,0:0:0:0:
465,113,98625,2,0,B|191:133|363:230|74:258,1,400.00001525879,0|0,3:0|0:0,0:0:0:0:
24,255,99256,2,0,B|129:263|63:300|174:311,1,160.000006103516,8|0,0:0|0:0,0:0:0:0:
217,372,99572,2,0,P|256:382|293:372,2,80.0000030517579,0|0|0,0:0|0:0|0:0,0:0:0:0:
256,304,99888,6,0,L|256:208,1,53.3333333333333,0|0,3:0|0:0,0:0:0:0:
256,250,100099,1,2,0:0:0:0:
299,183,100204,6,0,L|299:87,1,53.3333333333333,2|0,3:2|0:0,0:0:0:0:
299,129,100415,1,2,0:0:0:0:
256,64,100520,6,0,P|338:58|371:90,1,106.666666666667,10|2,3:2|0:0,0:0:0:0:
413,120,100835,2,0,P|440:197|417:237,1,106.666666666667,2|2,3:2|0:0,0:0:0:0:
410,292,101151,6,0,L|231:280,1,160,0|2,3:0|0:0,0:0:0:0:
139,172,101783,2,0,L|318:184,1,160,10|0,0:0|0:0,0:0:0:0:
362,135,102309,1,2,0:0:0:0:
362,135,102414,1,0,3:0:0:0:
301,82,102625,1,0,0:0:0:0:
301,82,102730,1,0,3:0:0:0:
377,55,102941,1,2,0:0:0:0:
377,55,103046,5,8,3:2:0:0:
438,107,103257,1,0,3:0:0:0:
438,107,103362,1,0,0:0:0:0:
362,135,103572,1,2,0:0:0:0:
362,135,103677,6,0,P|360:213|398:258,1,106.666666666667,0|0,3:0|0:0,0:0:0:0:
370,246,103993,2,0,L|495:235,1,106.666666666667,0|0,3:0|0:0,0:0:0:0:
482,227,104309,1,8,3:2:0:0:
468,318,104520,1,0,0:0:0:0:
468,318,104625,1,2,0:0:0:0:
398,361,104835,1,0,0:0:0:0:
398,361,104941,6,0,L|273:350,1,106.666666666667,0|0,3:0|0:0,0:0:0:0:
283,346,105256,2,0,L|158:335,1,106.666666666667,0|0,3:0|0:0,0:0:0:0:
167,329,105572,5,8,3:2:0:0:
90,361,105783,1,0,3:0:0:0:
90,361,105888,1,0,0:0:0:0:
56,246,106204,5,6,0:0:0:0:
136,219,106414,1,0,0:0:0:0:
136,219,106519,1,0,0:0:0:0:
176,288,106730,1,0,0:0:0:0:
56,246,107467,5,2,0:0:0:0:
136,219,107677,1,0,0:0:0:0:
136,219,107782,1,0,0:0:0:0:
176,288,107993,1,0,0:0:0:0:
176,288,108730,5,2,0:0:0:0:
256,261,108940,1,0,0:0:0:0:
256,261,109046,1,0,0:0:0:0:
336,234,109256,1,0,0:0:0:0:
336,234,109993,5,2,0:0:0:0:
352,152,110204,1,2,0:0:0:0:
352,152,110309,1,2,0:0:0:0:
416,207,110519,1,0,0:0:0:0:
336,234,111256,5,2,0:0:0:0:
416,207,111467,1,0,0:0:0:0:
416,207,111572,1,0,0:0:0:0:
456,276,111782,1,0,0:0:0:0:
456,276,112519,5,2,0:0:0:0:
376,303,112730,1,0,0:0:0:0:
376,303,112835,1,2,0:0:0:0:
296,330,113046,1,0,0:0:0:0:
376,303,113782,5,2,0:0:0:0:
336,234,113993,1,0,0:0:0:0:
336,234,114098,1,0,0:0:0:0:
391,178,114309,1,0,0:0:0:0:
336,234,115046,5,2,0:0:0:0:
281,290,115256,1,0,0:0:0:0:
281,290,115361,1,2,0:0:0:0:
260,214,115572,1,0,0:0:0:0:
260,214,115677,1,2,0:0:0:0:
239,138,115888,1,0,0:0:0:0:
239,138,115993,1,2,0:0:0:0:
456,246,116204,1,0,0:0:0:0:
456,246,116309,5,2,0:0:0:0:
376,219,116519,1,0,0:0:0:0:
376,219,116624,1,0,0:0:0:0:
336,288,116834,1,0,0:0:0:0:
456,246,117572,5,2,0:0:0:0:
376,219,117783,1,0,0:0:0:0:
376,219,117888,1,0,0:0:0:0:
336,288,118099,1,0,0:0:0:0:
336,288,118835,5,2,0:0:0:0:
256,261,119046,1,0,0:0:0:0:
256,261,119151,1,0,0:0:0:0:
176,234,119362,1,0,0:0:0:0:
176,234,120099,5,2,0:0:0:0:
160,152,120309,1,0,0:0:0:0:
160,152,120414,1,0,0:0:0:0:
96,207,120625,1,0,0:0:0:0:
176,234,121362,5,2,0:0:0:0:
96,207,121572,1,0,0:0:0:0:
96,207,121677,1,0,0:0:0:0:
56,276,121888,1,0,0:0:0:0:
56,276,122625,5,2,0:0:0:0:
136,303,122835,1,0,0:0:0:0:
136,303,122941,1,0,0:0:0:0:
216,330,123151,1,0,0:0:0:0:
136,303,123888,5,2,0:0:0:0:
176,234,124099,1,0,0:0:0:0:
176,234,124204,1,0,0:0:0:0:
121,178,124414,1,0,0:0:0:0:
176,234,125151,5,2,0:0:0:0:
231,290,125362,1,0,0:0:0:0:
231,290,125467,1,0,0:0:0:0:
296,246,125677,5,0,0:0:0:0:
