osu file format v14

[General]
AudioFilename: audio.mp3
AudioLeadIn: 0
PreviewTime: 39941
Countdown: 0
SampleSet: Soft
StackLeniency: 0.5
Mode: 0
LetterboxInBreaks: 0
WidescreenStoryboard: 1

[Editor]
Bookmarks: 20257,30362,40468,60678,83731,86257,90994,96047,99836,106152
DistanceSpacing: 1
BeatDivisor: 6
GridSize: 4
TimelineZoom: 3.799998

[Metadata]
Title:enchanted love
TitleUnicode:enchanted love
Artist:linear ring
ArtistUnicode:linear ring
Creator:[Hatsune Miku]
Version:Hard
Source:
Tags:captin1 Necho gary00737 Arcaea 百舌谷 mozuya BOFXVI Rhythm Game future hop emotional future bass THE BMS OF FIGHTERS XVI -NEO DYSTOPIA- sixteen 16 electronic instrumental glitch hop
BeatmapID:2899384
BeatmapSetID:1403832

[Difficulty]
HPDrainRate:4
CircleSize:3.5
OverallDifficulty:5
ApproachRate:7
SliderMultiplier:1.3
SliderTickRate:1

[Events]
//Background and Video events
Video,0,"video.mp4"
0,0,"enchanted love.jpg",0,0
//Break Periods
//Storyboard Layer 0 (Background)
//Storyboard Layer 1 (Fail)
//Storyboard Layer 2 (Pass)
//Storyboard Layer 3 (Foreground)
//Storyboard Layer 4 (Overlay)
//Storyboard Sound Samples

[TimingPoints]
99,315.789473684211,4,2,1,40,1,0
99,-125,4,2,1,40,0,0
20309,-100,4,2,1,60,0,0
30414,-133.333333333333,4,2,1,60,0,0
37993,-100,4,2,1,60,0,0
40520,-100,4,2,1,80,0,0
58204,-133.333333333333,4,2,1,80,0,0
60414,-100,4,2,1,80,0,0
61362,-100,4,2,2,80,0,0
63256,-100,4,2,1,80,0,0
86309,-125,4,2,1,60,0,0
101151,-100,4,2,1,50,0,0
106204,-125,4,2,1,40,0,0

[Colours]
Combo1 : 0,204,199
Combo2 : 4,225,148
Combo3 : 170,244,217
Combo4 : 255,223,198

[HitObjects]
34,146,99,6,0,L|109:136,1,69.3333333333334,2|0,0:0|0:0,0:0:0:0:
121,149,414,2,0,P|136:184|133:218,1,69.3333333333334,0|0,0:0|0:0,0:0:0:0:
113,352,1046,1,0,0:0:0:0:
214,373,1362,6,0,L|289:383,1,69.3333333333334,2|0,0:0|0:0,0:0:0:0:
301,370,1677,2,0,P|316:334|313:301,1,69.3333333333334,0|0,0:0|0:0,0:0:0:0:
280,169,2309,1,0,0:0:0:0:
404,58,2625,6,0,L|399:136,1,69.3333333333333,2|0,0:0|0:0,0:0:0:0:
396,151,2941,2,0,L|474:156,1,69.3333333333333,0|0,0:0|0:0,0:0:0:0:
511,285,3572,1,0,0:0:0:0:
443,364,3888,6,0,P|416:333|407:294,1,69.3333333333333,2|0,0:0|0:0,0:0:0:0:
418,284,4204,2,0,L|344:277,1,69.3333333333333,0|0,0:0|0:0,0:0:0:0:
230,205,4835,1,2,0:0:0:0:
145,144,5151,6,0,L|71:137,1,69.3333333333333,2|0,0:0|0:0,0:0:0:0:
58,136,5467,2,0,P|44:106|50:56,1,69.3333333333333,0|0,0:0|0:0,0:0:0:0:
165,1,6099,1,2,0:0:0:0:
255,52,6414,6,0,L|337:59,1,69.3333333333333,2|0,0:0|0:0,0:0:0:0:
338,67,6730,2,0,L|420:74,1,69.3333333333333,0|0,0:0|0:0,0:0:0:0:
502,173,7362,1,2,0:0:0:0:
410,221,7677,6,0,L|328:228,1,69.3333333333333,2|0,0:0|0:0,0:0:0:0:
327,236,7993,2,0,L|245:243,1,69.3333333333333,0|0,0:0|0:0,0:0:0:0:
154,334,8625,1,2,0:0:0:0:
51,309,8941,6,0,P|20:296|0:268,1,69.3333333333333,2|0,0:0|0:0,0:0:0:0:
1,233,9256,1,2,0:0:0:0:
68,184,9467,1,0,0:0:0:0:
89,156,9572,2,0,L|101:82,1,69.3333333333333,2|0,0:0|0:0,0:0:0:0:
110,54,9888,1,2,0:0:0:0:
182,13,10099,1,0,0:0:0:0:
210,32,10204,6,0,L|286:35,1,69.3333333333333,2|0,0:0|0:0,0:0:0:0:
313,39,10520,1,0,0:0:0:0:
359,107,10730,1,0,0:0:0:0:
490,62,11151,1,2,0:0:0:0:
431,148,11467,6,0,P|426:189|424:220,1,69.3333333333333,2|0,0:0|0:0,0:0:0:0:
425,251,11783,1,0,0:0:0:0:
451,329,11993,1,0,0:0:0:0:
316,294,12414,1,2,0:0:0:0:
226,346,12730,6,0,P|157:357|155:357,1,69.3333333333333,2|0,0:0|0:0,0:0:0:0:
123,350,13046,1,0,0:0:0:0:
41,366,13256,1,0,0:0:0:0:
118,251,13677,1,2,0:0:0:0:
18,282,13993,6,0,P|14:241|25:203,1,69.3333333333333,2|0,0:0|0:0,0:0:0:0:
40,185,14309,1,0,0:0:0:0:
18,104,14520,1,0,0:0:0:0:
111,1,14941,1,2,0:0:0:0:
176,81,15256,6,0,L|253:83,1,69.3333333333333,2|0,0:0|0:0,0:0:0:0:
280,86,15572,1,0,0:0:0:0:
342,31,15783,1,0,0:0:0:0:
464,95,16204,1,2,0:0:0:0:
375,149,16520,6,0,P|376:186|403:218,1,69.3333333333333,2|0,0:0|0:0,0:0:0:0:
424,228,16835,1,0,0:0:0:0:
384,301,17046,1,0,0:0:0:0:
498,378,17467,1,2,0:0:0:0:
405,330,17783,6,0,P|372:312|331:319,1,69.3333333333333,2|0,0:0|0:0,0:0:0:0:
312,332,18098,1,0,0:0:0:0:
268,261,18309,1,0,0:0:0:0:
145,322,18730,1,2,0:0:0:0:
233,265,19046,6,0,P|265:245|279:206,1,69.3333333333333,2|0,0:0|0:0,0:0:0:0:
278,183,19361,1,0,0:0:0:0:
361,181,19572,1,0,0:0:0:0:
369,43,19993,1,2,0:0:0:0:
499,52,20309,6,0,L|369:43,1,130,4|2,0:1|0:0,0:0:0:0:
282,41,20835,1,0,0:0:0:0:
160,101,21151,1,2,0:0:0:0:
155,79,21256,2,0,L|57:59,1,86.6666666666667
48,59,21572,2,0,P|60:100|63:156,1,86.6666666666667,2|2,0:0|0:0,0:0:0:0:
43,182,21888,1,2,0:0:0:0:
53,268,22099,1,2,0:0:0:0:
161,340,22414,1,0,0:0:0:0:
176,324,22520,2,0,P|179:282|158:240,1,86.6666666666667,2|2,0:0|0:0,0:0:0:0:
139,235,22835,6,0,L|279:264,1,130,2|2,3:2|0:0,0:0:0:0:
350,285,23362,1,2,0:0:0:0:
460,195,23677,1,2,0:0:0:0:
465,216,23783,2,0,L|369:196,1,86.6666666666667
358,201,24099,6,0,L|354:60,2,130,2|2|2,0:0|0:0|0:0,0:0:0:0:
252,170,24941,1,2,0:0:0:0:
216,145,25046,2,0,P|172:124|125:119,1,86.6666666666667,2|0,0:0|0:0,0:0:0:0:
113,113,25362,6,0,L|116:242,1,130,2|2,3:2|0:0,0:0:0:0:
117,329,25888,1,0,0:0:0:0:
243,359,26204,1,2,0:0:0:0:
239,337,26309,2,0,P|277:290|289:249,1,86.6666666666667,0|2,0:0|0:0,0:0:0:0:
302,251,26625,6,0,P|329:298|362:316,1,86.6666666666667,2|2,0:0|0:0,0:0:0:0:
399,310,26941,1,2,0:0:0:0:
483,291,27151,1,2,0:0:0:0:
445,166,27467,1,0,0:0:0:0:
442,123,27572,2,0,L|437:23,1,86.6666666666667,2|2,0:0|0:0,0:0:0:0:
450,12,27888,6,0,P|411:-4|354:15,1,86.6666666666667,2|0,3:2|0:0,0:0:0:0:
357,23,28204,2,0,P|317:39|275:30,1,86.6666666666667,2|0,0:0|0:0,0:0:0:0:
253,29,28520,6,0,P|219:54|207:113,1,86.6666666666667,2|0,0:0|0:0,0:0:0:0:
216,115,28836,2,0,P|209:157|181:189,1,86.6666666666667,2|0,0:0|0:0,0:0:0:0:
169,208,29151,6,0,P|174:249|219:289,1,86.6666666666667,2|0,0:0|0:0,0:0:0:0:
225,283,29467,2,0,P|258:309|272:350,1,86.6666666666667,2|0,0:0|0:0,0:0:0:0:
282,370,29783,6,0,P|320:386|377:367,1,86.6666666666667,2|0,0:0|0:0,0:0:0:0:
374,359,30099,2,0,P|413:343|455:351,1,86.6666666666667,2|0,0:0|0:0,0:0:0:0:
467,381,30414,6,0,B|391:380|397:289|305:284|305:284|182:280|219:411|85:436|-21:416|-79:270|-20:131|128:139|174:148|182:280|316:278|316:278|397:278|483:197|481:110|398:69|324:37|404:105|190:52|190:52|237:85|241:142,1,1527.5000582695,4|0,3:1|0:0,0:0:0:0:
257,167,35467,6,0,P|304:157|352:163,1,97.50000371933,2|0,3:2|0:0,0:0:0:0:
446,192,35993,1,0,0:0:0:0:
446,192,36099,2,0,P|455:234|449:290,1,97.50000371933,2|0,3:2|0:0,0:0:0:0:
402,373,36625,1,0,0:0:0:0:
402,373,36730,2,0,P|360:382|304:376,1,97.50000371933,2|0,3:2|0:0,0:0:0:0:
221,329,37256,1,0,0:0:0:0:
221,329,37362,2,0,P|212:287|218:231,1,97.50000371933,2|0,3:2|0:0,0:0:0:0:
289,168,37888,1,0,0:0:0:0:
289,168,37993,6,0,P|308:156|317:137,2,43.3333333333333,2|2|0,3:2|0:0|0:0,0:0:0:0:
327,119,38309,2,0,P|326:97|314:79,2,43.3333333333333,2|2|0,3:2|0:0|0:0,0:0:0:0:
303,61,38625,2,0,P|283:50|261:52,2,43.3333333333333,2|2|0,3:2|0:0|0:0,0:0:0:0:
240,52,38941,2,0,P|221:63|211:83,2,43.3333333333333,2|2|0,3:2|0:0|0:0,0:0:0:0:
200,102,39256,6,0,L|106:92,1,86.6666666666667,2|2,3:2|3:2,0:0:0:0:
113,92,39572,1,2,3:2:0:0:
26,83,39783,1,2,3:2:0:0:
26,83,39888,1,2,3:2:0:0:
86,198,40204,1,2,0:0:0:0:
5,299,40520,6,0,L|141:322,1,130,4|2,3:1|0:0,0:0:0:0:
197,384,41046,1,2,0:0:0:0:
197,384,41151,2,0,L|282:371,1,86.6666666666667,8|0,3:2|0:0,0:0:0:0:
282,370,41467,1,2,0:0:0:0:
376,311,41677,1,2,0:0:0:0:
416,326,41783,6,0,P|445:287|439:244,1,86.6666666666667,0|0,3:0|0:0,0:0:0:0:
409,221,42099,2,0,L|351:212,2,43.3333333333333,2|2|0,0:0|0:0|0:0,0:0:0:0:
425,180,42414,1,8,3:2:0:0:
482,82,42625,1,0,3:0:0:0:
482,82,42730,2,0,L|491:24,2,43.3333333333333,2|2|0,0:0|0:0|0:0,0:0:0:0:
461,6,43046,6,0,L|323:20,1,130,0|2,3:0|0:0,0:0:0:0:
263,72,43572,1,2,0:0:0:0:
263,72,43677,2,0,P|212:88|178:70,1,86.6666666666667,8|2,3:2|0:0,0:0:0:0:
143,58,43993,2,0,L|137:11,2,43.3333333333333,2|2|2,0:0|0:0|0:0,0:0:0:0:
110,87,44309,6,0,P|69:100|14:38,2,130,0|0|8,3:0|3:0|3:2,0:0:0:0:
144,177,45151,1,2,3:2:0:0:
144,177,45256,1,2,0:0:0:0:
144,177,45362,2,0,L|139:232,1,43.3333333333333,2|2,0:0|0:0,0:0:0:0:
116,256,45572,6,0,P|175:257|255:267,1,130,0|2,3:0|0:0,0:0:0:0:
337,357,46204,2,0,P|401:364|466:366,1,130,8|2,3:2|0:0,0:0:0:0:
505,347,46625,2,0,L|494:292,1,43.3333333333333,2|2,0:0|0:0,0:0:0:0:
476,266,46835,6,0,P|457:216|463:139,2,130,0|0|8,3:0|3:0|3:2,0:0:0:0:
397,286,47677,1,0,3:0:0:0:
397,286,47783,1,2,0:0:0:0:
397,286,47888,2,0,P|375:255|360:248,1,43.3333333333333,2|2,0:0|0:0,0:0:0:0:
330,236,48099,6,0,L|183:242,1,130,0|0,3:0|0:0,0:0:0:0:
121,203,48625,1,2,0:0:0:0:
121,203,48730,2,0,L|115:56,1,130,8|0,3:2|0:0,0:0:0:0:
228,7,49362,6,0,L|375:1,2,130,0|0|8,3:0|3:0|3:2,0:0:0:0:
161,62,50204,2,0,P|130:47|42:84,1,130,0|0,3:0|0:0,0:0:0:0:
33,120,50625,6,0,L|44:256,1,130,4|2,3:2|0:0,0:0:0:0:
52,335,51151,1,2,0:0:0:0:
52,335,51256,2,0,P|84:325|107:332,2,43.3333333333333,10|2|2,0:0|0:0|0:0,0:0:0:0:
124,349,51572,2,0,P|145:349|165:340,2,43.3333333333333,2|2|2,0:0|0:0|0:0,0:0:0:0:
191,344,51888,6,0,L|329:339,1,130,0|2,3:0|0:0,0:0:0:0:
404,317,52414,1,2,0:0:0:0:
435,286,52520,2,0,L|430:148,1,130,8|2,3:2|0:0,0:0:0:0:
401,123,52941,2,0,L|399:73,1,43.3333333333333,2|2,0:0|0:0,0:0:0:0:
399,36,53151,6,0,P|349:71|276:66,1,130,0|2,3:0|0:0,0:0:0:0:
201,36,53677,1,2,0:0:0:0:
201,36,53783,2,0,L|146:32,2,43.3333333333333,10|2|2,3:2|0:0|0:0,0:0:0:0:
147,49,54099,2,0,L|92:45,2,43.3333333333333,2|2|2,0:0|0:0|0:0,0:0:0:0:
91,62,54414,6,0,L|100:159,1,86.6666666666667,0|2,3:0|0:0,0:0:0:0:
84,189,54730,2,0,L|93:286,1,86.6666666666667,0|2,3:0|0:0,0:0:0:0:
76,316,55046,1,8,3:2:0:0:
148,362,55256,1,2,3:2:0:0:
148,362,55362,2,0,P|194:357|248:358,1,86.6666666666667,2|2,0:0|0:0,0:0:0:0:
273,374,55677,6,0,P|284:283|385:143,1,260,6|2,3:2|0:0,0:0:0:0:
239,10,56941,6,0,P|228:101|127:241,1,260,4|2,3:2|0:0,0:0:0:0:
304,273,58204,6,0,P|360:186|136:240,1,585.00002231598,4|2,3:2|0:0,0:0:0:0:
206,331,60309,1,0,0:0:0:0:
206,331,60414,1,8,1:0:0:0:
304,273,60730,6,0,P|361:268|433:288,1,130,4|0,3:1|0:0,0:0:0:0:
512,384,61362,1,4,0:0:0:0:
447,81,63256,6,0,L|315:97,2,130,4|0|8,3:1|3:0|3:2,0:0:0:0:
443,171,64099,1,8,3:0:0:0:
443,171,64204,2,0,P|393:165|350:182,1,86.6666666666667,0|0,3:0|0:0,0:0:0:0:
333,211,64520,6,0,L|342:303,1,86.6666666666667,0|0,3:0|0:0,0:0:0:0:
322,336,64835,2,0,P|280:347|238:341,1,86.6666666666667,0|0,3:0|0:0,0:0:0:0:
201,317,65151,1,10,3:2:0:0:
117,341,65362,2,0,P|70:346|58:270,1,130,0|2,3:0|0:0,0:0:0:0:
72,239,65783,6,0,P|81:186|80:103,1,130,6|0,3:2|0:0,0:0:0:0:
190,40,66414,2,0,P|181:93|182:176,1,130,10|0,0:0|0:0,0:0:0:0:
291,239,67046,6,0,L|426:234,1,130,0|0,3:0|3:0,0:0:0:0:
470,163,67572,1,0,0:0:0:0:
470,163,67677,2,0,L|515:170,2,43.3333333333333,8|0|0,3:2|0:0|3:0,0:0:0:0:
450,124,67993,2,0,L|434:33,1,86.6666666666667,2|2,0:0|0:0,0:0:0:0:
392,46,68309,6,0,P|338:80|273:73,1,130,0|0,3:0|0:0,0:0:0:0:
215,137,68835,1,2,0:0:0:0:
215,137,68941,2,0,P|271:166|297:226,1,130,8|2,3:2|0:0,0:0:0:0:
382,244,69467,1,2,3:2:0:0:
382,244,69572,6,0,P|379:180|418:127,2,130,2|2|8,3:2|3:2|3:2,0:0:0:0:
409,371,70520,2,0,P|372:357|309:356,1,86.6666666666667,0|0,3:0|3:0,0:0:0:0:
286,371,70835,6,0,L|151:376,1,130,4|2,3:2|0:0,0:0:0:0:
125,344,71256,2,0,L|69:346,1,43.3333333333333,2|0,0:0|0:0,0:0:0:0:
46,319,71467,2,0,P|5:290|6:246,1,86.6666666666667,8|2,3:2|0:0,0:0:0:0:
28,221,71783,2,0,L|29:177,2,43.3333333333333,0|2|2,0:0|0:0|0:0,0:0:0:0:
11,134,72099,6,0,P|71:130|138:81,1,130,2|0,3:2|3:0,0:0:0:0:
211,60,72625,1,2,0:0:0:0:
211,60,72730,2,0,L|268:63,1,43.3333333333333,8|0,3:2|0:0,0:0:0:0:
278,98,72941,2,0,P|314:67|405:82,1,130,0|0,3:0|3:0,0:0:0:0:
430,93,73362,6,0,P|428:148|443:230,1,130,0|0,3:0|0:0,0:0:0:0:
364,327,73993,2,0,P|365:271|351:190,1,130,8|0,3:2|0:0,0:0:0:0:
271,166,74520,1,2,3:2:0:0:
271,166,74625,6,0,P|224:192|201:224,1,86.6666666666667,0|2,3:0|0:0,0:0:0:0:
197,260,74941,2,0,P|168:292|130:311,1,86.6666666666667,0|2,3:0|0:0,0:0:0:0:
90,292,75256,2,0,P|90:238|74:202,1,86.6666666666667,8|2,3:2|0:0,0:0:0:0:
46,181,75572,2,0,P|32:139|35:97,1,86.6666666666667,0|2,3:0|0:0,0:0:0:0:
21,55,75888,6,0,L|160:64,1,130,4|0,3:2|0:0,0:0:0:0:
281,73,76520,1,8,3:2:0:0:
329,144,76730,2,0,L|458:135,1,130,0|0,3:0|0:0,0:0:0:0:
502,134,77151,6,0,L|492:228,1,86.6666666666667,0|0,3:0|0:0,0:0:0:0:
487,263,77467,1,0,3:0:0:0:
388,347,77783,1,8,3:2:0:0:
308,312,77993,1,0,3:0:0:0:
308,312,78099,2,0,P|281:345|233:349,1,86.6666666666667,0|0,3:0|3:0,0:0:0:0:
202,327,78414,6,0,L|64:337,1,130,0|0,3:0|0:0,0:0:0:0:
0,227,79046,2,0,L|129:217,1,130,8|0,3:2|0:0,0:0:0:0:
205,175,79572,1,0,3:0:0:0:
205,175,79677,2,0,P|190:141|196:118,2,43.3333333333333,0|0|2,3:0|0:0|0:0,0:0:0:0:
237,204,79993,2,0,L|338:196,1,86.6666666666667,0|0,3:0|3:0,0:0:0:0:
366,192,80309,2,0,P|355:147|361:97,1,86.6666666666667,8|0,3:2|0:0,0:0:0:0:
383,71,80625,1,0,3:0:0:0:
466,48,80835,1,0,3:0:0:0:
504,68,80941,6,0,L|489:338,1,260,4|0,3:2|3:0,0:0:0:0:
229,334,82204,6,0,L|244:64,1,260,0|0,3:0|3:0,0:0:0:0:
386,291,83467,6,0,P|361:291|342:283,2,43.3333333333333,2|2|2,3:0|0:3|0:3,0:0:0:0:
337,262,83783,2,0,P|316:254|295:255,2,43.3333333333333,2|2|2,3:0|0:3|0:3,0:0:0:0:
280,270,84099,2,0,P|255:270|236:262,2,43.3333333333333,2|2|2,3:0|0:3|0:3,0:0:0:0:
231,241,84415,2,0,P|210:233|189:234,2,43.3333333333333,2|2|2,3:0|0:3|0:3,0:0:0:0:
175,247,84730,6,0,P|144:274|134:274,2,43.3333333333333,2|2|2,3:0|3:0|3:2,0:0:0:0:
127,278,85046,2,0,P|88:264|83:255,2,43.3333333333333,2|2|2,3:0|3:0|3:2,0:0:0:0:
63,245,85362,5,2,3:0:0:0:
62,223,85467,1,2,3:0:0:0:
61,201,85572,1,2,3:2:0:0:
60,179,85677,6,0,B|36:103|91:134|70:49,1,130,2|2,3:0|0:0,0:0:0:0:
165,9,86309,6,0,P|182:48|330:50,1,208,4|2,3:1|0:0,0:0:0:0:
419,7,87256,1,0,3:0:0:0:
497,75,87572,2,0,L|491:153,1,69.3333333333333,0|0,3:0|0:0,0:0:0:0:
491,179,87888,1,8,3:2:0:0:
439,247,88099,2,0,P|403:241|327:245,1,104,2|2,3:2|0:0,0:0:0:0:
309,266,88520,6,0,L|189:263,2,104,0|2|10,3:0|0:0|0:0,0:0:0:0:
302,349,89362,1,2,0:0:0:0:
288,380,89467,2,0,L|212:378,1,69.3333333333333,0|0,3:0|0:0,0:0:0:0:
200,348,89783,5,0,3:0:0:0:
102,383,90099,2,0,P|80:350|89:309,1,69.3333333333333,0|0,3:0|0:0,0:0:0:0:
102,293,90414,2,0,P|121:259|122:252,2,34.6666666666667,8|2|2,3:2|0:0|3:2,0:0:0:0:
124,244,90730,2,0,P|104:210|98:206,2,34.6666666666667,2|2|2,0:0|0:0|0:0,0:0:0:0:
84,192,91046,6,0,P|68:129|67:76,1,104,0|2,3:0|0:0,0:0:0:0:
167,67,91677,2,0,P|182:129|184:183,1,104,10|0,0:0|3:0,0:0:0:0:
256,244,92309,5,0,3:0:0:0:
327,168,92625,2,0,P|331:117|339:88,1,69.3333333333333,0|0,3:0|0:0,0:0:0:0:
359,75,92941,2,0,L|397:67,2,34.6666666666667,8|2|2,3:2|0:0|3:2,0:0:0:0:
419,86,93256,2,0,L|457:78,2,34.6666666666667,2|2|2,0:0|0:0|0:0,0:0:0:0:
473,58,93572,6,0,L|465:172,1,104,0|0,3:0|3:0,0:0:0:0:
426,235,94099,1,0,0:0:0:0:
454,265,94204,2,0,P|458:333|367:359,1,173.333333333333,8|0,3:2|0:0,0:0:0:0:
335,338,94835,6,0,P|295:322|222:328,1,104,0|0,3:0|3:0,0:0:0:0:
167,218,95467,2,0,P|207:234|280:228,1,104,8|0,3:2|3:0,0:0:0:0:
272,127,96099,6,0,B|150:118|201:194|74:182,2,208,4|8|0,3:2|3:2|3:0,0:0:0:0:
357,186,97677,1,0,3:0:0:0:
442,124,97993,1,8,3:2:0:0:
442,124,98204,2,0,P|441:76|473:30,1,104,0|0,3:0|0:0,0:0:0:0:
502,14,98625,6,0,P|419:36|293:28,1,208,0|8,3:0|0:0,0:0:0:0:
197,3,99572,1,0,0:0:0:0:
128,81,99888,6,0,P|126:118|144:159,1,69.3333333333333,0|2,3:0|0:0,0:0:0:0:
143,182,100204,2,0,P|174:201|218:207,1,69.3333333333333,2|2,3:2|0:0,0:0:0:0:
238,219,100520,2,0,P|205:236|178:271,1,69.3333333333333,10|2,3:2|0:0,0:0:0:0:
158,282,100836,2,0,P|156:319|173:360,1,69.3333333333333,2|2,3:2|0:0,0:0:0:0:
202,374,101151,6,0,P|306:367|468:377,1,260,0|10,3:0|0:0,0:0:0:0:
389,126,102414,6,0,P|336:129|255:124,2,130,0|0|8,3:0|3:0|3:2,0:0:0:0:
391,39,103256,2,0,P|326:42|261:38,1,130,0|2,3:0|0:0,0:0:0:0:
220,21,103677,5,0,3:0:0:0:
256,192,103993,12,0,105888,0:0:0:0:
256,192,106204,5,6,0:0:0:0:
199,93,106520,2,0,L|101:86,1,69.3333333333333
256,192,107467,5,2,0:0:0:0:
141,191,107783,2,0,L|86:273,1,69.3333333333333
256,192,108730,5,2,0:0:0:0:
198,289,109046,2,0,L|241:379,1,69.3333333333333,0|0,0:0|0:0,0:0:0:0:
256,192,109993,5,2,0:0:0:0:
336,179,110204,2,0,L|386:173,1,34.6666666666667,0|0,0:0|0:0,0:0:0:0:
489,124,110625,2,0,L|483:261,1,104,0|0,0:0|0:0,0:0:0:0:
478,369,111256,5,2,0:0:0:0:
386,287,111572,2,0,P|347:300|325:342,1,69.3333333333333,0|0,0:0|0:0,0:0:0:0:
365,172,112520,5,2,0:0:0:0:
248,209,112836,2,0,P|239:249|265:289,1,69.3333333333333,0|0,0:0|0:0,0:0:0:0:
137,170,113783,5,2,0:0:0:0:
112,290,114099,2,0,P|142:316|189:314,1,69.3333333333333,0|0,0:0|0:0,0:0:0:0:
256,40,115046,6,0,L|160:49,1,69.3333333333333,2|0,0:0|0:0,0:0:0:0:
161,63,115362,2,0,L|170:158,1,69.3333333333333,2|0,0:0|0:0,0:0:0:0:
184,157,115677,2,0,L|279:149,1,69.3333333333333,2|0,0:0|0:0,0:0:0:0:
280,162,115993,2,0,L|288:244,1,69.3333333333333,2|0,0:0|0:0,0:0:0:0:
290,264,116309,5,2,0:0:0:0:
411,270,116625,2,0,L|402:360,1,69.3333333333333
402,176,117572,5,2,0:0:0:0:
280,182,117888,2,0,L|290:272,1,69.3333333333333,0|0,0:0|0:0,0:0:0:0:
289,88,118835,5,2,0:0:0:0:
410,94,119151,2,0,L|401:184,1,69.3333333333333,0|0,0:0|0:0,0:0:0:0:
151,314,120099,6,0,L|137:191,1,104,2|0,0:0|0:0,0:0:0:0:
120,70,120730,1,2,0:0:0:0:
151,314,121362,5,2,0:0:0:0:
271,338,121677,2,0,L|362:328,1,69.3333333333333,0|0,0:0|0:0,0:0:0:0:
360,69,122625,5,2,0:0:0:0:
240,45,122940,2,0,L|149:55,1,69.3333333333333,0|0,0:0|0:0,0:0:0:0:
418,173,123888,5,2,0:0:0:0:
297,192,124204,2,0,L|203:192,1,69.3333333333333,0|0,0:0|0:0,0:0:0:0:
93,210,125151,5,2,0:0:0:0:
214,192,125467,2,0,L|308:192,1,69.3333333333333,0|0,0:0|0:0,0:0:0:0:
