osu file format v14

[General]
AudioFilename: audio.mp3
AudioLeadIn: 0
PreviewTime: 43942
Countdown: 0
SampleSet: Soft
StackLeniency: 0.7
Mode: 3
LetterboxInBreaks: 0
SpecialStyle: 0
WidescreenStoryboard: 1

[Editor]
DistanceSpacing: 0.8
BeatDivisor: 12
GridSize: 32
TimelineZoom: 3.199999

[Metadata]
Title:Can you hear me?
TitleUnicode:Can you hear me?
Artist:linear ring
ArtistUnicode:linear ring
Creator:Ulis-
Version:A little better (Hyper)
Source:
Tags:future bass emotional featured artist fa electronic keysound FAMoss instrumental
BeatmapID:3311140
BeatmapSetID:1621762

[Difficulty]
HPDrainRate:8
CircleSize:4
OverallDifficulty:8
ApproachRate:5
SliderMultiplier:1.4
SliderTickRate:1

[Events]
//Background and Video events
0,0,"Nyankosensei.jpg",0,0
//Break Periods
//Storyboard Layer 0 (Background)
//Storyboard Layer 1 (Fail)
//Storyboard Layer 2 (Pass)
//Storyboard Layer 3 (Foreground)
//Storyboard Layer 4 (Overlay)
//Storyboard Sound Samples
Sample,43346,0,"SROL.wav",70
Sample,43581,0,"SROL.wav",70
Sample,43817,0,"SROL.wav",70
Sample,111817,0,"SROL.wav",70
Sample,112052,0,"SROL.wav",70
Sample,112287,0,"SROL.wav",70

[TimingPoints]
178,705.882352941176,4,2,1,50,1,0
45354,-100,4,2,1,50,0,1
90530,-100,4,2,1,50,0,0
113119,-100,4,2,1,50,0,1
135001,-100,4,2,1,50,0,0

[HitObjects]
192,192,11119,128,0,11472:0:0:0:0:
64,192,11472,1,0,0:0:0:100:A#5S_Bb5S_s.wav
448,192,11472,1,0,0:0:0:100:G#5S_Ab5S_s.wav
64,192,14295,1,0,0:0:0:100:A#5S_Bb5S_s.wav
320,192,14295,1,0,0:0:0:100:F5S_s.wav
192,192,15001,1,0,0:0:0:100:G#5S_Ab5S_s.wav
192,192,15707,1,0,0:0:0:100:G#5S_Ab5S_s.wav
64,192,16177,1,0,0:0:0:100:F#5S_Gb5S_s.wav
320,192,16413,1,0,0:0:0:100:C#6S_Db6S_s.wav
64,192,16883,1,0,0:0:0:100:F#5S_Gb5S_s.wav
192,192,17119,1,0,0:0:0:100:G#5S_Ab5S_s.wav
448,192,17119,1,0,0:0:0:100:F5S_s.wav
320,192,17148,1,0,0:0:0:100:G#5S_Ab5S_s.wav
192,192,19942,1,0,0:0:0:100:A#5S_Bb5S_s.wav
448,192,19942,1,0,0:0:0:100:C#5S_Db5S_s.wav
64,192,21354,128,0,22060:0:0:0:100:B5S_s.wav
448,192,21354,128,0,22060:0:0:0:100:G5S_s.wav
64,192,22766,1,2,0:0:0:0:
448,192,22766,1,4,0:0:0:0:
64,192,23236,1,0,0:0:0:0:
320,192,23472,1,2,0:0:0:0:
448,192,23472,1,0,0:0:0:0:
448,192,23942,1,0,0:0:0:0:
64,192,24177,128,8,24236:0:0:0:0:
448,192,24648,1,0,0:0:0:0:
64,192,24883,1,2,0:0:0:0:
192,192,24883,1,0,0:0:0:0:
320,192,25119,1,0,0:0:0:0:
192,192,25354,1,0,0:0:0:0:
320,192,25589,1,2,0:0:0:0:
448,192,25589,1,0,0:0:0:0:
64,192,26060,1,0,0:0:0:0:
320,192,26295,1,2,0:0:0:0:
448,192,26295,1,0,0:0:0:0:
192,192,26530,1,0,0:0:0:0:
320,192,26766,1,0,0:0:0:0:
64,192,27001,128,8,27060:0:0:0:0:
320,192,27236,1,2,0:0:0:0:
448,192,27236,1,0,0:0:0:0:
192,192,27472,1,0,0:0:0:0:
64,192,27707,1,2,0:0:0:0:
448,192,27707,1,0,0:0:0:0:
320,192,27942,1,0,0:0:0:0:
64,192,28177,1,2,0:0:0:0:
192,192,28177,1,0,0:0:0:0:
320,192,28413,1,2,0:0:0:0:
448,192,28413,1,0,0:0:0:0:
448,192,28883,1,0,0:0:0:0:
64,192,29119,1,2,0:0:0:0:
192,192,29119,1,0,0:0:0:0:
64,192,29589,1,0,0:0:0:0:
448,192,29825,128,8,29883:0:0:0:0:
64,192,30295,1,0,0:0:0:0:
320,192,30530,1,2,0:0:0:0:
448,192,30530,1,0,0:0:0:0:
192,192,30766,1,0,0:0:0:0:
320,192,31001,1,0,0:0:0:0:
64,192,31236,1,2,0:0:0:0:
192,192,31236,1,0,0:0:0:0:
448,192,31707,1,0,0:0:0:0:
64,192,31942,1,2,0:0:0:0:
192,192,31942,1,0,0:0:0:0:
320,192,32177,1,0,0:0:0:0:
192,192,32413,1,0,0:0:0:0:
448,192,32648,128,8,32707:0:0:0:0:
64,192,32883,1,2,0:0:0:0:
192,192,32883,1,0,0:0:0:0:
320,192,33119,1,0,0:0:0:0:
64,192,33354,1,2,0:0:0:0:
448,192,33354,1,0,0:0:0:0:
192,192,33589,1,0,0:0:0:0:
320,192,33825,1,2,0:0:0:0:
448,192,33825,1,0,0:0:0:0:
64,192,34060,1,2,0:0:0:0:
192,192,34060,1,0,0:0:0:70:SROL.wav
448,192,34060,1,0,0:0:0:0:
320,192,34295,1,0,0:0:0:0:
448,192,34295,1,0,0:0:0:0:
192,192,34413,1,0,0:0:0:0:
64,192,34530,1,0,0:0:0:70:SROL.wav
448,192,34530,1,0,0:0:0:0:
64,192,34766,1,2,0:0:0:0:
192,192,34766,1,0,0:0:0:70:SROL.wav
320,192,35001,1,0,0:0:0:0:
448,192,35001,1,0,0:0:0:0:
192,192,35119,1,0,0:0:0:0:
64,192,35236,1,0,0:0:0:70:SROL.wav
448,192,35236,1,0,0:0:0:0:
320,192,35354,1,0,0:0:0:0:
64,192,35472,1,2,0:0:0:0:
192,192,35472,1,0,0:0:0:70:SROL.wav
320,192,35707,1,0,0:0:0:0:
448,192,35707,1,0,0:0:0:0:
192,192,35825,1,0,0:0:0:0:
64,192,35942,1,0,0:0:0:70:SROL.wav
448,192,35942,1,0,0:0:0:0:
64,192,36177,1,2,0:0:0:0:
192,192,36177,1,0,0:0:0:70:SROL.wav
320,192,36295,1,0,0:0:0:0:
64,192,36413,1,0,0:0:0:70:SROL.wav
448,192,36413,1,0,0:0:0:0:
192,192,36530,1,0,0:0:0:0:
64,192,36648,1,0,0:0:0:70:SROL.wav
448,192,36648,1,0,0:0:0:0:
320,192,36766,1,0,0:0:0:0:
192,192,36825,1,0,0:0:0:0:
64,192,36883,1,2,0:0:0:0:
448,192,36883,1,0,0:0:0:70:SROL.wav
64,192,37119,1,0,0:0:0:70:SROL.wav
448,192,37119,1,0,0:0:0:0:
192,192,37236,1,0,0:0:0:0:
320,192,37354,1,0,0:0:0:70:SROL.wav
448,192,37354,1,0,0:0:0:0:
64,192,37589,1,2,0:0:0:0:
192,192,37589,1,0,0:0:0:70:SROL.wav
320,192,37825,1,0,0:0:0:70:SROL.wav
448,192,37825,1,0,0:0:0:0:
192,192,37942,1,0,0:0:0:0:
64,192,38060,1,0,0:0:0:70:SROL.wav
448,192,38060,1,0,0:0:0:0:
320,192,38177,1,0,0:0:0:0:
64,192,38295,1,2,0:0:0:0:
192,192,38295,1,0,0:0:0:70:SROL.wav
320,192,38413,1,0,0:0:0:0:
64,192,38530,1,0,0:0:0:70:SROL.wav
448,192,38530,1,0,0:0:0:0:
192,192,38766,1,0,0:0:0:70:SROL.wav
320,192,38883,1,0,0:0:0:70:SROL.wav
64,192,39001,1,2,0:0:0:0:
448,192,39001,1,0,0:0:0:70:SROL.wav
320,192,39236,1,0,0:0:0:70:SROL.wav
448,192,39236,1,0,0:0:0:0:
192,192,39354,1,0,0:0:0:70:SROL.wav
64,192,39472,1,0,0:0:0:70:SROL.wav
448,192,39472,1,0,0:0:0:0:
320,192,39589,1,0,0:0:0:70:SROL.wav
64,192,39707,1,2,0:0:0:0:
192,192,39707,1,0,0:0:0:70:SROL.wav
192,192,39942,1,0,0:0:0:70:SROL.wav
448,192,39942,1,0,0:0:0:0:
320,192,40177,1,2,0:0:0:0:
448,192,40177,1,0,0:0:0:70:SROL.wav
320,192,40295,1,0,0:0:0:0:
64,192,40413,1,2,0:0:0:0:
192,192,40413,1,0,0:0:0:70:SROL.wav
64,192,40530,1,0,0:0:0:0:
320,192,40648,1,0,0:0:0:0:
448,192,40648,1,0,0:0:0:0:
64,192,40883,1,2,0:0:0:0:
192,192,40883,1,0,0:0:0:70:SROL.wav
192,192,41001,1,0,0:0:0:70:SROL.wav
320,192,41119,1,2,0:0:0:0:
448,192,41119,1,0,0:0:0:70:SROL.wav
448,192,41236,1,0,0:0:0:70:SROL.wav
64,192,41354,1,0,0:0:0:70:SROL.wav
192,192,41472,1,0,0:0:0:70:SROL.wav
320,192,41589,1,2,0:0:0:0:
448,192,41589,1,0,0:0:0:70:SROL.wav
320,192,41707,1,0,0:0:0:70:SROL.wav
64,192,41825,1,2,0:0:0:0:
192,192,41825,1,0,0:0:0:70:SROL.wav
64,192,41942,1,0,0:0:0:70:SROL.wav
448,192,42060,1,0,0:0:0:70:SROL.wav
320,192,42177,1,0,0:0:0:70:SROL.wav
64,192,42295,1,2,0:0:0:0:
192,192,42295,1,0,0:0:0:70:SROL.wav
320,192,42472,1,0,0:0:0:0:
64,192,42530,1,2,0:0:0:0:
448,192,42530,1,0,0:0:0:70:SROL.wav
64,192,42648,1,0,0:0:0:70:SROL.wav
192,192,42766,1,2,0:0:0:0:
448,192,42766,1,0,0:0:0:70:SROL.wav
448,192,42883,1,0,0:0:0:70:SROL.wav
192,192,43001,1,2,0:0:0:0:
320,192,43001,1,0,0:0:0:70:SROL.wav
192,192,43119,1,0,0:0:0:70:SROL.wav
64,192,43236,1,2,0:0:0:0:
448,192,43236,1,0,0:0:0:70:SROL.wav
320,192,43295,1,0,0:0:0:70:SROL.wav
192,192,43354,1,2,0:0:0:0:
64,192,43413,1,0,0:0:0:70:SROL.wav
320,192,43472,1,2,0:0:0:0:
448,192,43472,1,0,0:0:0:70:SROL.wav
192,192,43530,1,0,0:0:0:70:SROL.wav
64,192,43589,1,2,0:0:0:0:
448,192,43648,1,0,0:0:0:70:SROL.wav
192,192,43707,1,2,0:0:0:0:
320,192,43707,1,0,0:0:0:70:SROL.wav
64,192,43766,1,0,0:0:0:70:SROL.wav
448,192,43825,1,2,0:0:0:0:
320,192,43883,1,0,0:0:0:70:SROL.wav
192,192,43942,1,0,0:0:0:0:
320,192,44060,1,0,0:0:0:0:
448,192,44177,1,0,0:0:0:0:
64,192,44295,1,0,0:0:0:0:
192,192,44354,1,0,0:0:0:0:
448,192,44413,1,0,0:0:0:0:
320,192,44472,1,0,0:0:0:0:
192,192,44530,1,0,0:0:0:0:
64,192,44648,1,0,0:0:0:0:
192,192,44707,1,0,0:0:0:0:
320,192,44766,1,0,0:0:0:0:
64,192,44883,1,0,0:0:0:0:
192,192,45001,1,0,0:0:0:0:
320,192,45060,1,0,0:0:0:0:
448,192,45119,1,0,0:0:0:0:
448,192,45236,1,0,0:0:0:0:
320,192,45295,1,0,0:0:0:0:
64,192,45354,128,4,45825:0:0:0:0:
192,192,45354,128,2,45825:0:0:0:0:
448,192,45825,1,0,0:0:0:0:
320,192,45942,1,0,0:0:0:0:
192,192,46060,1,2,0:0:0:0:
448,192,46177,1,0,0:0:0:0:
64,192,46295,1,0,0:0:0:0:
448,192,46413,1,0,0:0:0:0:
64,192,46530,1,0,0:0:0:0:
192,192,46648,1,0,0:0:0:0:
64,192,46766,1,0,0:0:0:0:
448,192,46883,1,0,0:0:0:0:
192,192,46942,1,0,0:0:0:0:
320,192,47001,1,2,0:0:0:0:
448,192,47119,1,0,0:0:0:0:
64,192,47236,1,2,0:0:0:0:
448,192,47354,1,0,0:0:0:0:
320,192,47413,1,0,0:0:0:0:
64,192,47472,1,0,0:0:0:0:
192,192,47530,1,0,0:0:0:0:
320,192,47589,1,0,0:0:0:0:
448,192,47707,1,2,0:0:0:0:
320,192,47766,1,0,0:0:0:0:
192,192,47825,1,0,0:0:0:0:
64,192,47942,1,2,0:0:0:0:
192,192,48060,1,0,0:0:0:0:
320,192,48177,128,2,48472:0:0:0:0:
448,192,48177,128,0,48472:0:0:0:0:
320,192,48530,128,0,48707:0:0:0:0:
448,192,48530,128,0,48707:0:0:0:0:
64,192,48766,1,0,0:0:0:0:
192,192,48825,1,0,0:0:0:0:
320,192,48883,1,2,0:0:0:0:
64,192,49001,1,0,0:0:0:0:
448,192,49060,1,0,0:0:0:0:
192,192,49119,1,0,0:0:0:0:
448,192,49236,1,0,0:0:0:0:
64,192,49295,1,0,0:0:0:0:
320,192,49354,1,0,0:0:0:0:
192,192,49472,1,0,0:0:0:0:
448,192,49589,1,8,0:0:0:0:
320,192,49707,1,0,0:0:0:0:
192,192,49825,1,2,0:0:0:0:
64,192,49942,1,0,0:0:0:0:
320,192,50001,1,0,0:0:0:0:
64,192,50060,1,0,0:0:0:0:
448,192,50119,1,0,0:0:0:0:
320,192,50177,1,0,0:0:0:0:
192,192,50236,1,0,0:0:0:0:
64,192,50295,128,2,50354:0:0:0:0:
64,192,50413,128,0,50472:0:0:0:0:
448,192,50530,128,0,50589:0:0:0:0:
448,192,50648,128,0,50707:0:0:0:0:
320,192,50766,128,2,50825:0:0:0:0:
320,192,50883,128,2,50942:0:0:0:0:
64,192,51001,128,2,51707:0:0:0:0:
192,192,51001,128,0,51707:0:0:0:0:
448,192,51707,1,2,0:0:0:0:
320,192,51766,1,0,0:0:0:0:
192,192,51825,1,0,0:0:0:0:
64,192,51883,1,0,0:0:0:0:
448,192,51942,1,0,0:0:0:0:
320,192,52001,1,0,0:0:0:0:
192,192,52060,1,0,0:0:0:0:
64,192,52119,1,0,0:0:0:0:
448,192,52177,1,0,0:0:0:0:
320,192,52236,1,0,0:0:0:0:
192,192,52295,1,0,0:0:0:0:
64,192,52354,1,0,0:0:0:0:
448,192,52413,1,8,0:0:0:0:
192,192,52530,1,0,0:0:0:0:
64,192,52648,1,0,0:0:0:0:
448,192,52707,1,0,0:0:0:0:
192,192,52766,1,0,0:0:0:0:
448,192,52825,1,0,0:0:0:0:
64,192,52883,1,2,0:0:0:0:
320,192,53001,1,0,0:0:0:0:
192,192,53119,1,0,0:0:0:0:
448,192,53236,1,0,0:0:0:0:
320,192,53295,1,0,0:0:0:0:
64,192,53354,1,0,0:0:0:0:
192,192,53413,1,0,0:0:0:0:
448,192,53472,1,0,0:0:0:0:
320,192,53530,1,0,0:0:0:0:
192,192,53589,1,2,0:0:0:0:
64,192,53648,1,0,0:0:0:0:
448,192,53707,1,0,0:0:0:0:
320,192,53766,1,0,0:0:0:0:
64,192,53825,1,2,0:0:0:0:
192,192,53825,1,0,0:0:0:0:
64,192,53942,128,0,54001:0:0:0:0:
192,192,54060,128,0,54119:0:0:0:0:
192,192,54177,128,0,54236:0:0:0:0:
320,192,54295,128,0,54354:0:0:0:0:
320,192,54413,128,0,54472:0:0:0:0:
448,192,54530,1,2,0:0:0:0:
448,192,54648,128,0,54707:0:0:0:0:
320,192,54707,128,0,54766:0:0:0:0:
192,192,54766,128,0,54825:0:0:0:0:
192,192,54883,128,0,54942:0:0:0:0:
192,192,55001,128,0,55060:0:0:0:0:
320,192,55060,128,0,55119:0:0:0:0:
448,192,55119,128,0,55177:0:0:0:0:
64,192,55177,128,0,55236:0:0:0:0:
192,192,55236,128,8,55295:0:0:0:0:
192,192,55354,128,0,55413:0:0:0:0:
448,192,55472,1,2,0:0:0:0:
448,192,55589,128,0,55648:0:0:0:0:
320,192,55648,128,0,55707:0:0:0:0:
192,192,55707,128,0,55766:0:0:0:0:
64,192,55766,128,0,55825:0:0:0:0:
448,192,55825,128,0,55883:0:0:0:0:
320,192,55883,128,0,55942:0:0:0:0:
64,192,55942,1,2,0:0:0:0:
64,192,56060,128,0,56119:0:0:0:0:
192,192,56119,128,0,56177:0:0:0:0:
320,192,56177,128,0,56236:0:0:0:0:
320,192,56295,128,0,56354:0:0:0:0:
192,192,56413,1,2,0:0:0:0:
192,192,56530,128,0,56589:0:0:0:0:
64,192,56648,128,4,57119:0:0:0:0:
448,192,56648,128,2,57119:0:0:0:0:
192,192,57119,1,0,0:0:0:0:
320,192,57236,1,0,0:0:0:0:
192,192,57295,1,0,0:0:0:0:
64,192,57354,1,2,0:0:0:0:
320,192,57472,1,0,0:0:0:0:
448,192,57589,1,0,0:0:0:0:
320,192,57707,1,0,0:0:0:0:
64,192,57825,1,0,0:0:0:0:
192,192,57942,1,0,0:0:0:0:
448,192,58060,1,0,0:0:0:0:
192,192,58177,1,0,0:0:0:0:
448,192,58236,1,0,0:0:0:0:
64,192,58295,1,0,0:0:0:0:
192,192,58413,1,0,0:0:0:0:
320,192,58530,1,0,0:0:0:0:
448,192,58648,1,0,0:0:0:0:
320,192,58707,1,0,0:0:0:0:
64,192,58766,1,0,0:0:0:0:
192,192,58825,1,0,0:0:0:0:
320,192,58883,1,0,0:0:0:0:
64,192,59001,1,0,0:0:0:0:
192,192,59060,1,0,0:0:0:0:
448,192,59119,1,0,0:0:0:0:
320,192,59177,1,0,0:0:0:0:
192,192,59236,1,2,0:0:0:0:
64,192,59354,1,2,0:0:0:0:
320,192,59472,128,2,59766:0:0:0:0:
448,192,59472,128,0,59766:0:0:0:0:
320,192,59825,128,0,60001:0:0:0:0:
448,192,59825,128,0,60001:0:0:0:0:
64,192,60060,1,0,0:0:0:0:
192,192,60119,1,0,0:0:0:0:
320,192,60177,1,2,0:0:0:0:
64,192,60236,1,0,0:0:0:0:
320,192,60295,1,0,0:0:0:0:
192,192,60354,1,0,0:0:0:0:
448,192,60413,1,0,0:0:0:0:
192,192,60472,1,0,0:0:0:0:
320,192,60530,1,0,0:0:0:0:
64,192,60589,1,0,0:0:0:0:
320,192,60648,1,0,0:0:0:0:
320,192,60766,1,0,0:0:0:0:
192,192,60883,1,8,0:0:0:0:
448,192,60942,1,0,0:0:0:0:
192,192,61001,1,0,0:0:0:0:
320,192,61060,1,0,0:0:0:0:
64,192,61119,1,2,0:0:0:0:
320,192,61177,1,0,0:0:0:0:
192,192,61236,1,0,0:0:0:0:
448,192,61295,1,0,0:0:0:0:
192,192,61354,1,0,0:0:0:0:
192,192,61472,1,0,0:0:0:0:
64,192,61589,1,2,0:0:0:0:
192,192,61648,1,0,0:0:0:0:
448,192,61707,1,0,0:0:0:0:
320,192,61766,1,0,0:0:0:0:
192,192,61825,1,0,0:0:0:0:
64,192,61883,1,0,0:0:0:0:
448,192,61942,1,0,0:0:0:0:
320,192,62001,1,0,0:0:0:0:
192,192,62060,1,2,0:0:0:0:
64,192,62119,1,0,0:0:0:0:
448,192,62177,1,2,0:0:0:0:
320,192,62236,1,0,0:0:0:0:
64,192,62295,128,2,63001:0:0:0:0:
192,192,62295,128,0,63001:0:0:0:0:
448,192,63001,1,2,0:0:0:0:
320,192,63119,1,0,0:0:0:0:
64,192,63236,1,0,0:0:0:0:
448,192,63354,1,0,0:0:0:0:
320,192,63413,1,0,0:0:0:0:
192,192,63472,1,0,0:0:0:0:
64,192,63589,1,0,0:0:0:0:
320,192,63707,1,8,0:0:0:0:
192,192,63825,1,0,0:0:0:0:
448,192,63942,1,0,0:0:0:0:
192,192,64060,1,0,0:0:0:0:
64,192,64119,1,0,0:0:0:0:
448,192,64177,1,2,0:0:0:0:
320,192,64236,1,0,0:0:0:0:
64,192,64295,1,0,0:0:0:0:
192,192,64354,1,0,0:0:0:0:
320,192,64413,1,0,0:0:0:0:
448,192,64530,1,0,0:0:0:0:
192,192,64648,1,0,0:0:0:0:
320,192,64766,1,0,0:0:0:0:
192,192,64825,1,0,0:0:0:0:
64,192,64883,1,2,0:0:0:0:
448,192,64942,1,0,0:0:0:0:
320,192,65001,1,0,0:0:0:0:
192,192,65060,1,0,0:0:0:0:
64,192,65119,1,2,0:0:0:0:
448,192,65119,1,0,0:0:0:0:
448,192,65236,128,0,65295:0:0:0:0:
320,192,65354,128,0,65413:0:0:0:0:
320,192,65472,128,0,65530:0:0:0:0:
192,192,65589,128,0,65648:0:0:0:0:
192,192,65707,128,0,65766:0:0:0:0:
64,192,65825,1,2,0:0:0:0:
64,192,65942,128,0,66001:0:0:0:0:
192,192,66001,128,0,66060:0:0:0:0:
320,192,66060,128,0,66119:0:0:0:0:
320,192,66177,128,0,66236:0:0:0:0:
320,192,66295,128,0,66354:0:0:0:0:
192,192,66354,128,0,66413:0:0:0:0:
64,192,66413,128,0,66472:0:0:0:0:
448,192,66472,128,0,66530:0:0:0:0:
320,192,66530,128,8,66589:0:0:0:0:
320,192,66648,128,0,66707:0:0:0:0:
64,192,66766,1,2,0:0:0:0:
64,192,66883,128,0,66942:0:0:0:0:
192,192,66942,128,0,67001:0:0:0:0:
320,192,67001,128,0,67060:0:0:0:0:
448,192,67060,128,0,67119:0:0:0:0:
64,192,67119,128,0,67177:0:0:0:0:
192,192,67177,128,0,67236:0:0:0:0:
448,192,67236,1,2,0:0:0:0:
448,192,67354,128,0,67413:0:0:0:0:
320,192,67413,128,0,67472:0:0:0:0:
192,192,67472,128,0,67530:0:0:0:0:
192,192,67589,128,0,67648:0:0:0:0:
320,192,67707,1,2,0:0:0:0:
320,192,67825,128,0,67883:0:0:0:0:
64,192,67942,128,2,68295:0:0:0:0:
192,192,67942,1,4,0:0:0:0:
448,192,67942,128,0,68295:0:0:0:0:
192,192,68177,1,0,0:0:0:0:
320,192,68295,1,0,0:0:0:0:
192,192,68354,1,0,0:0:0:0:
64,192,68413,1,0,0:0:0:0:
320,192,68530,1,0,0:0:0:0:
448,192,68648,1,2,0:0:0:0:
192,192,68766,1,0,0:0:0:0:
320,192,68883,1,0,0:0:0:0:
192,192,69001,1,0,0:0:0:0:
320,192,69119,1,0,0:0:0:0:
448,192,69236,1,0,0:0:0:0:
64,192,69354,1,0,0:0:0:0:
448,192,69530,1,0,0:0:0:0:
192,192,69589,1,0,0:0:0:0:
320,192,69707,1,0,0:0:0:0:
64,192,69825,1,0,0:0:0:0:
448,192,69942,1,0,0:0:0:0:
320,192,70001,1,0,0:0:0:0:
64,192,70060,1,0,0:0:0:0:
192,192,70119,1,0,0:0:0:0:
320,192,70177,1,0,0:0:0:0:
448,192,70295,1,0,0:0:0:0:
320,192,70354,1,0,0:0:0:0:
192,192,70413,1,0,0:0:0:0:
64,192,70530,1,2,0:0:0:0:
192,192,70648,1,2,0:0:0:0:
64,192,70766,1,2,0:0:0:0:
320,192,70766,128,0,71060:0:0:0:0:
448,192,70766,128,0,71060:0:0:0:0:
192,192,71001,1,0,0:0:0:0:
64,192,71119,1,0,0:0:0:0:
320,192,71119,128,0,71295:0:0:0:0:
448,192,71119,128,0,71295:0:0:0:0:
192,192,71177,1,0,0:0:0:0:
64,192,71236,1,0,0:0:0:0:
64,192,71354,1,0,0:0:0:0:
192,192,71413,1,0,0:0:0:0:
320,192,71472,1,2,0:0:0:0:
448,192,71589,1,0,0:0:0:0:
320,192,71648,1,0,0:0:0:0:
192,192,71707,1,0,0:0:0:0:
64,192,71825,1,0,0:0:0:0:
192,192,71942,1,0,0:0:0:0:
448,192,72060,1,0,0:0:0:0:
64,192,72177,1,8,0:0:0:0:
448,192,72295,1,0,0:0:0:0:
320,192,72354,1,0,0:0:0:0:
192,192,72413,1,2,0:0:0:0:
448,192,72648,1,0,0:0:0:0:
320,192,72766,1,0,0:0:0:0:
64,192,72883,128,2,72942:0:0:0:0:
64,192,73001,128,0,73060:0:0:0:0:
448,192,73119,128,0,73177:0:0:0:0:
448,192,73236,128,0,73295:0:0:0:0:
320,192,73354,128,2,73413:0:0:0:0:
320,192,73472,128,2,73530:0:0:0:0:
64,192,73589,128,2,74295:0:0:0:0:
192,192,73589,128,0,74295:0:0:0:0:
448,192,73589,1,0,0:0:0:0:
320,192,73825,1,0,0:0:0:0:
448,192,73942,1,0,0:0:0:0:
320,192,74001,1,0,0:0:0:0:
448,192,74060,1,0,0:0:0:0:
320,192,74177,1,0,0:0:0:0:
448,192,74295,1,2,0:0:0:0:
320,192,74413,1,0,0:0:0:0:
64,192,74530,1,0,0:0:0:0:
192,192,74648,1,0,0:0:0:0:
64,192,74766,1,0,0:0:0:0:
448,192,74883,1,0,0:0:0:0:
192,192,75001,1,8,0:0:0:0:
64,192,75177,1,0,0:0:0:0:
192,192,75354,1,0,0:0:0:0:
448,192,75472,1,2,0:0:0:0:
64,192,75589,1,0,0:0:0:0:
192,192,75707,1,0,0:0:0:0:
320,192,75942,1,0,0:0:0:0:
448,192,76060,1,0,0:0:0:0:
64,192,76177,1,2,0:0:0:0:
192,192,76236,1,0,0:0:0:0:
448,192,76295,1,0,0:0:0:0:
320,192,76354,1,0,0:0:0:0:
64,192,76413,1,2,0:0:0:0:
192,192,76413,1,0,0:0:0:0:
64,192,76530,128,0,76589:0:0:0:0:
192,192,76648,128,0,76707:0:0:0:0:
192,192,76766,128,0,76825:0:0:0:0:
320,192,76883,128,0,76942:0:0:0:0:
320,192,77001,128,0,77060:0:0:0:0:
448,192,77119,1,2,0:0:0:0:
448,192,77236,128,0,77295:0:0:0:0:
320,192,77295,128,0,77354:0:0:0:0:
192,192,77354,128,0,77413:0:0:0:0:
192,192,77472,128,0,77530:0:0:0:0:
192,192,77589,128,0,77648:0:0:0:0:
320,192,77648,128,0,77707:0:0:0:0:
448,192,77707,128,0,77766:0:0:0:0:
64,192,77766,128,0,77825:0:0:0:0:
192,192,77825,128,8,77883:0:0:0:0:
192,192,77942,128,0,78001:0:0:0:0:
448,192,78060,1,2,0:0:0:0:
448,192,78177,128,0,78236:0:0:0:0:
320,192,78236,128,0,78295:0:0:0:0:
192,192,78295,128,0,78354:0:0:0:0:
64,192,78354,128,0,78413:0:0:0:0:
448,192,78413,128,0,78472:0:0:0:0:
320,192,78472,128,0,78530:0:0:0:0:
64,192,78530,1,2,0:0:0:0:
64,192,78648,128,0,78707:0:0:0:0:
192,192,78707,128,0,78766:0:0:0:0:
320,192,78766,128,0,78825:0:0:0:0:
320,192,78883,128,0,78942:0:0:0:0:
192,192,79001,1,2,0:0:0:0:
192,192,79119,128,0,79177:0:0:0:0:
64,192,79236,128,2,79707:0:0:0:0:
320,192,79236,1,4,0:0:0:0:
448,192,79236,128,0,79707:0:0:0:0:
192,192,79472,1,0,0:0:0:0:
320,192,79589,1,0,0:0:0:0:
192,192,79648,1,0,0:0:0:0:
320,192,79707,1,0,0:0:0:0:
192,192,79825,1,0,0:0:0:0:
448,192,79942,1,2,0:0:0:0:
192,192,80060,1,0,0:0:0:0:
320,192,80177,1,0,0:0:0:0:
192,192,80295,1,0,0:0:0:0:
320,192,80413,1,0,0:0:0:0:
192,192,80530,1,0,0:0:0:0:
448,192,80648,1,0,0:0:0:0:
64,192,80825,1,0,0:0:0:0:
320,192,80883,1,0,0:0:0:0:
192,192,81001,1,0,0:0:0:0:
448,192,81119,1,0,0:0:0:0:
64,192,81236,1,0,0:0:0:0:
192,192,81295,1,0,0:0:0:0:
448,192,81354,1,0,0:0:0:0:
320,192,81413,1,0,0:0:0:0:
192,192,81472,1,0,0:0:0:0:
64,192,81589,1,0,0:0:0:0:
192,192,81648,1,0,0:0:0:0:
320,192,81707,1,0,0:0:0:0:
448,192,81825,1,2,0:0:0:0:
192,192,81942,1,2,0:0:0:0:
64,192,82060,1,2,0:0:0:0:
320,192,82060,128,0,82354:0:0:0:0:
448,192,82060,128,0,82354:0:0:0:0:
192,192,82295,1,0,0:0:0:0:
64,192,82413,1,0,0:0:0:0:
320,192,82413,128,0,82589:0:0:0:0:
448,192,82413,128,0,82589:0:0:0:0:
192,192,82472,1,0,0:0:0:0:
64,192,82530,1,0,0:0:0:0:
64,192,82648,1,0,0:0:0:0:
192,192,82707,1,0,0:0:0:0:
320,192,82766,1,2,0:0:0:0:
448,192,82883,1,0,0:0:0:0:
320,192,82942,1,0,0:0:0:0:
192,192,83001,1,0,0:0:0:0:
64,192,83119,1,0,0:0:0:0:
192,192,83236,1,0,0:0:0:0:
448,192,83354,1,0,0:0:0:0:
64,192,83472,1,8,0:0:0:0:
320,192,83589,1,0,0:0:0:0:
192,192,83648,1,0,0:0:0:0:
64,192,83707,1,2,0:0:0:0:
448,192,83942,1,0,0:0:0:0:
320,192,84060,1,0,0:0:0:0:
64,192,84177,128,2,84236:0:0:0:0:
64,192,84295,128,0,84354:0:0:0:0:
448,192,84413,128,0,84472:0:0:0:0:
448,192,84530,128,0,84589:0:0:0:0:
320,192,84648,128,2,84707:0:0:0:0:
320,192,84766,128,2,84825:0:0:0:0:
64,192,84883,128,2,85589:0:0:0:0:
192,192,84883,128,0,85589:0:0:0:0:
448,192,84883,1,0,0:0:0:0:
320,192,85119,1,0,0:0:0:0:
448,192,85236,1,0,0:0:0:0:
320,192,85295,1,0,0:0:0:0:
448,192,85354,1,0,0:0:0:0:
320,192,85472,1,0,0:0:0:0:
448,192,85589,1,2,0:0:0:0:
320,192,85707,1,0,0:0:0:0:
192,192,85825,1,0,0:0:0:0:
64,192,85942,1,0,0:0:0:0:
320,192,86060,1,0,0:0:0:0:
448,192,86177,1,0,0:0:0:0:
192,192,86295,1,8,0:0:0:0:
320,192,86472,1,0,0:0:0:0:
192,192,86648,1,0,0:0:0:0:
64,192,86766,1,2,0:0:0:0:
192,192,86883,1,0,0:0:0:0:
448,192,87001,1,0,0:0:0:0:
320,192,87236,1,0,0:0:0:0:
64,192,87354,1,0,0:0:0:0:
448,192,87472,1,2,0:0:0:0:
320,192,87530,1,0,0:0:0:0:
64,192,87589,1,0,0:0:0:0:
192,192,87648,1,0,0:0:0:0:
320,192,87707,1,2,0:0:0:0:
448,192,87707,1,0,0:0:0:0:
448,192,87825,128,0,87883:0:0:0:0:
320,192,87942,128,0,88001:0:0:0:0:
320,192,88060,128,0,88119:0:0:0:0:
192,192,88177,128,0,88236:0:0:0:0:
192,192,88295,128,0,88354:0:0:0:0:
64,192,88413,1,2,0:0:0:0:
64,192,88530,128,0,88589:0:0:0:0:
192,192,88589,128,0,88648:0:0:0:0:
320,192,88648,128,0,88707:0:0:0:0:
320,192,88766,128,0,88825:0:0:0:0:
320,192,88883,128,0,88942:0:0:0:0:
192,192,88942,128,0,89001:0:0:0:0:
64,192,89001,128,0,89060:0:0:0:0:
448,192,89060,128,0,89119:0:0:0:0:
320,192,89119,128,8,89177:0:0:0:0:
320,192,89236,128,0,89295:0:0:0:0:
64,192,89354,1,2,0:0:0:0:
64,192,89472,128,0,89530:0:0:0:0:
192,192,89530,128,0,89589:0:0:0:0:
320,192,89589,128,0,89648:0:0:0:0:
448,192,89648,128,0,89707:0:0:0:0:
64,192,89707,128,0,89766:0:0:0:0:
192,192,89766,128,0,89825:0:0:0:0:
448,192,89825,1,2,0:0:0:0:
448,192,89942,128,0,90001:0:0:0:0:
320,192,90001,128,0,90060:0:0:0:0:
192,192,90060,128,0,90119:0:0:0:0:
192,192,90177,128,0,90236:0:0:0:0:
320,192,90295,1,2,0:0:0:0:
320,192,90413,128,0,90472:0:0:0:0:
64,192,90530,1,0,0:0:0:100:A#5S_Bb5S_s.wav
448,192,90530,1,0,0:0:0:100:G#5S_Ab5S_s.wav
64,192,91942,128,0,93354:0:0:0:100:F#7S_Gb7S_s.wav
192,192,93354,1,0,0:0:0:100:A#6S_Bb6S_s.wav
448,192,93354,1,0,0:0:0:100:F5S_s.wav
192,192,94060,1,0,0:0:0:100:G#6S_Ab6S_s.wav
192,192,94766,1,0,0:0:0:100:G#6S_Ab6S_s.wav
320,192,94795,1,0,0:0:0:100:F#6S_Gb6S_s.wav
448,192,94825,1,0,0:0:0:100:G#6S_Ab6S_s.wav
448,192,95236,1,0,0:0:0:100:G#6S_Ab6S_s.wav
192,192,95472,1,0,0:0:0:100:F#6S_Gb6S_s.wav
320,192,95707,1,0,0:0:0:100:C#7S_Db7S_s.wav
64,192,95942,1,0,0:0:0:100:F#6S_Gb6S_s.wav
192,192,96177,1,0,0:0:0:100:G#5S_Ab5S_s.wav
448,192,96177,1,0,0:0:0:100:F5S_s.wav
320,192,96207,1,0,0:0:0:100:F6S_s.wav
448,192,98295,1,0,0:0:0:100:F#6S_Gb6S_s.wav
64,192,99001,1,0,0:0:0:100:A#5S_Bb5S_s.wav
448,192,99001,1,0,0:0:0:100:C#5S_Db5S_s.wav
192,192,99030,1,0,0:0:0:100:F6S_s.wav
320,192,99060,1,0,0:0:0:100:F#5S_Gb5S_s.wav
64,192,100413,1,0,0:0:0:100:B5S_s.wav
320,192,100413,1,0,0:0:0:100:G5S_s.wav
448,192,100442,1,0,0:0:0:100:F#6S_Gb6S_s.wav
192,192,100472,1,0,0:0:0:100:F#5S_Gb5S_s.wav
64,192,101119,128,0,101825:0:0:0:0:
320,192,101825,1,6,0:0:0:0:
448,192,101825,1,0,0:0:0:70:SROL.wav
192,192,102530,1,0,0:0:0:70:SROL.wav
64,192,103236,1,2,0:0:0:0:
448,192,103236,1,0,0:0:0:70:SROL.wav
320,192,103942,1,0,0:0:0:70:SROL.wav
192,192,104413,1,0,0:0:0:70:SROL.wav
64,192,104648,1,2,0:0:0:0:
448,192,104648,1,0,0:0:0:70:SROL.wav
192,192,105354,1,0,0:0:0:70:SROL.wav
320,192,105825,1,0,0:0:0:70:SROL.wav
64,192,106060,1,2,0:0:0:0:
448,192,106060,1,0,0:0:0:70:SROL.wav
320,192,106530,1,0,0:0:0:70:SROL.wav
192,192,106766,1,0,0:0:0:70:SROL.wav
320,192,106795,1,0,0:0:0:0:
320,192,107236,1,0,0:0:0:70:SROL.wav
64,192,107472,1,2,0:0:0:0:
448,192,107472,1,0,0:0:0:70:SROL.wav
192,192,107942,1,0,0:0:0:70:SROL.wav
64,192,108177,1,2,0:0:0:0:
448,192,108177,1,0,0:0:0:70:SROL.wav
320,192,108413,1,0,0:0:0:70:SROL.wav
192,192,108648,1,0,0:0:0:70:SROL.wav
64,192,108883,1,2,0:0:0:0:
448,192,108883,1,0,0:0:0:70:SROL.wav
192,192,109119,1,0,0:0:0:70:SROL.wav
320,192,109354,1,0,0:0:0:70:SROL.wav
64,192,109589,1,2,0:0:0:0:
448,192,109589,1,0,0:0:0:70:SROL.wav
192,192,109707,1,0,0:0:0:70:SROL.wav
320,192,109825,1,0,0:0:0:70:SROL.wav
448,192,109942,1,0,0:0:0:70:SROL.wav
320,192,110060,1,0,0:0:0:70:SROL.wav
192,192,110177,1,0,0:0:0:70:SROL.wav
64,192,110295,1,2,0:0:0:0:
448,192,110295,1,0,0:0:0:70:SROL.wav
320,192,110413,1,0,0:0:0:70:SROL.wav
192,192,110530,1,0,0:0:0:70:SROL.wav
320,192,110648,1,0,0:0:0:70:SROL.wav
64,192,110766,1,2,0:0:0:0:
448,192,110766,1,0,0:0:0:70:SROL.wav
192,192,110883,1,0,0:0:0:70:SROL.wav
64,192,111001,1,2,0:0:0:0:
448,192,111001,1,0,0:0:0:70:SROL.wav
320,192,111119,1,0,0:0:0:70:SROL.wav
192,192,111236,1,0,0:0:0:70:SROL.wav
320,192,111354,1,0,0:0:0:70:SROL.wav
64,192,111472,1,2,0:0:0:0:
448,192,111472,1,0,0:0:0:70:SROL.wav
192,192,111589,1,0,0:0:0:70:SROL.wav
64,192,111707,1,2,0:0:0:0:
448,192,111707,1,0,0:0:0:70:SROL.wav
320,192,111766,1,0,0:0:0:70:SROL.wav
192,192,111825,1,2,0:0:0:0:
64,192,111883,1,0,0:0:0:70:SROL.wav
320,192,111942,1,2,0:0:0:0:
448,192,111942,1,0,0:0:0:70:SROL.wav
192,192,112001,1,0,0:0:0:70:SROL.wav
64,192,112060,1,2,0:0:0:0:
448,192,112119,1,0,0:0:0:70:SROL.wav
192,192,112177,1,2,0:0:0:0:
320,192,112177,1,0,0:0:0:70:SROL.wav
64,192,112236,1,0,0:0:0:70:SROL.wav
448,192,112295,1,2,0:0:0:0:
320,192,112354,1,0,0:0:0:70:SROL.wav
192,192,112413,1,0,0:0:0:0:
64,192,113119,128,4,113825:0:0:0:0:
448,192,113119,1,2,0:0:0:0:
448,192,113354,1,0,0:0:0:0:
192,192,113472,1,0,0:0:0:0:
320,192,113530,1,0,0:0:0:0:
448,192,113589,1,0,0:0:0:0:
320,192,113707,1,0,0:0:0:0:
192,192,113825,1,2,0:0:0:0:
448,192,113825,128,0,114530:0:0:0:0:
320,192,113942,1,0,0:0:0:0:
192,192,114001,1,0,0:0:0:0:
64,192,114060,1,0,0:0:0:0:
320,192,114177,1,0,0:0:0:0:
64,192,114295,1,0,0:0:0:0:
192,192,114413,1,0,0:0:0:0:
64,192,114530,128,2,115236:0:0:0:0:
320,192,114530,1,0,0:0:0:0:
192,192,114648,1,0,0:0:0:0:
320,192,114766,1,0,0:0:0:0:
448,192,114883,1,0,0:0:0:0:
320,192,114942,1,0,0:0:0:0:
192,192,115001,1,0,0:0:0:0:
320,192,115119,1,0,0:0:0:0:
192,192,115236,1,2,0:0:0:0:
448,192,115236,1,8,0:0:0:0:
320,192,115354,128,0,115472:0:0:0:0:
64,192,115472,128,0,115589:0:0:0:0:
448,192,115589,128,0,115707:0:0:0:0:
64,192,115707,128,0,115825:0:0:0:0:
192,192,115825,128,0,115942:0:0:0:0:
64,192,115942,1,2,0:0:0:0:
448,192,115942,1,0,0:0:0:0:
448,192,116060,128,0,116119:0:0:0:0:
320,192,116177,128,0,116236:0:0:0:0:
320,192,116295,128,0,116354:0:0:0:0:
192,192,116413,128,0,116472:0:0:0:0:
192,192,116530,128,0,116589:0:0:0:0:
64,192,116648,1,2,0:0:0:0:
64,192,116766,128,0,116825:0:0:0:0:
192,192,116883,128,0,116942:0:0:0:0:
192,192,117001,128,0,117060:0:0:0:0:
320,192,117119,128,0,117177:0:0:0:0:
320,192,117236,128,0,117295:0:0:0:0:
448,192,117354,1,2,0:0:0:0:
448,192,117472,128,0,117530:0:0:0:0:
320,192,117589,128,0,117648:0:0:0:0:
320,192,117707,128,0,117766:0:0:0:0:
192,192,117825,128,2,117883:0:0:0:0:
192,192,117942,128,0,118001:0:0:0:0:
64,192,118060,1,2,0:0:0:0:
448,192,118060,1,8,0:0:0:0:
320,192,118177,1,0,0:0:0:0:
192,192,118236,1,0,0:0:0:0:
448,192,118295,1,0,0:0:0:0:
64,192,118413,1,0,0:0:0:0:
192,192,118530,1,2,0:0:0:0:
320,192,118648,1,0,0:0:0:0:
64,192,118766,1,2,0:0:0:0:
448,192,118766,1,0,0:0:0:0:
192,192,118825,1,0,0:0:0:0:
320,192,118883,1,0,0:0:0:0:
448,192,118942,1,0,0:0:0:0:
64,192,119001,1,0,0:0:0:0:
192,192,119060,1,0,0:0:0:0:
320,192,119119,1,0,0:0:0:0:
448,192,119177,1,0,0:0:0:0:
64,192,119236,1,0,0:0:0:0:
64,192,119354,1,0,0:0:0:0:
320,192,119472,1,2,0:0:0:0:
448,192,119472,1,0,0:0:0:0:
320,192,119589,1,0,0:0:0:0:
448,192,119707,1,0,0:0:0:0:
320,192,119766,1,0,0:0:0:0:
192,192,119825,1,0,0:0:0:0:
64,192,119883,1,0,0:0:0:0:
448,192,119942,1,0,0:0:0:0:
320,192,120001,1,0,0:0:0:0:
192,192,120060,1,0,0:0:0:0:
64,192,120119,1,0,0:0:0:0:
320,192,120177,1,2,0:0:0:0:
448,192,120177,1,0,0:0:0:0:
64,192,120236,1,0,0:0:0:0:
192,192,120295,1,0,0:0:0:0:
320,192,120354,1,0,0:0:0:0:
448,192,120413,1,0,0:0:0:0:
64,192,120472,1,0,0:0:0:0:
192,192,120530,1,0,0:0:0:0:
320,192,120589,1,0,0:0:0:0:
448,192,120648,1,0,0:0:0:0:
64,192,120707,1,0,0:0:0:0:
192,192,120766,1,0,0:0:0:0:
320,192,120825,1,0,0:0:0:0:
64,192,120883,1,2,0:0:0:0:
448,192,120883,1,8,0:0:0:0:
192,192,121001,1,0,0:0:0:0:
320,192,121119,1,0,0:0:0:0:
448,192,121236,1,0,0:0:0:0:
320,192,121295,1,0,0:0:0:0:
192,192,121354,1,0,0:0:0:0:
192,192,121472,1,0,0:0:0:0:
320,192,121530,1,0,0:0:0:0:
64,192,121589,1,2,0:0:0:0:
448,192,121589,1,0,0:0:0:0:
448,192,121707,128,0,121766:0:0:0:0:
320,192,121825,128,0,121883:0:0:0:0:
320,192,121942,128,0,122001:0:0:0:0:
192,192,122060,128,0,122119:0:0:0:0:
192,192,122177,128,0,122236:0:0:0:0:
64,192,122295,1,2,0:0:0:0:
64,192,122413,128,0,122472:0:0:0:0:
192,192,122530,128,0,122589:0:0:0:0:
192,192,122648,128,0,122707:0:0:0:0:
320,192,122766,128,0,122825:0:0:0:0:
320,192,122883,128,0,122942:0:0:0:0:
448,192,123001,1,2,0:0:0:0:
448,192,123119,128,0,123177:0:0:0:0:
320,192,123236,128,0,123295:0:0:0:0:
320,192,123354,128,0,123413:0:0:0:0:
192,192,123472,128,0,123530:0:0:0:0:
192,192,123589,128,0,123648:0:0:0:0:
64,192,123707,1,2,0:0:0:0:
448,192,123707,1,8,0:0:0:0:
192,192,123825,1,0,0:0:0:0:
448,192,123883,1,0,0:0:0:0:
64,192,123942,1,0,0:0:0:0:
192,192,124060,1,0,0:0:0:0:
448,192,124119,1,0,0:0:0:0:
64,192,124177,1,0,0:0:0:0:
320,192,124236,1,0,0:0:0:0:
64,192,124295,1,0,0:0:0:0:
320,192,124354,1,0,0:0:0:0:
64,192,124413,1,4,0:0:0:0:
448,192,124413,128,2,125119:0:0:0:0:
64,192,124648,1,0,0:0:0:0:
320,192,124766,1,0,0:0:0:0:
192,192,124825,1,0,0:0:0:0:
64,192,124883,1,0,0:0:0:0:
320,192,125001,1,0,0:0:0:0:
64,192,125119,128,2,125825:0:0:0:0:
192,192,125119,1,8,0:0:0:0:
320,192,125236,1,0,0:0:0:0:
192,192,125354,1,0,0:0:0:0:
320,192,125472,1,0,0:0:0:0:
448,192,125589,1,0,0:0:0:0:
320,192,125707,1,0,0:0:0:0:
192,192,125825,1,2,0:0:0:0:
448,192,125825,128,0,126530:0:0:0:0:
64,192,126001,1,0,0:0:0:0:
320,192,126060,1,0,0:0:0:0:
192,192,126177,1,0,0:0:0:0:
64,192,126295,1,0,0:0:0:0:
320,192,126413,1,0,0:0:0:0:
192,192,126472,1,0,0:0:0:0:
64,192,126530,128,2,127236:0:0:0:0:
320,192,126530,1,8,0:0:0:0:
192,192,126648,1,0,0:0:0:0:
448,192,126766,1,0,0:0:0:0:
320,192,126825,1,0,0:0:0:0:
192,192,126883,1,0,0:0:0:0:
448,192,127001,1,0,0:0:0:0:
192,192,127119,1,0,0:0:0:0:
320,192,127236,1,2,0:0:0:0:
448,192,127236,128,0,127942:0:0:0:0:
320,192,127472,1,0,0:0:0:0:
64,192,127589,1,0,0:0:0:0:
192,192,127648,1,0,0:0:0:0:
320,192,127707,1,2,0:0:0:0:
192,192,127825,1,0,0:0:0:0:
64,192,127942,128,2,128648:0:0:0:0:
320,192,127942,1,8,0:0:0:0:
192,192,128060,1,0,0:0:0:0:
320,192,128119,1,0,0:0:0:0:
448,192,128177,1,0,0:0:0:0:
320,192,128295,1,0,0:0:0:0:
448,192,128413,1,2,0:0:0:0:
192,192,128530,1,0,0:0:0:0:
320,192,128648,1,2,0:0:0:0:
448,192,128648,128,0,129354:0:0:0:0:
64,192,128766,1,0,0:0:0:0:
192,192,128825,1,0,0:0:0:0:
320,192,128883,1,2,0:0:0:0:
64,192,129119,1,2,0:0:0:0:
192,192,129236,1,0,0:0:0:0:
64,192,129354,128,2,130060:0:0:0:0:
320,192,129354,1,8,0:0:0:0:
448,192,129589,1,2,0:0:0:0:
320,192,129707,1,0,0:0:0:0:
192,192,129825,1,2,0:0:0:0:
320,192,130060,1,2,0:0:0:0:
448,192,130060,128,0,130766:0:0:0:0:
320,192,130295,1,2,0:0:0:0:
64,192,130413,1,0,0:0:0:0:
192,192,130472,1,0,0:0:0:0:
320,192,130530,1,2,0:0:0:0:
192,192,130648,1,0,0:0:0:0:
64,192,130766,128,2,131472:0:0:0:0:
320,192,130766,1,8,0:0:0:0:
192,192,130883,1,0,0:0:0:0:
320,192,131001,1,2,0:0:0:0:
448,192,131119,1,0,0:0:0:0:
192,192,131236,1,2,0:0:0:0:
320,192,131354,1,0,0:0:0:0:
192,192,131472,1,2,0:0:0:0:
448,192,131472,128,0,132177:0:0:0:0:
320,192,131648,1,0,0:0:0:0:
192,192,131707,1,2,0:0:0:0:
64,192,131825,1,0,0:0:0:0:
192,192,131942,1,2,0:0:0:0:
320,192,132060,1,0,0:0:0:0:
64,192,132177,128,2,132883:0:0:0:0:
192,192,132177,1,8,0:0:0:0:
320,192,132413,1,2,0:0:0:0:
448,192,132530,1,0,0:0:0:0:
192,192,132648,1,2,0:0:0:0:
320,192,132707,1,0,0:0:0:0:
448,192,132766,1,0,0:0:0:0:
192,192,132825,1,0,0:0:0:0:
320,192,132883,1,2,0:0:0:0:
448,192,132883,1,0,0:0:0:0:
320,192,133001,1,2,0:0:0:0:
448,192,133001,1,0,0:0:0:0:
64,192,133119,1,2,0:0:0:0:
192,192,133119,1,0,0:0:0:0:
64,192,133236,1,2,0:0:0:0:
192,192,133236,1,0,0:0:0:0:
320,192,133354,1,2,0:0:0:0:
448,192,133354,1,0,0:0:0:0:
320,192,133472,1,2,0:0:0:0:
448,192,133472,1,0,0:0:0:0:
64,192,133589,1,2,0:0:0:0:
192,192,133589,1,8,0:0:0:0:
64,192,133707,1,2,0:0:0:0:
320,192,133707,1,0,0:0:0:0:
320,192,133825,1,2,0:0:0:0:
448,192,133825,1,0,0:0:0:0:
192,192,133942,1,2,0:0:0:0:
448,192,133942,1,0,0:0:0:0:
64,192,134060,1,2,0:0:0:0:
192,192,134060,1,0,0:0:0:0:
64,192,134177,1,2,0:0:0:0:
320,192,134177,1,0,0:0:0:0:
192,192,134295,1,2,0:0:0:0:
448,192,134295,1,0,0:0:0:0:
320,192,134413,1,2,0:0:0:0:
448,192,134413,1,0,0:0:0:0:
64,192,134530,1,2,0:0:0:0:
320,192,134530,1,0,0:0:0:0:
64,192,134648,1,2,0:0:0:0:
192,192,134648,1,0,0:0:0:0:
320,192,134707,1,0,0:0:0:0:
64,192,134766,1,2,0:0:0:0:
192,192,134825,1,0,0:0:0:0:
320,192,134883,1,2,0:0:0:0:
448,192,134883,1,0,0:0:0:0:
