osu file format v14

[General]
AudioFilename: audio.mp3
AudioLeadIn: 0
PreviewTime: 112405
Countdown: 0
SampleSet: Normal
StackLeniency: 0.7
Mode: 1
LetterboxInBreaks: 0
WidescreenStoryboard: 0

[Editor]
DistanceSpacing: 1.2
BeatDivisor: 16
GridSize: 32
TimelineZoom: 3.099999

[Metadata]
Title:Can you hear me?
TitleUnicode:Can you hear me?
Artist:linear ring
ArtistUnicode:linear ring
Creator:Jakads
Version:Hello?
Source:
Tags:future bass sv 3TWC 3 Digit Taiko World Cup featured artist fa electronic instrumental
BeatmapID:2826121
BeatmapSetID:1366449

[Difficulty]
HPDrainRate:7
CircleSize:5
OverallDifficulty:7
ApproachRate:10
SliderMultiplier:2.8
SliderTickRate:3

[Events]
//Background and Video events
0,0,"bruh.jpg",0,0
//Break Periods
//Storyboard Layer 0 (Background)
//Storyboard Layer 1 (Fail)
//Storyboard Layer 2 (Pass)
//Storyboard Layer 3 (Foreground)
//Storyboard Layer 4 (Overlay)
//Storyboard Sound Samples

[TimingPoints]
170,705.882352941176,4,1,0,5,1,0
170,-400,4,1,0,5,0,0
11464,-200,4,1,0,50,0,0
19934,-100,4,1,0,50,0,0
21346,-66.6666666666667,4,1,0,50,0,0
22052,-33.3333333333333,4,1,0,5,0,0
22758,-50,4,1,0,70,0,0
23464,-133.333333333333,4,1,0,70,0,0
23934,-153.846153846154,4,1,0,70,0,0
24169,-166.666666666667,4,1,0,70,0,0
24640,-200,4,1,0,70,0,0
34052,-133.333333333333,4,1,0,80,0,0
39699,-133.333333333333,4,1,0,90,0,0
39934,-126.315736288111,4,1,0,90,0,0
40169,-120.000048000019,4,1,0,90,0,0
40287,-117.073125044634,4,1,0,90,0,0
40405,-114.285714285714,4,1,0,90,0,0
40640,-109.090869421502,4,1,0,90,0,0
40875,-104.347862381865,4,1,0,90,0,0
40993,-102.127624807617,4,1,0,90,0,0
41052,-101.05266561774,4,1,0,90,0,0
41111,-100,4,1,0,90,0,0
41228,-97.959215660152,4,1,0,90,0,0
41346,-95.9999692800098,4,1,0,90,0,0
41464,-94.1176470588235,4,1,0,90,0,0
41581,-92.3077207100679,4,1,0,90,0,0
41699,-90.5660103951667,4,1,0,90,0,0
41817,-88.8888888888889,4,1,0,90,0,0
41934,-87.2727526611644,4,1,0,90,0,0
42052,-85.7142612244968,4,1,0,90,0,0
42169,-84.2105263157895,4,1,0,90,0,0
42287,-82.7586435196258,4,1,0,90,0,0
42405,-81.3559101407701,4,1,0,90,0,0
42464,-80.6722906009521,4,1,0,90,0,0
42522,-80,4,1,0,90,0,0
42640,-78.6885452297823,4,1,0,90,0,0
42758,-77.4193348595265,4,1,0,90,0,0
42875,-76.1904761904762,4,1,0,90,0,0
42993,-75.0000187500047,4,1,0,90,0,0
43111,-73.8461356686435,4,1,0,90,0,0
43228,-72.7272727272727,4,1,0,90,0,0
43287,-72.1804337610987,4,1,0,90,0,0
43346,-71.6418081532676,4,1,0,90,0,0
43405,-71.1111111111111,4,1,0,90,0,0
43464,-70.588218685125,4,1,0,90,0,0
43522,-70.0730090681481,4,1,0,90,0,0
43581,-69.5652173913043,4,1,0,90,0,0
43640,-69.0647323016444,4,1,0,90,0,0
43699,-68.5714442449015,4,1,0,90,0,0
43758,-68.0851063829787,4,1,0,90,0,0
43817,-67.6056185677479,4,1,0,90,0,0
43875,-67.13288215561,4,1,0,90,0,0
43934,-66.6666666666667,4,1,0,90,0,0
45346,-50,4,1,0,100,0,1
45817,-59.7561114069039,4,1,0,100,0,1
45934,-62.8205023504291,4,1,0,100,0,1
46052,-66.6666666666667,4,1,0,100,0,1
48169,-50,4,1,0,100,0,1
48522,-56.9767455110871,4,1,0,100,0,1
48758,-62.8205023504291,4,1,0,100,0,1
48817,-64.4737011772898,4,1,0,100,0,1
48875,-66.6666666666667,4,1,0,100,0,1
50993,-50,4,1,0,100,0,1
51699,-66.6666666666667,4,1,0,100,0,1
53817,-50,4,1,0,100,0,1
53934,-52.1739039697558,4,1,0,100,0,1
54052,-54.5454644628117,4,1,0,100,0,1
54169,-57.1428571428571,4,1,0,100,0,1
54287,-59.9999880000024,4,1,0,100,0,1
54405,-63.1579080332438,4,1,0,100,0,1
54522,-66.6666666666667,4,1,0,100,0,1
56640,-50,4,1,0,100,0,1
57111,-59.7561114069039,4,1,0,100,0,1
57228,-62.8205023504291,4,1,0,100,0,1
57287,-64.4737011772898,4,1,0,100,0,1
57346,-66.6666666666667,4,1,0,100,0,1
59464,-50,4,1,0,100,0,1
59817,-57.1428571428571,4,1,0,100,0,1
60052,-63.1579080332438,4,1,0,100,0,1
60111,-64.8648508400323,4,1,0,100,0,1
60169,-66.6666666666667,4,1,0,100,0,1
62287,-50,4,1,0,100,0,1
62993,-66.6666666666667,4,1,0,100,0,1
65111,-50,4,1,0,100,0,1
65228,-52.1276690018125,4,1,0,100,0,1
65346,-54.4444353703719,4,1,0,100,0,1
65464,-56.9767455110871,4,1,0,100,0,1
65581,-59.7561114069039,4,1,0,100,0,1
65699,-62.8205023504291,4,1,0,100,0,1
65817,-66.6666666666667,4,1,0,100,0,1
67934,-50,4,1,0,100,0,1
68169,-54.4444353703719,4,1,0,100,0,1
68287,-56.9767455110871,4,1,0,100,0,1
68346,-58.3333236111127,4,1,0,100,0,1
68405,-59.7561114069039,4,1,0,100,0,1
68522,-62.8205023504291,4,1,0,100,0,1
68640,-66.6666666666667,4,1,0,100,0,1
70758,-50,4,1,0,100,0,1
70993,-54.4444353703719,4,1,0,100,0,1
71111,-56.9767455110871,4,1,0,100,0,1
71169,-58.3333236111127,4,1,0,100,0,1
71228,-59.7561114069039,4,1,0,100,0,1
71346,-62.8205023504291,4,1,0,100,0,1
71405,-64.4737011772898,4,1,0,100,0,1
71464,-66.6666666666667,4,1,0,100,0,1
73581,-50,4,1,0,100,0,1
73817,-54.4444353703719,4,1,0,100,0,1
73934,-56.9767455110871,4,1,0,100,0,1
73993,-58.3333236111127,4,1,0,100,0,1
74052,-59.7561114069039,4,1,0,100,0,1
74169,-62.8205023504291,4,1,0,100,0,1
74287,-66.6666666666667,4,1,0,100,0,1
76405,-50,4,1,0,100,0,1
76522,-52.1276690018125,4,1,0,100,0,1
76640,-54.4444353703719,4,1,0,100,0,1
76758,-56.9767455110871,4,1,0,100,0,1
76875,-59.7561114069039,4,1,0,100,0,1
76993,-62.8205023504291,4,1,0,100,0,1
77111,-66.6666666666667,4,1,0,100,0,1
79228,-50,4,1,0,100,0,1
79464,-54.4444353703719,4,1,0,100,0,1
79581,-56.9767455110871,4,1,0,100,0,1
79640,-58.3333236111127,4,1,0,100,0,1
79699,-59.7561114069039,4,1,0,100,0,1
79817,-62.8205023504291,4,1,0,100,0,1
79934,-66.6666666666667,4,1,0,100,0,1
82052,-50,4,1,0,100,0,1
82287,-54.4444353703719,4,1,0,100,0,1
82405,-56.9767455110871,4,1,0,100,0,1
82464,-58.3333236111127,4,1,0,100,0,1
82522,-59.7561114069039,4,1,0,100,0,1
82640,-62.8205023504291,4,1,0,100,0,1
82699,-64.4737011772898,4,1,0,100,0,1
82758,-66.6666666666667,4,1,0,100,0,1
84875,-50,4,1,0,100,0,1
85111,-54.4444353703719,4,1,0,100,0,1
85228,-56.9767455110871,4,1,0,100,0,1
85287,-58.3333236111127,4,1,0,100,0,1
85346,-59.7561114069039,4,1,0,100,0,1
85464,-62.8205023504291,4,1,0,100,0,1
85581,-66.6666666666667,4,1,0,100,0,1
87699,-50,4,1,0,100,0,1
87817,-52.1276690018125,4,1,0,100,0,1
87934,-54.4444353703719,4,1,0,100,0,1
88052,-56.9767455110871,4,1,0,100,0,1
88169,-59.7561114069039,4,1,0,100,0,1
88287,-62.8205023504291,4,1,0,100,0,1
88405,-66.6666666666667,4,1,0,100,0,1
90522,-66.6666666666667,4,1,0,50,0,0
91934,-100,4,1,0,50,0,0
93346,-200,4,1,0,50,0,0
101817,-133.333333333333,4,1,0,70,0,0
107464,-133.333333333333,4,1,0,90,0,0
107934,-121.611744775863,4,1,0,90,0,0
108169,-116.491192100965,4,1,0,90,0,0
108405,-111.784550927924,4,1,0,90,0,0
108640,-107.443353178121,4,1,0,90,0,0
108875,-103.42684154077,4,1,0,90,0,0
109111,-99.6997044900759,4,1,0,90,0,0
109346,-96.2318494702918,4,1,0,90,0,0
109581,-92.9972165933074,4,1,0,90,0,0
109699,-91.4600964172336,4,1,0,90,0,0
109817,-89.972882173313,4,1,0,90,0,0
109934,-88.533338999467,4,1,0,90,0,0
110052,-87.1391350569454,4,1,0,90,0,0
110169,-85.7880879808315,4,1,0,90,0,0
110287,-84.4783672021187,4,1,0,90,0,0
110405,-83.208035899275,4,1,0,90,0,0
110522,-81.975276256681,4,1,0,90,0,0
110640,-80.7785762291268,4,1,0,90,0,0
110758,-79.6163130640816,4,1,0,90,0,0
110875,-78.4870213861436,4,1,0,90,0,0
110993,-77.389257906667,4,1,0,90,0,0
111111,-76.3218369750298,4,1,0,90,0,0
111228,-75.283461051725,4,1,0,90,0,0
111346,-74.2729053926586,4,1,0,90,0,0
111464,-73.2891741629277,4,1,0,90,0,0
111581,-72.331160987465,4,1,0,90,0,0
111699,-71.3978703443234,4,1,0,90,0,0
111758,-70.9401485061069,4,1,0,90,0,0
111817,-70.4883077519517,4,1,0,90,0,0
111875,-70.0421864088741,4,1,0,90,0,0
111934,-69.6016765651851,4,1,0,90,0,0
111993,-69.166673006945,4,1,0,90,0,0
112052,-68.7370731341837,4,1,0,90,0,0
112111,-68.3127768802238,4,1,0,90,0,0
112169,-67.893640538478,4,1,0,90,0,0
112228,-67.4796616299847,4,1,0,90,0,0
112287,-67.0707005668816,4,1,0,90,0,0
112346,-66.6666666666667,4,1,0,90,0,0
112405,-33.3333333333333,4,1,0,5,0,0
113111,-50,4,1,0,100,0,1
113346,-54.4444353703719,4,1,0,100,0,1
113464,-56.9767455110871,4,1,0,100,0,1
113522,-58.3333236111127,4,1,0,100,0,1
113581,-59.7561114069039,4,1,0,100,0,1
113699,-62.8205023504291,4,1,0,100,0,1
113817,-66.2162197954713,4,1,0,100,0,1
115228,-66.6666666666667,4,1,0,100,0,1
115346,-68.5314531957587,4,1,0,100,0,1
115375,-69.0140650664605,4,1,0,100,0,1
115464,-70.5036143677906,4,1,0,100,0,1
115493,-71.0145061331678,4,1,0,100,0,1
115581,-72.5925936680384,4,1,0,100,0,1
115611,-73.1343250835377,4,1,0,100,0,1
115699,-74.8091431734787,4,1,0,100,0,1
115728,-75.3845933491189,4,1,0,100,0,1
115817,-77.1653762043586,4,1,0,100,0,1
115846,-77.7777950617322,4,1,0,100,0,1
115934,-50,4,1,0,100,0,1
116052,-52.1276690018125,4,1,0,100,0,1
116111,-53.2608701441399,4,1,0,100,0,1
116169,-54.4444353703719,4,1,0,100,0,1
116287,-56.9767455110871,4,1,0,100,0,1
116405,-59.7561114069039,4,1,0,100,0,1
116522,-62.8205023504291,4,1,0,100,0,1
116581,-64.4737011772898,4,1,0,100,0,1
116640,-66.2162197954713,4,1,0,100,0,1
118052,-66.6666666666667,4,1,0,100,0,1
118169,-68.5314531957587,4,1,0,100,0,1
118228,-69.5035224385172,4,1,0,100,0,1
118287,-70.5036143677906,4,1,0,100,0,1
118346,-71.5328561138059,4,1,0,100,0,1
118405,-72.5925936680384,4,1,0,100,0,1
118464,-73.6842027700839,4,1,0,100,0,1
118522,-74.8091431734787,4,1,0,100,0,1
118581,-75.9689651583535,4,1,0,100,0,1
118640,-77.1653762043586,4,1,0,100,0,1
118758,-50,4,1,0,100,0,1
118875,-52.1276690018125,4,1,0,100,0,1
118934,-53.2608701441399,4,1,0,100,0,1
118993,-54.4444353703719,4,1,0,100,0,1
119052,-55.6818295712833,4,1,0,100,0,1
119111,-56.9767455110871,4,1,0,100,0,1
119169,-58.3333236111127,4,1,0,100,0,1
119228,-59.7561114069039,4,1,0,100,0,1
119346,-62.8205023504291,4,1,0,100,0,1
119464,-66.2162197954713,4,1,0,100,0,1
120875,-66.6666666666667,4,1,0,100,0,1
120993,-68.5314531957587,4,1,0,100,0,1
121111,-70.5036143677906,4,1,0,100,0,1
121228,-72.5925936680384,4,1,0,100,0,1
121287,-73.6842027700839,4,1,0,100,0,1
121346,-74.8091431734787,4,1,0,100,0,1
121464,-77.1653762043586,4,1,0,100,0,1
121581,-50,4,1,0,100,0,1
121699,-52.1276690018125,4,1,0,100,0,1
121758,-53.2608701441399,4,1,0,100,0,1
121817,-54.4444353703719,4,1,0,100,0,1
121934,-56.9767455110871,4,1,0,100,0,1
122052,-59.7561114069039,4,1,0,100,0,1
122169,-62.8205023504291,4,1,0,100,0,1
122287,-66.2162197954713,4,1,0,100,0,1
123699,-66.6666666666667,4,1,0,100,0,1
123817,-68.5314531957587,4,1,0,100,0,1
123875,-69.5035224385172,4,1,0,100,0,1
123934,-70.5036143677906,4,1,0,100,0,1
124052,-72.5925936680384,4,1,0,100,0,1
124111,-73.6842027700839,4,1,0,100,0,1
124169,-74.8091431734787,4,1,0,100,0,1
124228,-75.9689651583535,4,1,0,100,0,1
124287,-77.1653762043586,4,1,0,100,0,1
124405,-50,4,1,0,100,0,1
124640,-54.4444353703719,4,1,0,100,0,1
124758,-56.9767455110871,4,1,0,100,0,1
124817,-58.3333236111127,4,1,0,100,0,1
124875,-59.7561114069039,4,1,0,100,0,1
124993,-62.8205023504291,4,1,0,100,0,1
125111,-66.2162197954713,4,1,0,100,0,1
127228,-50,4,1,0,100,0,1
127464,-54.4444353703719,4,1,0,100,0,1
127581,-56.9767455110871,4,1,0,100,0,1
127640,-58.3333236111127,4,1,0,100,0,1
127699,-59.7561114069039,4,1,0,100,0,1
127817,-62.8205023504291,4,1,0,100,0,1
127934,-66.2162197954713,4,1,0,100,0,1
130052,-50,4,1,0,100,0,1
130169,-52.1276690018125,4,1,0,100,0,1
130287,-54.4444353703719,4,1,0,100,0,1
130405,-56.9767455110871,4,1,0,100,0,1
130464,-58.3333236111127,4,1,0,100,0,1
130522,-59.7561114069039,4,1,0,100,0,1
130640,-62.8205023504291,4,1,0,100,0,1
130758,-66.2162197954713,4,1,0,100,0,1
132875,-66.6666666666667,4,1,0,100,0,1
132993,-65.462762816627,4,1,0,100,0,1
133111,-64.3015692154951,4,1,0,100,0,1
133228,-63.180812745339,4,1,0,100,0,1
133346,-62.0984944220027,4,1,0,100,0,1
133464,-61.052632864266,4,1,0,100,0,1
133522,-60.5428025505472,4,1,0,100,0,1
133581,-60.0414165691494,4,1,0,100,0,1
133699,-59.0631520941136,4,1,0,100,0,1
133817,-58.1162208183926,4,1,0,100,0,1
133875,-57.6540675232908,4,1,0,100,0,1
133934,-57.199206532607,4,1,0,100,0,1
133993,-56.7514665997756,4,1,0,100,0,1
134052,-56.3106817984731,4,1,0,100,0,1
134169,-55.4493392656733,4,1,0,100,0,1
134287,-54.6139503690265,4,1,0,100,0,1
134346,-54.2055953183711,4,1,0,100,0,1
134405,-53.8033305337667,4,1,0,100,0,1
134464,-53.4069922570543,4,1,0,100,0,1
134522,-53.0164504744177,4,1,0,100,0,1
134581,-52.6315789473684,4,1,0,100,0,1
134640,-52.2522550766985,4,1,0,100,0,1
134699,-51.8783597722747,4,1,0,100,0,1
134758,-51.5097773283836,4,1,0,100,0,1
134817,-51.1463953043517,4,1,0,100,0,1
134875,-50.7880786158827,4,1,0,100,0,1
134934,-50.4347729603043,4,1,0,100,0,1
134993,-10,4,1,0,5,0,0

[HitObjects]
290,218,11464,5,8,0:0:0:0:
290,218,14288,1,8,0:0:0:0:
290,218,14993,1,0,0:0:0:0:
290,218,15699,1,0,0:0:0:0:
304,223,16170,1,0,0:0:0:0:
304,223,16405,1,8,0:0:0:0:
304,223,16876,1,0,0:0:0:0:
304,223,17111,1,0,0:0:0:0:
316,233,17170,1,8,0:0:0:0:
262,205,19934,1,8,0:0:0:0:
295,221,21346,1,8,0:0:0:0:
256,192,22052,12,0,22640,0:0:0:0:
266,206,22758,5,4,0:0:0:0:
266,206,23464,1,0,0:0:0:0:
296,227,23934,1,0,0:0:0:0:
266,206,24169,1,8,0:0:0:0:
385,236,24640,1,8,0:0:0:0:
410,228,24875,1,0,0:0:0:0:
356,265,25111,1,8,0:0:0:0:
385,236,25346,1,8,0:0:0:0:
347,222,25581,1,0,0:0:0:0:
377,234,26052,1,8,0:0:0:0:
377,234,26287,1,0,0:0:0:0:
356,235,26522,1,0,0:0:0:0:
377,234,26758,1,8,0:0:0:0:
276,102,26993,1,8,0:0:0:0:
377,234,27228,1,0,0:0:0:0:
356,235,27699,1,0,0:0:0:0:
356,235,27934,1,8,0:0:0:0:
356,235,28169,1,0,0:0:0:0:
356,235,28405,1,0,0:0:0:0:
289,227,29111,1,0,0:0:0:0:
289,227,29581,1,0,0:0:0:0:
289,227,29817,1,8,0:0:0:0:
308,222,30287,1,8,0:0:0:0:
308,222,30522,1,0,0:0:0:0:
308,222,30758,1,8,0:0:0:0:
308,222,30993,1,8,0:0:0:0:
308,222,31228,1,0,0:0:0:0:
280,232,31699,1,8,0:0:0:0:
280,232,31934,1,0,0:0:0:0:
280,232,32169,1,0,0:0:0:0:
280,232,32405,1,8,0:0:0:0:
280,232,32640,1,8,0:0:0:0:
280,232,32875,1,0,0:0:0:0:
280,232,33111,1,8,0:0:0:0:
280,232,33346,1,0,0:0:0:0:
280,232,33817,1,0,0:0:0:0:
280,232,34052,1,0,0:0:0:0:
330,195,34287,1,8,0:0:0:0:
330,195,34405,1,0,0:0:0:0:
330,195,34522,1,8,0:0:0:0:
307,198,34758,1,0,0:0:0:0:
307,198,34993,1,8,0:0:0:0:
307,198,35111,1,8,0:0:0:0:
307,198,35228,1,0,0:0:0:0:
307,198,35346,1,8,0:0:0:0:
307,198,35464,1,0,0:0:0:0:
307,198,35699,1,8,0:0:0:0:
307,198,35817,1,8,0:0:0:0:
307,198,35934,1,0,0:0:0:0:
307,198,36169,1,0,0:0:0:0:
307,198,36287,1,8,0:0:0:0:
307,198,36405,1,8,0:0:0:0:
307,198,36522,1,0,0:0:0:0:
307,198,36640,1,8,0:0:0:0:
300,219,36758,1,8,0:0:0:0:
300,219,36817,1,8,0:0:0:0:
300,219,36875,1,0,0:0:0:0:
276,227,37111,1,8,0:0:0:0:
276,227,37228,1,0,0:0:0:0:
276,227,37346,1,8,0:0:0:0:
276,227,37581,1,0,0:0:0:0:
276,227,37817,1,8,0:0:0:0:
276,227,37934,1,0,0:0:0:0:
276,227,38052,1,8,0:0:0:0:
276,227,38169,1,0,0:0:0:0:
276,227,38287,1,0,0:0:0:0:
276,227,38405,1,8,0:0:0:0:
276,227,38522,1,8,0:0:0:0:
276,227,38758,1,8,0:0:0:0:
276,227,38875,1,8,0:0:0:0:
285,201,38993,1,0,0:0:0:0:
205,203,39228,1,8,0:0:0:0:
205,203,39346,1,8,0:0:0:0:
221,212,39405,1,8,0:0:0:0:
221,212,39464,1,0,0:0:0:0:
221,212,39581,1,8,0:0:0:0:
221,212,39699,1,0,0:0:0:0:
251,187,39934,1,8,0:0:0:0:
251,187,40169,1,0,0:0:0:0:
251,187,40287,1,8,0:0:0:0:
251,187,40405,1,0,0:0:0:0:
251,187,40640,1,8,0:0:0:0:
251,187,40875,1,0,0:0:0:0:
251,187,40993,1,0,0:0:0:0:
251,187,41052,1,0,0:0:0:0:
241,162,41111,1,0,0:0:0:0:
284,167,41228,1,8,0:0:0:0:
284,167,41346,1,8,0:0:0:0:
284,167,41464,1,8,0:0:0:0:
284,167,41581,1,0,0:0:0:0:
284,167,41699,1,8,0:0:0:0:
284,167,41817,1,0,0:0:0:0:
284,167,41934,1,8,0:0:0:0:
284,167,42052,1,8,0:0:0:0:
284,167,42169,1,8,0:0:0:0:
284,167,42287,1,0,0:0:0:0:
284,167,42405,1,0,0:0:0:0:
284,167,42464,1,0,0:0:0:0:
284,167,42522,1,0,0:0:0:0:
284,167,42640,1,8,0:0:0:0:
284,167,42758,1,0,0:0:0:0:
284,167,42875,1,8,0:0:0:0:
284,167,42993,1,0,0:0:0:0:
284,167,43111,1,8,0:0:0:0:
284,167,43228,1,0,0:0:0:0:
284,167,43287,1,0,0:0:0:0:
284,167,43346,1,8,0:0:0:0:
284,167,43405,1,8,0:0:0:0:
281,173,43464,1,0,0:0:0:0:
281,173,43522,1,0,0:0:0:0:
281,173,43581,1,8,0:0:0:0:
281,173,43640,1,0,0:0:0:0:
281,173,43699,1,0,0:0:0:0:
281,173,43758,1,8,0:0:0:0:
281,173,43817,1,8,0:0:0:0:
281,173,43875,1,8,0:0:0:0:
281,173,43934,1,0,0:0:0:0:
297,178,44052,1,8,0:0:0:0:
297,178,44169,1,8,0:0:0:0:
297,178,44287,1,0,0:0:0:0:
297,178,44346,1,8,0:0:0:0:
297,178,44405,1,0,0:0:0:0:
297,178,44464,1,8,0:0:0:0:
297,178,44522,1,0,0:0:0:0:
297,178,44640,1,0,0:0:0:0:
297,178,44699,1,8,0:0:0:0:
297,178,44758,1,8,0:0:0:0:
297,178,44875,1,0,0:0:0:0:
333,179,44993,1,8,0:0:0:0:
333,179,45052,1,8,0:0:0:0:
333,179,45111,1,0,0:0:0:0:
333,179,45169,1,0,0:0:0:0:
333,179,45228,1,8,0:0:0:0:
297,178,45346,1,4,0:0:0:0:
286,217,45817,1,8,0:0:0:0:
286,217,45934,1,8,0:0:0:0:
286,217,46052,1,0,0:0:0:0:
286,217,46169,1,0,0:0:0:0:
286,217,46287,1,8,0:0:0:0:
286,217,46405,1,0,0:0:0:0:
286,217,46522,1,8,0:0:0:0:
286,217,46640,1,8,0:0:0:0:
294,178,46758,1,0,0:0:0:0:
310,201,46875,1,0,0:0:0:0:
310,201,46934,1,8,0:0:0:0:
310,201,46993,1,0,0:0:0:0:
310,201,47111,1,8,0:0:0:0:
310,201,47228,1,0,0:0:0:0:
337,224,47346,1,8,0:0:0:0:
337,224,47405,1,8,0:0:0:0:
337,224,47464,1,0,0:0:0:0:
353,237,47522,1,0,0:0:0:0:
353,237,47581,1,8,0:0:0:0:
353,237,47699,1,0,0:0:0:0:
353,237,47758,1,8,0:0:0:0:
353,237,47817,1,8,0:0:0:0:
353,237,47934,1,0,0:0:0:0:
353,237,48052,1,8,0:0:0:0:
410,246,48169,1,4,0:0:0:0:
389,250,48522,1,8,0:0:0:0:
389,250,48758,1,8,0:0:0:0:
389,250,48817,1,8,0:0:0:0:
389,250,48875,1,0,0:0:0:0:
354,198,48993,1,8,0:0:0:0:
361,209,49052,1,8,0:0:0:0:
354,213,49111,1,8,0:0:0:0:
352,207,49228,1,0,0:0:0:0:
361,209,49287,1,8,0:0:0:0:
361,209,49346,1,0,0:0:0:0:
361,209,49464,1,0,0:0:0:0:
361,209,49581,1,8,0:0:0:0:
361,209,49699,1,8,0:0:0:0:
361,209,49817,1,0,0:0:0:0:
361,209,49934,1,8,0:0:0:0:
361,209,49993,1,8,0:0:0:0:
361,209,50052,1,0,0:0:0:0:
361,209,50111,1,8,0:0:0:0:
361,209,50169,1,8,0:0:0:0:
361,209,50228,1,0,0:0:0:0:
361,209,50287,1,0,0:0:0:0:
372,261,50405,1,8,0:0:0:0:
374,229,50464,1,0,0:0:0:0:
374,229,50522,1,8,0:0:0:0:
374,229,50581,1,0,0:0:0:0:
374,229,50640,1,8,0:0:0:0:
374,229,50699,1,8,0:0:0:0:
374,229,50758,1,0,0:0:0:0:
374,229,50875,1,8,0:0:0:0:
374,229,50993,1,4,0:0:0:0:
311,187,51699,1,0,0:0:0:0:
311,187,51758,1,0,0:0:0:0:
311,187,51817,1,8,0:0:0:0:
311,187,51875,1,8,0:0:0:0:
311,187,51934,1,0,0:0:0:0:
311,187,51993,1,0,0:0:0:0:
311,187,52052,1,8,0:0:0:0:
311,187,52111,1,8,0:0:0:0:
311,187,52169,1,0,0:0:0:0:
311,187,52228,1,0,0:0:0:0:
311,187,52287,1,8,0:0:0:0:
311,187,52346,1,8,0:0:0:0:
311,187,52405,1,0,0:0:0:0:
306,215,52522,1,0,0:0:0:0:
306,215,52640,1,8,0:0:0:0:
306,215,52699,1,0,0:0:0:0:
306,215,52758,1,8,0:0:0:0:
306,215,52817,1,8,0:0:0:0:
306,215,52875,1,0,0:0:0:0:
306,215,52993,1,8,0:0:0:0:
306,215,53052,1,0,0:0:0:0:
306,215,53111,1,8,0:0:0:0:
306,215,53228,1,8,0:0:0:0:
306,215,53287,1,0,0:0:0:0:
306,215,53346,1,8,0:0:0:0:
306,215,53405,1,8,0:0:0:0:
306,215,53464,1,8,0:0:0:0:
306,215,53522,1,8,0:0:0:0:
306,215,53581,1,0,0:0:0:0:
318,200,53699,1,8,0:0:0:0:
306,215,53817,1,4,0:0:0:0:
370,233,53934,1,8,0:0:0:0:
370,233,54052,1,8,0:0:0:0:
370,233,54169,1,8,0:0:0:0:
370,233,54287,1,8,0:0:0:0:
370,233,54405,1,8,0:0:0:0:
342,211,54522,1,0,0:0:0:0:
354,254,54581,1,0,0:0:0:0:
354,254,54640,1,8,0:0:0:0:
342,211,54758,1,0,0:0:0:0:
342,211,54817,1,8,0:0:0:0:
342,211,54875,1,0,0:0:0:0:
342,211,54993,1,8,0:0:0:0:
342,211,55052,1,8,0:0:0:0:
342,211,55111,1,8,0:0:0:0:
342,211,55169,1,8,0:0:0:0:
342,211,55228,1,0,0:0:0:0:
338,244,55346,1,8,0:0:0:0:
338,244,55464,1,0,0:0:0:0:
338,244,55581,1,0,0:0:0:0:
338,244,55640,1,8,0:0:0:0:
338,244,55699,1,8,0:0:0:0:
338,244,55758,1,8,0:0:0:0:
338,244,55817,1,0,0:0:0:0:
321,216,55875,1,0,0:0:0:0:
321,216,55934,1,8,0:0:0:0:
321,216,56052,1,0,0:0:0:0:
321,216,56111,1,0,0:0:0:0:
321,216,56169,1,0,0:0:0:0:
321,216,56287,1,8,0:0:0:0:
321,216,56346,1,8,0:0:0:0:
321,216,56405,1,0,0:0:0:0:
329,222,56464,1,8,0:0:0:0:
321,216,56522,1,8,0:0:0:0:
321,216,56640,1,4,0:0:0:0:
391,156,57111,1,8,0:0:0:0:
391,156,57228,1,0,0:0:0:0:
391,156,57287,1,8,0:0:0:0:
391,156,57346,1,0,0:0:0:0:
381,154,57464,1,0,0:0:0:0:
381,154,57581,1,8,0:0:0:0:
381,154,57699,1,0,0:0:0:0:
381,154,57817,1,8,0:0:0:0:
381,154,57934,1,0,0:0:0:0:
381,154,58052,1,0,0:0:0:0:
381,154,58169,1,0,0:0:0:0:
381,154,58228,1,0,0:0:0:0:
381,154,58287,1,8,0:0:0:0:
391,140,58346,1,0,0:0:0:0:
391,140,58405,1,8,0:0:0:0:
391,140,58464,1,8,0:0:0:0:
391,140,58522,1,0,0:0:0:0:
391,140,58640,1,8,0:0:0:0:
391,140,58699,1,8,0:0:0:0:
391,140,58758,1,0,0:0:0:0:
391,140,58817,1,0,0:0:0:0:
391,140,58875,1,8,0:0:0:0:
321,154,58993,1,0,0:0:0:0:
321,154,59052,1,0,0:0:0:0:
321,154,59111,1,8,0:0:0:0:
321,154,59169,1,0,0:0:0:0:
321,154,59228,1,0,0:0:0:0:
321,154,59346,1,8,0:0:0:0:
321,154,59464,1,4,0:0:0:0:
341,245,59817,1,8,0:0:0:0:
341,245,60052,1,8,0:0:0:0:
341,245,60111,1,8,0:0:0:0:
341,245,60169,1,0,0:0:0:0:
341,245,60228,1,0,0:0:0:0:
341,245,60287,1,8,0:0:0:0:
341,245,60346,1,8,0:0:0:0:
341,245,60405,1,8,0:0:0:0:
341,245,60464,1,8,0:0:0:0:
341,245,60522,1,8,0:0:0:0:
341,245,60581,1,8,0:0:0:0:
341,245,60640,1,0,0:0:0:0:
341,245,60758,1,0,0:0:0:0:
341,245,60875,1,8,0:0:0:0:
341,245,60934,1,8,0:0:0:0:
341,245,60993,1,8,0:0:0:0:
341,245,61052,1,8,0:0:0:0:
341,245,61111,1,0,0:0:0:0:
330,210,61169,1,0,0:0:0:0:
330,210,61228,1,8,0:0:0:0:
330,210,61287,1,8,0:0:0:0:
330,210,61346,1,8,0:0:0:0:
330,210,61464,1,0,0:0:0:0:
330,210,61581,1,0,0:0:0:0:
322,193,61640,1,0,0:0:0:0:
322,193,61699,1,8,0:0:0:0:
322,193,61758,1,0,0:0:0:0:
322,193,61817,1,8,0:0:0:0:
322,193,61875,1,0,0:0:0:0:
322,193,61934,1,8,0:0:0:0:
322,193,61993,1,8,0:0:0:0:
321,206,62052,1,0,0:0:0:0:
321,206,62169,1,8,0:0:0:0:
321,206,62287,1,4,0:0:0:0:
262,218,62993,1,0,0:0:0:0:
262,218,63111,1,8,0:0:0:0:
262,218,63228,1,0,0:0:0:0:
262,218,63346,1,8,0:0:0:0:
262,218,63405,1,8,0:0:0:0:
262,218,63464,1,0,0:0:0:0:
262,218,63581,1,0,0:0:0:0:
262,218,63699,1,8,0:0:0:0:
262,218,63817,1,0,0:0:0:0:
262,218,63934,1,8,0:0:0:0:
262,218,63993,1,8,0:0:0:0:
262,218,64052,1,0,0:0:0:0:
262,218,64111,1,8,0:0:0:0:
262,218,64169,1,0,0:0:0:0:
423,210,64287,1,8,0:0:0:0:
406,222,64346,1,0,0:0:0:0:
423,210,64405,1,0,0:0:0:0:
406,221,64522,1,8,0:0:0:0:
406,221,64640,1,0,0:0:0:0:
406,221,64699,1,0,0:0:0:0:
406,221,64758,1,8,0:0:0:0:
406,221,64817,1,8,0:0:0:0:
406,221,64875,1,0,0:0:0:0:
406,221,64993,1,8,0:0:0:0:
406,221,65111,1,4,0:0:0:0:
319,208,65228,1,8,0:0:0:0:
319,208,65346,1,8,0:0:0:0:
319,208,65464,1,8,0:0:0:0:
319,208,65581,1,8,0:0:0:0:
319,208,65699,1,8,0:0:0:0:
345,225,65817,1,0,0:0:0:0:
345,225,65934,1,8,0:0:0:0:
345,225,65993,1,8,0:0:0:0:
345,225,66052,1,8,0:0:0:0:
345,225,66169,1,8,0:0:0:0:
345,225,66287,1,8,0:0:0:0:
345,225,66346,1,8,0:0:0:0:
345,225,66405,1,8,0:0:0:0:
345,225,66464,1,8,0:0:0:0:
389,214,66522,1,8,0:0:0:0:
389,214,66640,1,8,0:0:0:0:
389,214,66758,1,0,0:0:0:0:
429,233,66817,1,0,0:0:0:0:
429,233,66875,1,8,0:0:0:0:
429,233,66934,1,8,0:0:0:0:
429,233,66993,1,8,0:0:0:0:
429,233,67052,1,8,0:0:0:0:
429,233,67111,1,8,0:0:0:0:
429,233,67169,1,8,0:0:0:0:
386,248,67228,1,0,0:0:0:0:
307,223,67346,1,8,0:0:0:0:
307,223,67405,1,8,0:0:0:0:
307,223,67464,1,8,0:0:0:0:
307,223,67581,1,8,0:0:0:0:
307,223,67699,1,0,0:0:0:0:
307,223,67817,1,8,0:0:0:0:
307,223,67934,1,4,0:0:0:0:
321,200,68169,1,8,0:0:0:0:
348,225,68287,1,0,0:0:0:0:
348,225,68346,1,0,0:0:0:0:
348,225,68405,1,8,0:0:0:0:
348,225,68522,1,8,0:0:0:0:
348,225,68640,1,0,0:0:0:0:
348,225,68758,1,0,0:0:0:0:
348,225,68875,1,8,0:0:0:0:
348,225,68993,1,0,0:0:0:0:
348,225,69111,1,8,0:0:0:0:
348,225,69228,1,8,0:0:0:0:
356,210,69346,1,8,0:0:0:0:
356,210,69464,1,0,0:0:0:0:
356,210,69522,1,0,0:0:0:0:
356,210,69581,1,8,0:0:0:0:
356,210,69699,1,8,0:0:0:0:
356,210,69817,1,0,0:0:0:0:
356,210,69934,1,8,0:0:0:0:
356,210,69993,1,8,0:0:0:0:
356,210,70052,1,0,0:0:0:0:
356,210,70111,1,0,0:0:0:0:
356,210,70169,1,8,0:0:0:0:
356,210,70287,1,0,0:0:0:0:
356,210,70346,1,8,0:0:0:0:
356,210,70405,1,8,0:0:0:0:
356,210,70522,1,0,0:0:0:0:
356,210,70640,1,8,0:0:0:0:
356,210,70758,1,4,0:0:0:0:
378,193,70993,1,8,0:0:0:0:
422,218,71111,1,0,0:0:0:0:
422,218,71169,1,0,0:0:0:0:
422,218,71228,1,8,0:0:0:0:
415,217,71346,1,8,0:0:0:0:
421,269,71405,1,8,0:0:0:0:
415,217,71464,1,0,0:0:0:0:
373,279,71581,1,8,0:0:0:0:
355,240,71640,1,0,0:0:0:0:
355,240,71699,1,8,0:0:0:0:
378,283,71817,1,0,0:0:0:0:
373,279,71934,1,8,0:0:0:0:
373,279,72052,1,8,0:0:0:0:
373,279,72169,1,0,0:0:0:0:
373,279,72287,1,8,0:0:0:0:
373,279,72346,1,8,0:0:0:0:
373,279,72405,1,0,0:0:0:0:
373,279,72464,1,8,0:0:0:0:
373,279,72522,1,0,0:0:0:0:
373,279,72581,1,0,0:0:0:0:
373,279,72640,1,8,0:0:0:0:
421,280,72758,1,8,0:0:0:0:
373,279,72875,1,0,0:0:0:0:
421,280,72993,1,8,0:0:0:0:
415,272,73052,1,8,0:0:0:0:
415,272,73111,1,8,0:0:0:0:
414,272,73228,1,8,0:0:0:0:
421,269,73287,1,8,0:0:0:0:
415,272,73346,1,0,0:0:0:0:
414,272,73464,1,8,0:0:0:0:
415,272,73581,1,4,0:0:0:0:
386,254,73817,1,8,0:0:0:0:
386,254,73934,1,0,0:0:0:0:
386,254,73993,1,8,0:0:0:0:
386,254,74052,1,8,0:0:0:0:
386,254,74169,1,8,0:0:0:0:
386,254,74287,1,0,0:0:0:0:
386,254,74405,1,0,0:0:0:0:
386,254,74522,1,8,0:0:0:0:
386,254,74640,1,8,0:0:0:0:
386,254,74758,1,0,0:0:0:0:
386,254,74875,1,8,0:0:0:0:
386,254,74993,1,8,0:0:0:0:
386,254,75111,1,0,0:0:0:0:
386,242,75169,1,0,0:0:0:0:
386,242,75228,1,8,0:0:0:0:
386,242,75287,1,0,0:0:0:0:
386,242,75346,1,8,0:0:0:0:
386,242,75405,1,8,0:0:0:0:
386,242,75464,1,0,0:0:0:0:
388,257,75581,1,8,0:0:0:0:
388,257,75640,1,8,0:0:0:0:
388,257,75699,1,8,0:0:0:0:
491,282,75817,1,8,0:0:0:0:
388,257,75934,1,8,0:0:0:0:
388,257,75993,1,8,0:0:0:0:
388,257,76052,1,8,0:0:0:0:
388,257,76111,1,8,0:0:0:0:
388,257,76169,1,0,0:0:0:0:
449,175,76287,1,8,0:0:0:0:
437,185,76405,1,4,0:0:0:0:
425,182,76522,1,8,0:0:0:0:
425,182,76640,1,8,0:0:0:0:
309,174,76758,1,8,0:0:0:0:
309,174,76875,1,8,0:0:0:0:
309,174,76993,1,8,0:0:0:0:
309,174,77111,1,0,0:0:0:0:
313,198,77228,1,8,0:0:0:0:
313,198,77287,1,8,0:0:0:0:
313,198,77346,1,0,0:0:0:0:
313,198,77405,1,0,0:0:0:0:
313,198,77464,1,8,0:0:0:0:
313,198,77581,1,0,0:0:0:0:
313,198,77640,1,0,0:0:0:0:
313,198,77699,1,8,0:0:0:0:
313,198,77758,1,8,0:0:0:0:
313,198,77817,1,0,0:0:0:0:
313,198,77934,1,8,0:0:0:0:
313,198,78052,1,0,0:0:0:0:
313,198,78169,1,8,0:0:0:0:
313,198,78228,1,8,0:0:0:0:
313,198,78287,1,8,0:0:0:0:
313,198,78346,1,0,0:0:0:0:
313,198,78405,1,8,0:0:0:0:
313,198,78464,1,8,0:0:0:0:
313,198,78522,1,0,0:0:0:0:
308,175,78640,1,8,0:0:0:0:
308,175,78699,1,8,0:0:0:0:
308,175,78758,1,8,0:0:0:0:
299,177,78875,1,0,0:0:0:0:
299,177,78934,1,8,0:0:0:0:
299,177,78993,1,0,0:0:0:0:
360,232,79052,1,0,0:0:0:0:
299,177,79111,1,8,0:0:0:0:
360,232,79228,1,4,0:0:0:0:
367,237,79464,1,8,0:0:0:0:
367,237,79581,1,0,0:0:0:0:
367,237,79640,1,0,0:0:0:0:
367,237,79699,1,8,0:0:0:0:
361,235,79817,1,8,0:0:0:0:
361,235,79934,1,0,0:0:0:0:
361,235,80052,1,0,0:0:0:0:
361,235,80169,1,8,0:0:0:0:
361,235,80287,1,0,0:0:0:0:
361,235,80405,1,8,0:0:0:0:
361,235,80522,1,8,0:0:0:0:
361,235,80640,1,8,0:0:0:0:
361,235,80758,1,0,0:0:0:0:
361,235,80817,1,0,0:0:0:0:
361,235,80875,1,8,0:0:0:0:
361,235,80993,1,8,0:0:0:0:
361,235,81111,1,0,0:0:0:0:
361,235,81228,1,8,0:0:0:0:
361,235,81287,1,8,0:0:0:0:
361,235,81346,1,0,0:0:0:0:
361,235,81405,1,0,0:0:0:0:
361,235,81464,1,8,0:0:0:0:
361,235,81581,1,0,0:0:0:0:
361,235,81640,1,8,0:0:0:0:
361,235,81699,1,0,0:0:0:0:
361,235,81817,1,0,0:0:0:0:
361,235,81934,1,8,0:0:0:0:
361,235,82052,1,4,0:0:0:0:
341,221,82287,1,8,0:0:0:0:
341,221,82405,1,0,0:0:0:0:
341,221,82464,1,0,0:0:0:0:
341,221,82522,1,8,0:0:0:0:
335,227,82640,1,0,0:0:0:0:
397,263,82699,1,0,0:0:0:0:
335,227,82758,1,0,0:0:0:0:
335,227,82875,1,8,0:0:0:0:
335,227,82934,1,0,0:0:0:0:
335,227,82993,1,8,0:0:0:0:
335,227,83111,1,0,0:0:0:0:
335,227,83228,1,8,0:0:0:0:
335,227,83346,1,8,0:0:0:0:
335,227,83464,1,0,0:0:0:0:
335,227,83581,1,8,0:0:0:0:
335,227,83640,1,8,0:0:0:0:
335,227,83699,1,0,0:0:0:0:
339,230,83817,1,0,0:0:0:0:
339,230,83875,1,0,0:0:0:0:
339,230,83934,1,8,0:0:0:0:
339,230,83993,1,8,0:0:0:0:
339,230,84052,1,0,0:0:0:0:
339,230,84111,1,8,0:0:0:0:
339,230,84169,1,0,0:0:0:0:
339,230,84287,1,8,0:0:0:0:
339,230,84405,1,8,0:0:0:0:
339,230,84464,1,8,0:0:0:0:
339,230,84522,1,8,0:0:0:0:
339,230,84581,1,8,0:0:0:0:
339,230,84640,1,0,0:0:0:0:
339,230,84758,1,8,0:0:0:0:
350,261,84875,1,4,0:0:0:0:
342,259,85111,1,8,0:0:0:0:
350,261,85228,1,0,0:0:0:0:
350,261,85287,1,8,0:0:0:0:
342,259,85346,1,8,0:0:0:0:
350,261,85464,1,0,0:0:0:0:
342,259,85581,1,0,0:0:0:0:
342,259,85699,1,8,0:0:0:0:
342,259,85817,1,8,0:0:0:0:
342,259,85934,1,8,0:0:0:0:
342,259,86052,1,0,0:0:0:0:
342,259,86169,1,8,0:0:0:0:
369,268,86287,1,8,0:0:0:0:
369,268,86405,1,0,0:0:0:0:
369,268,86464,1,8,0:0:0:0:
369,268,86522,1,0,0:0:0:0:
369,268,86581,1,0,0:0:0:0:
369,268,86640,1,8,0:0:0:0:
369,268,86699,1,8,0:0:0:0:
369,268,86758,1,0,0:0:0:0:
369,268,86875,1,8,0:0:0:0:
369,268,86993,1,8,0:0:0:0:
369,268,87111,1,8,0:0:0:0:
369,268,87228,1,8,0:0:0:0:
369,268,87287,1,8,0:0:0:0:
369,268,87346,1,8,0:0:0:0:
369,268,87405,1,8,0:0:0:0:
369,268,87464,1,0,0:0:0:0:
369,268,87522,1,0,0:0:0:0:
369,268,87581,1,8,0:0:0:0:
369,268,87699,1,4,0:0:0:0:
357,236,87817,1,8,0:0:0:0:
357,236,87934,1,8,0:0:0:0:
357,236,88052,1,8,0:0:0:0:
357,236,88169,1,8,0:0:0:0:
357,236,88287,1,8,0:0:0:0:
357,236,88405,1,0,0:0:0:0:
357,236,88522,1,0,0:0:0:0:
357,236,88581,1,0,0:0:0:0:
268,157,88640,1,8,0:0:0:0:
287,195,88758,1,0,0:0:0:0:
287,195,88875,1,8,0:0:0:0:
287,195,88934,1,8,0:0:0:0:
287,195,88993,1,8,0:0:0:0:
287,195,89052,1,8,0:0:0:0:
287,195,89111,1,0,0:0:0:0:
287,195,89228,1,8,0:0:0:0:
309,235,89346,1,0,0:0:0:0:
309,235,89464,1,8,0:0:0:0:
309,235,89522,1,8,0:0:0:0:
309,235,89581,1,0,0:0:0:0:
309,235,89640,1,0,0:0:0:0:
309,235,89699,1,8,0:0:0:0:
309,235,89758,1,0,0:0:0:0:
309,235,89817,1,0,0:0:0:0:
309,235,89875,1,8,0:0:0:0:
309,235,89934,1,8,0:0:0:0:
309,235,89993,1,8,0:0:0:0:
309,235,90052,1,0,0:0:0:0:
309,235,90169,1,8,0:0:0:0:
309,235,90228,1,8,0:0:0:0:
309,235,90287,1,0,0:0:0:0:
309,235,90405,1,8,0:0:0:0:
309,235,90464,1,8,0:0:0:0:
320,320,90522,5,0,0:0:0:0:
320,320,90567,1,8,0:0:0:0:
337,253,91934,1,8,0:0:0:0:
337,253,93346,1,0,0:0:0:0:
337,253,93390,1,8,0:0:0:0:
316,172,94052,1,0,0:0:0:0:
356,254,94758,1,8,0:0:0:0:
356,254,94802,1,8,0:0:0:0:
355,254,95228,1,0,0:0:0:0:
350,187,95464,1,0,0:0:0:0:
350,187,95699,1,8,0:0:0:0:
350,187,95934,1,0,0:0:0:0:
350,187,96169,1,8,0:0:0:0:
379,168,96214,1,0,0:0:0:0:
403,158,98287,1,8,0:0:0:0:
403,158,98993,1,0,0:0:0:0:
403,158,99037,1,0,0:0:0:0:
403,158,99699,1,0,0:0:0:0:
403,158,100405,1,8,0:0:0:0:
403,158,100449,1,8,0:0:0:0:
312,151,101111,1,0,0:0:0:0:
347,237,101817,1,4,0:0:0:0:
347,237,102522,1,8,0:0:0:0:
399,227,103228,1,0,0:0:0:0:
256,231,103934,1,8,0:0:0:0:
241,232,104405,1,8,0:0:0:0:
241,232,104640,1,0,0:0:0:0:
196,219,105346,1,8,0:0:0:0:
246,247,105817,1,8,0:0:0:0:
255,246,106052,1,0,0:0:0:0:
292,256,106522,1,8,0:0:0:0:
292,256,106758,1,8,0:0:0:0:
309,241,107228,1,8,0:0:0:0:
309,241,107464,1,0,0:0:0:0:
323,231,107934,1,8,0:0:0:0:
323,231,108169,1,0,0:0:0:0:
323,231,108405,1,8,0:0:0:0:
323,231,108640,1,8,0:0:0:0:
323,231,108875,1,0,0:0:0:0:
375,221,109111,1,8,0:0:0:0:
375,221,109346,1,8,0:0:0:0:
375,221,109581,1,0,0:0:0:0:
375,221,109699,1,8,0:0:0:0:
375,221,109817,1,8,0:0:0:0:
375,221,109934,1,8,0:0:0:0:
375,221,110052,1,8,0:0:0:0:
375,221,110169,1,8,0:0:0:0:
375,221,110287,1,0,0:0:0:0:
375,221,110405,1,8,0:0:0:0:
375,221,110522,1,8,0:0:0:0:
375,221,110640,1,8,0:0:0:0:
375,221,110758,1,0,0:0:0:0:
375,221,110875,1,8,0:0:0:0:
375,221,110993,1,0,0:0:0:0:
375,221,111111,1,8,0:0:0:0:
375,221,111228,1,8,0:0:0:0:
375,221,111346,1,8,0:0:0:0:
375,221,111464,1,0,0:0:0:0:
375,221,111581,1,8,0:0:0:0:
388,207,111699,1,0,0:0:0:0:
388,207,111758,1,0,0:0:0:0:
388,207,111817,1,8,0:0:0:0:
388,207,111875,1,8,0:0:0:0:
388,207,111934,1,0,0:0:0:0:
388,207,111993,1,0,0:0:0:0:
388,207,112052,1,8,0:0:0:0:
388,207,112111,1,0,0:0:0:0:
388,207,112169,1,0,0:0:0:0:
388,207,112228,1,8,0:0:0:0:
388,207,112287,1,8,0:0:0:0:
388,207,112346,1,8,0:0:0:0:
256,192,112405,12,0,112993,0:0:0:0:
210,221,113111,5,4,0:0:0:0:
369,315,113346,1,8,0:0:0:0:
369,315,113464,1,0,0:0:0:0:
369,315,113522,1,0,0:0:0:0:
369,315,113581,1,8,0:0:0:0:
369,315,113699,1,8,0:0:0:0:
369,315,113817,1,0,0:0:0:0:
432,299,113934,1,0,0:0:0:0:
369,315,113993,1,8,0:0:0:0:
369,315,114052,1,0,0:0:0:0:
432,299,114169,1,8,0:0:0:0:
432,299,114287,1,0,0:0:0:0:
432,299,114346,1,0,0:0:0:0:
432,299,114405,1,8,0:0:0:0:
432,299,114464,1,8,0:0:0:0:
432,299,114522,1,0,0:0:0:0:
432,299,114640,1,8,0:0:0:0:
432,299,114699,1,0,0:0:0:0:
432,299,114758,1,8,0:0:0:0:
432,299,114817,1,8,0:0:0:0:
432,299,114875,1,0,0:0:0:0:
432,299,114934,1,8,0:0:0:0:
432,299,114993,1,0,0:0:0:0:
452,298,115111,1,8,0:0:0:0:
416,257,115228,1,0,0:0:0:0:
387,269,115346,1,0,0:0:0:0:
108,198,115375,1,0,0:0:0:0:
387,269,115464,1,8,0:0:0:0:
108,198,115493,1,8,0:0:0:0:
387,269,115581,1,0,0:0:0:0:
108,198,115611,1,0,0:0:0:0:
387,269,115699,1,8,0:0:0:0:
108,198,115728,1,8,0:0:0:0:
387,269,115817,1,8,0:0:0:0:
108,198,115846,1,8,0:0:0:0:
264,258,115934,1,4,0:0:0:0:
306,187,116052,1,0,0:0:0:0:
364,211,116111,1,0,0:0:0:0:
364,211,116169,1,8,0:0:0:0:
306,187,116287,1,0,0:0:0:0:
306,187,116405,1,8,0:0:0:0:
435,202,116522,1,8,0:0:0:0:
435,202,116581,1,0,0:0:0:0:
373,202,116640,1,0,0:0:0:0:
435,202,116758,1,8,0:0:0:0:
435,202,116875,1,8,0:0:0:0:
435,202,116934,1,8,0:0:0:0:
435,202,116993,1,0,0:0:0:0:
435,202,117052,1,8,0:0:0:0:
435,202,117111,1,0,0:0:0:0:
435,202,117228,1,8,0:0:0:0:
435,202,117346,1,0,0:0:0:0:
435,202,117405,1,8,0:0:0:0:
435,202,117464,1,8,0:0:0:0:
395,227,117581,1,0,0:0:0:0:
395,227,117699,1,8,0:0:0:0:
395,227,117758,1,8,0:0:0:0:
395,227,117817,1,0,0:0:0:0:
395,227,117934,1,0,0:0:0:0:
306,228,117993,1,8,0:0:0:0:
306,228,118052,1,0,0:0:0:0:
334,263,118169,1,0,0:0:0:0:
334,263,118228,1,8,0:0:0:0:
334,263,118287,1,0,0:0:0:0:
334,263,118346,1,0,0:0:0:0:
334,263,118405,1,8,0:0:0:0:
334,263,118464,1,8,0:0:0:0:
334,263,118522,1,0,0:0:0:0:
396,270,118581,1,8,0:0:0:0:
334,263,118640,1,0,0:0:0:0:
334,263,118758,1,4,0:0:0:0:
347,237,118875,1,8,0:0:0:0:
347,237,118934,1,0,0:0:0:0:
347,237,118993,1,8,0:0:0:0:
347,237,119052,1,8,0:0:0:0:
347,237,119111,1,0,0:0:0:0:
347,237,119169,1,0,0:0:0:0:
347,237,119228,1,0,0:0:0:0:
347,237,119346,1,8,0:0:0:0:
347,237,119464,1,0,0:0:0:0:
382,270,119581,1,8,0:0:0:0:
339,241,119699,1,8,0:0:0:0:
339,241,119758,1,0,0:0:0:0:
339,241,119817,1,8,0:0:0:0:
339,241,119875,1,8,0:0:0:0:
339,241,119934,1,0,0:0:0:0:
339,241,119993,1,0,0:0:0:0:
339,241,120052,1,8,0:0:0:0:
339,241,120111,1,0,0:0:0:0:
339,241,120169,1,0,0:0:0:0:
323,260,120287,1,0,0:0:0:0:
323,260,120346,1,0,0:0:0:0:
323,260,120405,1,8,0:0:0:0:
323,260,120464,1,0,0:0:0:0:
323,260,120522,1,8,0:0:0:0:
323,260,120581,1,8,0:0:0:0:
323,260,120640,1,0,0:0:0:0:
323,260,120699,1,0,0:0:0:0:
323,260,120758,1,8,0:0:0:0:
323,260,120817,1,8,0:0:0:0:
323,260,120875,1,0,0:0:0:0:
337,242,120993,1,8,0:0:0:0:
337,242,121111,1,8,0:0:0:0:
337,242,121228,1,8,0:0:0:0:
337,242,121287,1,8,0:0:0:0:
337,242,121346,1,8,0:0:0:0:
337,242,121464,1,8,0:0:0:0:
337,242,121581,1,4,0:0:0:0:
354,248,121699,1,8,0:0:0:0:
354,248,121758,1,0,0:0:0:0:
354,248,121817,1,8,0:0:0:0:
354,248,121934,1,0,0:0:0:0:
354,248,122052,1,8,0:0:0:0:
354,248,122169,1,0,0:0:0:0:
354,248,122287,1,0,0:0:0:0:
354,248,122405,1,8,0:0:0:0:
354,248,122464,1,0,0:0:0:0:
354,248,122522,1,8,0:0:0:0:
354,248,122640,1,0,0:0:0:0:
327,215,122758,1,8,0:0:0:0:
327,215,122875,1,0,0:0:0:0:
327,215,122934,1,8,0:0:0:0:
327,215,122993,1,0,0:0:0:0:
374,198,123052,1,8,0:0:0:0:
374,198,123111,1,8,0:0:0:0:
374,198,123228,1,0,0:0:0:0:
397,275,123346,1,8,0:0:0:0:
374,198,123405,1,8,0:0:0:0:
397,275,123464,1,0,0:0:0:0:
374,198,123581,1,8,0:0:0:0:
374,198,123640,1,8,0:0:0:0:
374,198,123699,1,0,0:0:0:0:
406,230,123817,1,0,0:0:0:0:
406,230,123875,1,8,0:0:0:0:
406,230,123934,1,0,0:0:0:0:
406,230,124052,1,8,0:0:0:0:
406,230,124111,1,0,0:0:0:0:
406,230,124169,1,8,0:0:0:0:
406,230,124228,1,0,0:0:0:0:
406,230,124287,1,8,0:0:0:0:
406,230,124405,1,4,0:0:0:0:
410,130,124640,1,8,0:0:0:0:
371,178,124758,1,0,0:0:0:0:
371,178,124817,1,0,0:0:0:0:
371,178,124875,1,8,0:0:0:0:
306,189,124993,1,8,0:0:0:0:
306,189,125111,1,0,0:0:0:0:
290,177,125228,1,0,0:0:0:0:
292,180,125346,1,8,0:0:0:0:
290,177,125464,1,0,0:0:0:0:
292,180,125581,1,8,0:0:0:0:
290,177,125699,1,8,0:0:0:0:
277,192,125817,1,0,0:0:0:0:
309,192,125934,1,0,0:0:0:0:
310,192,125993,1,0,0:0:0:0:
310,192,126052,1,8,0:0:0:0:
310,192,126169,1,8,0:0:0:0:
310,192,126287,1,0,0:0:0:0:
310,192,126405,1,8,0:0:0:0:
310,192,126464,1,8,0:0:0:0:
310,192,126522,1,0,0:0:0:0:
310,192,126640,1,8,0:0:0:0:
384,273,126758,1,0,0:0:0:0:
384,273,126817,1,8,0:0:0:0:
384,273,126875,1,0,0:0:0:0:
384,273,126993,1,8,0:0:0:0:
384,273,127111,1,8,0:0:0:0:
384,273,127228,1,4,0:0:0:0:
356,268,127464,1,8,0:0:0:0:
356,268,127581,1,8,0:0:0:0:
356,268,127640,1,8,0:0:0:0:
356,268,127699,1,0,0:0:0:0:
356,268,127817,1,8,0:0:0:0:
356,268,127934,1,0,0:0:0:0:
349,266,128052,1,8,0:0:0:0:
349,266,128111,1,8,0:0:0:0:
349,266,128169,1,8,0:0:0:0:
349,266,128287,1,8,0:0:0:0:
355,268,128405,1,0,0:0:0:0:
344,266,128522,1,8,0:0:0:0:
355,268,128640,1,0,0:0:0:0:
344,266,128758,1,8,0:0:0:0:
344,266,128817,1,0,0:0:0:0:
355,268,128875,1,0,0:0:0:0:
347,236,128993,1,8,0:0:0:0:
355,268,129111,1,0,0:0:0:0:
344,266,129228,1,8,0:0:0:0:
337,228,129287,1,8,0:0:0:0:
344,266,129346,1,0,0:0:0:0:
347,236,129464,1,8,0:0:0:0:
337,228,129581,1,0,0:0:0:0:
337,228,129699,1,8,0:0:0:0:
337,228,129758,1,8,0:0:0:0:
337,228,129817,1,8,0:0:0:0:
347,236,129934,1,8,0:0:0:0:
406,251,130052,1,4,0:0:0:0:
373,250,130169,1,8,0:0:0:0:
373,250,130287,1,0,0:0:0:0:
373,250,130405,1,8,0:0:0:0:
373,250,130464,1,8,0:0:0:0:
373,250,130522,1,0,0:0:0:0:
373,250,130640,1,8,0:0:0:0:
373,250,130758,1,8,0:0:0:0:
373,250,130817,1,8,0:0:0:0:
373,250,130875,1,0,0:0:0:0:
373,250,130993,1,0,0:0:0:0:
373,250,131111,1,8,0:0:0:0:
373,250,131169,1,0,0:0:0:0:
373,250,131228,1,0,0:0:0:0:
373,250,131346,1,8,0:0:0:0:
366,237,131464,1,0,0:0:0:0:
366,237,131581,1,8,0:0:0:0:
366,237,131640,1,8,0:0:0:0:
366,237,131699,1,0,0:0:0:0:
364,224,131758,1,8,0:0:0:0:
366,237,131817,1,8,0:0:0:0:
364,224,131934,1,0,0:0:0:0:
364,224,131993,1,0,0:0:0:0:
364,224,132052,1,8,0:0:0:0:
364,224,132169,1,8,0:0:0:0:
379,207,132228,1,8,0:0:0:0:
382,209,132287,1,0,0:0:0:0:
386,212,132405,1,0,0:0:0:0:
386,212,132464,1,8,0:0:0:0:
386,212,132522,1,8,0:0:0:0:
386,212,132581,1,8,0:0:0:0:
386,212,132640,1,0,0:0:0:0:
386,212,132758,1,8,0:0:0:0:
386,212,132875,1,4,0:0:0:0:
360,208,132993,1,0,0:0:0:0:
360,208,133111,1,0,0:0:0:0:
360,208,133228,1,0,0:0:0:0:
360,208,133346,1,0,0:0:0:0:
365,222,133464,1,8,0:0:0:0:
365,222,133522,1,8,0:0:0:0:
365,222,133581,1,0,0:0:0:0:
353,236,133699,1,0,0:0:0:0:
318,220,133817,1,8,0:0:0:0:
318,220,133875,1,8,0:0:0:0:
318,220,133934,1,0,0:0:0:0:
318,220,133993,1,0,0:0:0:0:
318,220,134052,1,8,0:0:0:0:
318,220,134169,1,8,0:0:0:0:
318,220,134287,1,0,0:0:0:0:
296,228,134346,1,0,0:0:0:0:
296,228,134405,1,0,0:0:0:0:
296,228,134464,1,0,0:0:0:0:
296,228,134522,1,8,0:0:0:0:
296,228,134581,1,0,0:0:0:0:
296,228,134640,1,0,0:0:0:0:
296,228,134699,1,0,0:0:0:0:
296,228,134758,1,8,0:0:0:0:
296,228,134817,1,8,0:0:0:0:
296,228,134875,1,0,0:0:0:0:
296,228,134934,1,8,0:0:0:0:
256,192,134993,12,0,136008,0:0:0:0:
256,192,135964,12,0,136978,0:0:0:0:
256,192,136978,12,0,137993,0:0:0:0:
