osu file format v14

[General]
AudioFilename: audio.mp3
AudioLeadIn: 0
PreviewTime: 79562
Countdown: 0
SampleSet: Soft
StackLeniency: 0.3
Mode: 0
LetterboxInBreaks: 0
EpilepsyWarning: 1
WidescreenStoryboard: 1

[Editor]
Bookmarks: 79562,178653,193198
DistanceSpacing: 1.3
BeatDivisor: 4
GridSize: 4
TimelineZoom: 1.6

[Metadata]
Title:Haru no Yuki
TitleUnicode:ハルノユキ
Artist:lily, sayonara.
ArtistUnicode:リリィ、さよなら。
Creator:kanor
Version:Sayonara
Source:
Tags:村上ヒロキ Japanese pop beren
BeatmapID:2692483
BeatmapSetID:1297978

[Difficulty]
HPDrainRate:6
CircleSize:4.2
OverallDifficulty:8
ApproachRate:9
SliderMultiplier:1.6
SliderTickRate:1

[Events]
//Background and Video events
0,0,"Haru.jpg",0,0
//Break Periods
2,178853,191539
//Storyboard Layer 0 (Background)
//Storyboard Layer 1 (Fail)
//Storyboard Layer 2 (Pass)
//Storyboard Layer 3 (Foreground)
//Storyboard Layer 4 (Overlay)
//Storyboard Sound Samples

[TimingPoints]
-35,491.803278688525,4,2,1,20,1,0
1930,-133.333333333333,4,2,1,35,0,0
18038,-133.333333333333,4,2,1,5,0,0
18653,454.545454545455,4,2,1,60,1,0
33198,-100,4,2,1,50,0,0
62062,-100,4,2,1,60,0,0
78653,-100,4,2,1,60,0,0
79562,-100,4,2,1,70,0,0
80471,-83.3333333333333,4,2,1,75,0,0
96380,-66.6666666666667,4,2,1,75,0,0
96834,-83.3333333333333,4,2,1,75,0,0
98198,-66.6666666666667,4,2,1,75,0,0
98653,-83.3333333333333,4,2,1,75,0,0
102289,-83.3333333333333,4,2,1,65,0,0
109562,-100,4,2,1,50,0,0
124107,-100,4,2,1,60,0,0
140471,-100,4,2,1,70,0,0
142289,-83.3333333333333,4,2,1,75,0,0
158198,-66.6666666666667,4,2,1,75,0,0
158653,-83.3333333333333,4,2,1,75,0,0
160016,-66.6666666666667,4,2,1,75,0,0
160471,-83.3333333333333,4,2,1,75,0,0
164107,-83.3333333333333,4,2,1,65,0,0
192289,-100,4,2,1,55,0,0
200471,-100,4,2,1,60,0,0
207743,-83.3333333333333,4,2,1,60,0,0
216834,-83.3333333333333,4,2,1,75,0,0
231380,-83.3333333333333,4,2,1,75,0,0
247289,-66.6666666666667,4,2,1,75,0,0
247743,-83.3333333333333,4,2,1,75,0,0
249107,-66.6666666666667,4,2,1,75,0,0
249562,-83.3333333333333,4,2,1,75,0,0
253198,-83.3333333333333,4,2,1,65,0,0
282289,-83.3333333333333,4,2,1,75,0,0
293425,-83.3333333333333,4,2,1,5,0,0

[Colours]
Combo1 : 173,248,213
Combo2 : 255,202,202
Combo3 : 254,247,197
Combo4 : 200,230,181

[HitObjects]
75,88,948,5,0,0:0:0:0:
37,76,1194,1,0,0:0:0:0:
37,36,1440,1,0,0:0:0:0:
75,23,1686,1,0,0:0:0:0:
99,56,1932,1,4,0:3:0:0:
184,112,2178,2,0,B|248:108|216:156|300:148,1,120.000004577637,2|2,0:0|0:0,0:0:0:0:
444,172,2915,5,0,0:0:0:0:
482,160,3161,1,0,0:0:0:0:
482,120,3407,1,0,0:0:0:0:
444,107,3653,1,0,0:0:0:0:
420,140,3899,1,0,0:0:0:0:
420,140,4391,2,0,L|340:148,1,60.0000022888184,0|2,0:0|0:0,0:0:0:0:
228,232,4883,5,0,0:0:0:0:
190,220,5129,1,0,0:0:0:0:
190,180,5375,1,0,0:0:0:0:
228,167,5621,1,0,0:0:0:0:
252,200,5867,1,4,0:3:0:0:
252,200,6358,1,0,0:0:0:0:
312,240,6850,6,0,P|342:237|376:232,1,60.0000022888184,0|2,0:0|0:0,0:0:0:0:
488,296,7342,2,0,P|457:293|424:288,1,60.0000022888184,0|2,0:0|0:0,0:0:0:0:
320,352,7834,1,0,0:0:0:0:
349,350,8079,1,2,0:0:0:0:
379,345,8325,1,2,0:0:0:0:
379,345,8817,5,0,0:0:0:0:
349,350,9063,1,0,0:0:0:0:
320,352,9308,1,0,0:0:0:0:
248,316,9555,1,0,0:0:0:0:
224,240,9801,1,4,0:3:0:0:
120,316,10046,2,0,P|72:360|16:352,1,120.000004577637,2|2,0:0|0:0,0:0:0:0:
0,252,10784,5,0,0:0:0:0:
30,257,11030,1,0,0:0:0:0:
59,259,11275,1,0,0:0:0:0:
131,223,11522,1,0,0:0:0:0:
155,147,11768,1,0,0:0:0:0:
155,147,12260,2,0,L|148:80,1,60.0000022888184,0|2,0:0|0:0,0:0:0:0:
264,16,12751,5,0,0:0:0:0:
259,46,12997,1,0,0:0:0:0:
257,75,13242,1,0,0:0:0:0:
293,147,13489,1,0,0:0:0:0:
369,171,13735,1,4,0:3:0:0:
369,171,14227,5,0,0:0:0:0:
448,144,14473,5,2,0:0:0:0:
472,68,14720,5,0,0:0:0:0:
500,212,14965,5,2,0:0:0:0:
360,248,15210,5,0,0:0:0:0:
472,284,15456,5,2,0:0:0:0:
400,312,15702,5,4,0:3:0:0:
256,192,15825,12,0,18161,0:0:0:0:
4,176,18653,6,0,P|24:212|28:256,2,80,12|0|0,1:2|1:2|1:2,1:1:0:0:
48,360,19334,2,0,P|69:324|105:299,2,80,12|0|0,1:2|1:2|1:2,1:1:0:0:
184,232,20016,2,0,P|138:232|102:212,1,80,12|0,1:2|3:2,1:1:0:0:
104,144,20357,5,0,3:2:0:0:
104,128,20471,1,12,1:2:0:0:
4,176,20698,1,0,1:2:0:0:
40,88,20925,1,0,1:2:0:0:
204,80,21153,5,12,1:2:0:0:
104,128,21381,1,0,1:2:0:0:
140,40,21608,1,0,1:2:0:0:
276,0,21834,2,0,B|288:36|288:36|280:80,1,80,12|0,1:2|3:2,1:1:0:0:
376,152,22175,5,0,3:2:0:0:
368,140,22289,2,0,B|356:104|356:104|364:60,1,80,12|0,1:2|1:2,1:1:0:0:
440,100,22743,1,0,1:2:0:0:
440,208,22971,2,0,B|477:215|477:215|511:244,1,80,12|0,1:2|1:2,1:1:0:0:
438,290,23425,1,0,1:2:0:0:
348,232,23653,2,0,B|322:260|322:260|280:275,1,80,12|0,1:2|3:2,1:1:0:0:
232,216,23993,1,0,3:2:0:0:
220,204,24107,5,12,1:2:0:0:
235,371,24334,1,2,1:2:0:0:
163,343,24562,1,2,1:2:0:0:
106,204,24789,5,12,1:2:0:0:
91,371,25016,1,2,1:2:0:0:
163,343,25244,1,2,1:2:0:0:
104,128,25471,5,12,1:2:0:0:
4,56,25698,1,2,3:2:0:0:
4,40,25812,1,0,3:2:0:0:
4,24,25925,5,12,1:2:0:0:
88,44,26153,1,0,1:2:0:0:
104,128,26380,1,0,1:2:0:0:
64,267,26607,5,12,1:2:0:0:
39,184,26835,1,0,1:2:0:0:
104,128,27062,1,0,1:2:0:0:
245,94,27289,1,12,1:2:0:0:
185,157,27516,5,0,3:2:0:0:
189,177,27630,1,0,3:2:0:0:
193,197,27743,2,0,P|233:213|269:205,1,80,12|0,1:2|1:2,1:1:0:0:
320,356,28198,1,0,1:2:0:0:
320,356,28425,2,0,P|313:313|288:286,1,80,12|0,1:2|1:2,1:1:0:0:
400,168,28880,1,0,1:2:0:0:
400,168,29107,2,0,P|366:194|355:229,1,80,12|0,1:2|3:2,1:1:0:0:
396,292,29448,1,0,3:2:0:0:
412,292,29562,5,12,1:2:0:0:
476,172,29789,1,0,1:2:0:0:
488,256,30016,1,0,1:2:0:0:
328,88,30243,5,12,1:2:0:0:
264,208,30470,1,0,1:2:0:0:
252,124,30697,1,0,1:2:0:0:
28,24,30925,2,0,B|16:52|16:52|20:112,1,80,12|0,1:2|3:2,1:1:0:0:
96,128,31266,1,0,3:0:0:0:
96,128,31380,5,8,0:0:0:0:
48,200,31607,1,2,0:0:0:0:
144,192,31834,5,0,0:0:0:0:
73,206,32061,1,2,0:0:0:0:
128,244,32289,5,0,0:0:0:0:
92,220,32516,1,2,0:0:0:0:
120,268,32743,5,2,0:0:0:0:
116,247,32971,1,2,0:0:0:0:
76,328,33198,6,0,P|32:332|-8:312,1,80,4|0,1:2|0:0,0:0:0:0:
164,352,33653,1,8,0:0:0:0:
164,352,34107,6,0,P|208:348|248:368,1,80,0|0,1:0|1:0,0:0:0:0:
372,360,34562,1,8,0:0:0:0:
344,228,34789,1,0,0:0:0:0:
328,232,34903,1,0,0:0:0:0:
312,236,35016,2,0,L|304:328,1,80,0|0,1:0|0:0,0:0:0:0:
452,344,35471,1,8,0:0:0:0:
452,344,35925,5,0,1:0:0:0:
416,268,36153,1,0,1:0:0:0:
424,180,36380,1,8,0:0:0:0:
484,120,36607,1,0,0:0:0:0:
312,4,36834,6,0,L|320:92,1,80,0|0,1:0|0:0,0:0:0:0:
256,224,37289,1,8,0:0:0:0:
332,196,37516,2,0,B|300:140|248:140|248:140|232:164|184:156,1,160,0|0,1:0|1:0,0:0:0:0:
112,56,38198,1,8,0:0:0:0:
204,40,38425,5,0,0:0:0:0:
200,60,38539,1,0,0:0:0:0:
196,80,38653,1,0,1:0:0:0:
44,112,38880,1,0,0:0:0:0:
128,132,39107,1,8,0:0:0:0:
28,32,39334,1,0,0:0:0:0:
16,188,39562,2,0,L|20:300,1,80,0|0,1:0|1:0,0:0:0:0:
204,356,40016,2,0,L|208:244,1,80,8|0,0:0|0:0,0:0:0:0:
164,212,40357,5,0,0:0:0:0:
164,212,40471,2,0,P|136:240|132:284,1,80,0|0,1:0|0:0,0:0:0:0:
284,280,40925,1,8,0:0:0:0:
284,280,41380,2,0,P|278:241|250:213,1,80,0|0,1:0|1:0,0:0:0:0:
304,356,41834,1,8,0:0:0:0:
468,320,42062,5,0,0:0:0:0:
484,312,42175,1,0,0:0:0:0:
504,304,42289,2,0,L|512:220,1,80,0|0,1:0|0:0,0:0:0:0:
392,88,42743,1,8,0:0:0:0:
392,88,43198,5,0,1:0:0:0:
333,150,43425,1,0,1:0:0:0:
367,6,43653,1,8,0:0:0:0:
475,107,43880,1,0,0:0:0:0:
392,252,44107,6,0,L|384:344,1,80,0|0,1:0|0:0,0:0:0:0:
184,308,44562,1,8,0:0:0:0:
144,236,44789,2,0,B|100:232|48:232|96:288|40:300|-12:284,1,160,0|0,1:0|1:0,0:0:0:0:
184,308,45471,1,8,0:0:0:0:
216,200,45698,5,0,0:0:0:0:
216,180,45812,1,0,0:0:0:0:
216,160,45925,1,4,1:2:0:0:
168,92,46153,1,2,0:0:0:0:
88,72,46380,1,8,0:0:0:0:
8,88,46607,1,2,0:0:0:0:
216,160,46834,5,0,1:0:0:0:
298,152,47062,1,2,1:2:0:0:
356,93,47289,1,8,0:0:0:0:
382,15,47516,5,0,0:0:0:0:
400,16,47630,1,0,0:0:0:0:
420,20,47743,2,0,B|436:56|436:56|432:112,1,80,4|0,1:2|0:0,0:0:0:0:
512,228,48198,2,0,B|496:192|496:192|500:136,1,80,8|2,0:0|0:0,0:0:0:0:
332,180,48653,1,0,1:0:0:0:
416,216,48880,1,0,1:0:0:0:
498,151,49107,1,8,0:0:0:0:
496,304,49334,5,0,0:0:0:0:
488,324,49448,1,0,0:0:0:0:
476,340,49562,2,0,P|424:348|352:348,1,120,0|2,1:0|0:0,0:0:0:0:
340,328,50016,2,0,L|240:336,1,80,8|2,0:0|0:0,0:0:0:0:
72,352,50471,1,0,1:0:0:0:
160,292,50698,1,0,1:0:0:0:
260,334,50925,1,8,0:0:0:0:
160,292,51153,5,0,0:0:0:0:
156,272,51266,1,0,0:0:0:0:
152,248,51380,2,0,P|152:208|160:152,1,80,0|0,1:0|0:0,0:0:0:0:
40,84,51834,1,8,0:0:0:0:
76,8,52062,2,0,P|80:80|72:184,1,160,2|2,1:2|1:2,0:0:0:0:
228,136,52743,1,8,0:0:0:0:
412,184,52971,6,0,P|444:192|504:100,1,160,2|0,1:2|1:0,0:0:0:0:
348,8,53653,2,0,P|340:48|340:88,1,80,10|2,0:0|0:0,0:0:0:0:
312,228,54107,1,0,1:0:0:0:
412,184,54334,1,2,1:2:0:0:
508,312,54562,2,0,L|508:364,1,40,8|0,0:0|0:0,0:0:0:0:
428,280,54789,2,0,L|428:332,1,40,10|0,0:0|0:0,0:0:0:0:
356,352,55016,6,0,P|320:332|268:340,1,80,0|0,1:0|0:0,0:0:0:0:
152,344,55471,1,8,0:0:0:0:
152,344,55698,1,2,0:0:0:0:
276,240,55925,2,0,P|236:251|205:293,1,80,0|0,1:0|1:0,0:0:0:0:
64,248,56380,2,0,P|53:287|75:336,1,80,8|0,0:0|0:0,0:0:0:0:
144,232,56721,5,0,0:0:0:0:
144,232,56834,2,0,L|152:108,1,120,0|2,1:0|0:0,0:0:0:0:
151,112,57289,2,0,P|111:128|71:120,1,80,8|2,0:0|0:0,0:0:0:0:
196,32,57743,5,0,1:0:0:0:
272,68,57971,1,2,1:2:0:0:
360,60,58198,1,8,0:0:0:0:
420,0,58425,1,2,0:0:0:0:
512,124,58653,6,0,P|472:94|432:96,1,80,0|0,1:0|0:0,0:0:0:0:
336,232,59107,1,8,0:0:0:0:
264,204,59334,2,0,P|288:172|408:196,1,160,2|2,1:2|1:2,0:0:0:0:
488,288,60016,2,0,P|448:258|408:260,1,80,10|2,0:0|0:0,0:0:0:0:
256,336,60471,5,4,1:2:0:0:
336,256,60698,1,2,3:2:0:0:
336,272,60812,1,0,3:0:0:0:
336,288,60925,1,8,0:0:0:0:
424,336,61153,1,2,3:2:0:0:
256,336,61380,5,0,1:0:0:0:
164,308,61608,1,2,1:2:0:0:
92,360,61834,1,8,0:0:0:0:
12,240,62062,5,8,3:0:0:0:
8,220,62175,1,8,0:0:0:0:
4,200,62289,2,0,P|64:216|124:192,1,120,4|2,1:2|0:0,0:0:0:0:
136,188,62743,1,8,0:0:0:0:
152,36,62971,2,0,B|168:68|168:68|168:128,1,80,2|0,1:2|0:0,0:0:0:0:
224,172,63425,1,0,1:0:0:0:
304,4,63653,2,0,B|320:36|320:36|320:96,1,80,8|0,0:0|0:0,0:0:0:0:
376,140,63993,5,0,0:0:0:0:
376,140,64107,2,0,P|396:124|448:124,1,80,0|2,1:0|0:0,0:0:0:0:
244,220,64562,1,8,0:0:0:0:
244,220,64789,2,0,P|240:194|266:149,1,80,2|0,0:0|1:0,0:0:0:0:
204,344,65243,1,0,1:0:0:0:
204,344,65470,2,0,P|180:334|154:289,1,80,8|0,0:0|0:0,0:0:0:0:
324,208,65925,6,0,P|320:264|308:336,1,120,0|2,1:0|0:0,0:0:0:0:
309,327,66380,2,0,P|349:319|392:320,1,80,8|2,0:0|0:0,0:0:0:0:
508,256,66834,2,0,P|468:248|425:249,1,80,0|0,1:0|1:0,0:0:0:0:
320,208,67289,1,8,0:0:0:0:
400,72,67516,5,0,0:0:0:0:
400,92,67630,1,0,0:0:0:0:
400,108,67743,1,0,1:0:0:0:
492,88,67971,1,2,0:0:0:0:
224,32,68198,1,8,0:0:0:0:
316,12,68425,6,0,P|304:76|308:152,1,120,2|0,1:2|0:0,0:0:0:0:
308,156,68880,1,2,1:2:0:0:
160,112,69107,1,10,1:2:0:0:
20,184,69334,1,2,1:2:0:0:
104,172,69562,6,0,L|92:284,1,80,6|0,1:2|0:0,0:0:0:0:
24,288,70016,1,8,0:0:0:0:
176,232,70243,2,0,L|164:344,1,80,2|0,1:2|0:0,0:0:0:0:
96,348,70697,1,0,1:0:0:0:
252,280,70925,1,10,0:0:0:0:
388,360,71153,5,0,0:0:0:0:
400,360,71266,1,0,0:0:0:0:
416,360,71380,1,2,1:2:0:0:
469,235,71607,1,2,0:0:0:0:
308,368,71834,1,8,0:0:0:0:
361,243,72061,1,2,0:0:0:0:
252,280,72289,5,0,1:0:0:0:
199,155,72516,1,2,1:2:0:0:
288,188,72743,1,8,0:0:0:0:
163,241,72970,1,2,0:0:0:0:
64,32,73198,6,0,P|12:100|44:160,1,160,0|8,1:0|0:0,0:0:0:0:
41,158,74107,5,2,1:2:0:0:
129,176,74334,1,2,1:2:0:0:
185,104,74561,1,8,0:0:0:0:
448,32,75016,6,0,P|500:100|468:160,1,160,2|8,1:2|0:0,0:0:0:0:
470,158,75698,2,0,P|385:169|349:111,1,160,2|0,1:2|1:0,0:0:0:0:
357,36,76380,2,0,B|345:68|345:68|349:120,1,80,10|2,0:0|0:0,0:0:0:0:
292,176,76834,5,0,1:0:0:0:
276,248,77062,1,2,0:0:0:0:
296,320,77289,1,8,0:0:0:0:
360,360,77516,1,2,0:0:0:0:
436,352,77743,5,0,1:0:0:0:
504,280,77971,1,2,1:2:0:0:
508,184,78198,1,8,0:0:0:0:
456,100,78425,1,2,1:2:0:0:
296,60,78653,5,10,1:2:0:0:
108,88,78880,5,10,1:2:0:0:
4,200,79107,5,10,1:2:0:0:
72,160,80471,5,4,1:2:0:0:
82,263,80699,1,0,3:0:0:0:
114,254,80812,1,0,3:0:0:0:
91,230,80925,1,8,3:2:0:0:
29,315,81153,1,0,3:0:0:0:
185,273,81380,6,0,P|224:264|280:284,1,95.9999970703126,0|2,1:0|1:2,0:0:0:0:
424,360,81834,2,0,P|396:330|386:272,1,95.9999970703126,8|2,0:0|1:2,0:0:0:0:
468,32,82289,5,4,1:2:0:0:
458,135,82517,1,0,3:0:0:0:
426,126,82630,1,0,3:0:0:0:
449,102,82744,1,8,3:2:0:0:
511,187,82971,1,0,3:0:0:0:
355,145,83198,5,0,1:0:0:0:
276,96,83425,1,2,1:2:0:0:
188,104,83653,1,8,0:0:0:0:
124,168,83880,1,2,1:2:0:0:
0,8,84107,5,4,1:2:0:0:
88,92,84334,1,0,3:0:0:0:
104,72,84448,1,0,3:0:0:0:
104,40,84562,1,8,3:2:0:0:
12,84,84789,1,2,3:0:0:0:
124,168,85016,5,0,1:0:0:0:
36,252,85243,1,8,3:0:0:0:
20,232,85357,1,0,3:0:0:0:
20,200,85471,1,8,3:2:0:0:
112,244,85698,1,2,3:0:0:0:
0,356,85925,6,0,P|44:328|92:332,1,95.9999970703126,4|2,1:2|0:0,0:0:0:0:
276,248,86380,2,0,P|232:220|184:224,1,95.9999970703126,8|2,0:0|3:2,0:0:0:0:
172,300,86721,5,0,3:0:0:0:
172,300,86834,2,0,L|180:356,1,47.9999985351563,0|0,1:0|0:0,0:0:0:0:
276,248,87062,2,0,L|268:304,1,47.9999985351563,2|0,1:2|0:0,0:0:0:0:
372,360,87289,1,8,0:0:0:0:
372,360,87516,2,0,L|364:304,1,47.9999985351563,2|0,3:2|0:0,0:0:0:0:
344,192,87743,5,4,1:2:0:0:
423,114,87971,1,0,3:0:0:0:
414,147,88084,1,0,3:0:0:0:
391,123,88198,1,8,3:2:0:0:
499,152,88425,1,0,3:0:0:0:
385,38,88653,6,0,P|340:56|284:48,1,95.9999970703126,0|2,1:0|1:2,0:0:0:0:
96,8,89107,2,0,P|134:37|155:90,1,95.9999970703126,8|2,0:0|1:2,0:0:0:0:
28,240,89562,5,4,1:2:0:0:
107,162,89790,1,0,3:0:0:0:
98,195,89903,1,0,3:0:0:0:
75,171,90017,1,8,3:2:0:0:
183,200,90244,1,0,3:0:0:0:
69,86,90471,5,0,1:0:0:0:
28,240,90699,1,2,1:2:0:0:
212,128,90925,1,8,0:0:0:0:
171,282,91153,1,2,1:2:0:0:
116,184,91380,5,4,1:2:0:0:
232,224,91607,1,0,3:0:0:0:
232,224,91721,1,0,3:0:0:0:
232,224,91834,2,0,P|280:216|352:212,1,95.9999970703126,8|2,3:2|3:2,0:0:0:0:
512,288,92289,5,0,1:0:0:0:
396,328,92516,1,8,3:0:0:0:
396,328,92630,1,0,3:0:0:0:
396,328,92743,2,0,P|348:320|276:316,1,95.9999970703126,8|10,3:2|3:0,0:0:0:0:
280,88,93198,5,4,1:2:0:0:
396,128,93425,1,0,3:0:0:0:
396,128,93539,1,0,3:0:0:0:
396,128,93652,2,0,P|444:120|516:116,1,95.9999970703126,0|2,0:0|3:2,0:0:0:0:
368,4,94107,6,0,P|356:28|352:56,1,47.9999985351563,2|0,1:2|0:0,0:0:0:0:
224,148,94334,2,0,P|228:176|240:200,1,47.9999985351563,2|0,1:2|0:0,0:0:0:0:
200,56,94562,1,10,0:0:0:0:
32,80,94789,5,10,0:2:0:0:
24,52,94903,1,8,0:2:0:0:
16,28,95016,2,0,P|64:24|92:144,1,191.999994140625,12|0,1:2|0:0,0:0:0:0:
97,138,95698,1,12,0:0:0:0:
15,311,95925,6,0,L|8:264,1,47.9999985351563,2|0,1:2|0:0,0:0:0:0:
191,359,96153,2,0,L|184:312,1,47.9999985351563,2|0,1:2|0:0,0:0:0:0:
100,340,96380,6,0,B|84:276|100:216|100:216|112:248|140:260,1,180.000006866455,12|0,0:2|0:0,0:0:0:0:
172,192,96834,6,0,B|212:204|240:192|240:192|276:216|276:216|312:200|364:220,1,191.999994140625,12|0,1:2|0:0,0:0:0:0:
353,216,97516,1,12,0:0:0:0:
504,264,97743,6,0,L|511:216,1,47.9999985351563,2|0,1:2|0:0,0:0:0:0:
408,348,97971,2,0,L|415:300,1,47.9999985351563,2|0,1:2|0:0,0:0:0:0:
504,136,98198,6,0,B|468:140|436:120|436:120|400:136|400:136|376:116|316:112,1,180.000006866455,12|0,0:0|0:0,0:0:0:0:
280,164,98653,6,0,P|260:124|272:76,2,95.9999970703126,12|0|0,1:2|0:0|0:0,0:0:0:0:
168,28,99334,1,12,0:0:0:0:
168,28,99448,1,0,0:0:0:0:
168,28,99562,2,0,L|176:76,1,47.9999985351563,2|0,1:2|0:0,0:0:0:0:
8,120,99789,2,0,L|16:168,1,47.9999985351563,2|0,1:2|0:0,0:0:0:0:
200,240,100016,1,12,0:0:0:0:
140,144,100243,5,0,0:0:0:0:
124,144,100357,1,0,0:0:0:0:
112,144,100471,2,0,P|96:184|112:244,1,95.9999970703126,4|2,1:2|0:0,0:0:0:0:
316,232,100925,2,0,P|289:198|229:182,1,95.9999970703126,8|2,0:0|0:0,0:0:0:0:
144,360,101380,2,0,P|186:353|230:310,1,95.9999970703126,4|2,1:2|1:2,0:0:0:0:
236,304,101721,1,2,0:0:0:0:
244,284,101834,1,12,0:0:0:0:
432,360,102061,5,8,0:0:0:0:
432,360,102175,1,8,0:0:0:0:
432,360,102289,2,0,P|408:284|460:208,1,143.999995605469,4|2,1:2|0:0,0:0:0:0:
492,180,102743,2,0,L|496:68,1,95.9999970703126,8|2,0:0|0:0,0:0:0:0:
320,28,103198,1,0,1:0:0:0:
420,16,103425,1,0,1:0:0:0:
288,108,103653,2,0,B|200:120|236:64|144:72,1,143.999995605469,8|0,0:0|0:0,0:0:0:0:
68,0,104107,6,0,B|84:44|84:44|80:96,1,95.9999970703126,4|0,1:2|0:0,0:0:0:0:
20,152,104448,1,2,0:0:0:0:
20,152,104562,2,0,B|4:108|4:108|8:56,1,95.9999970703126,0|2,0:0|0:0,0:0:0:0:
140,148,105016,1,0,1:0:0:0:
288,108,105243,1,0,1:0:0:0:
176,220,105471,1,8,0:0:0:0:
280,300,105698,5,0,0:0:0:0:
264,284,105812,1,0,0:0:0:0:
252,272,105925,2,0,L|236:376,1,95.9999970703126,12|0,1:2|1:2,1:1:0:0:
256,192,106380,1,0,1:2:0:0:
330,220,106607,6,0,L|424:267,1,95.9999970703126,12|0,1:2|1:2,1:1:0:0:
256,192,107062,1,0,1:2:0:0:
306,129,107289,6,0,L|380:54,1,95.9999970703126,12|0,1:2|1:2,1:1:0:0:
212,124,107743,6,0,L|164:31,1,95.9999970703126,12|0,1:2|1:2,1:1:0:0:
256,192,108198,1,0,1:2:0:0:
256,192,108426,1,12,1:2:0:0:
178,212,108653,5,0,1:2:0:0:
8,192,108880,1,0,1:2:0:0:
96,168,109107,1,12,1:2:0:0:
84,240,109334,1,0,1:2:0:0:
96,168,109562,6,0,P|100:124|80:84,1,80,4|0,1:2|0:0,0:0:0:0:
84,240,110017,1,8,0:0:0:0:
84,240,110243,1,2,0:0:0:0:
64,344,110471,2,0,P|60:300|80:260,2,80,0|0|8,1:0|1:0|0:0,0:0:0:0:
224,228,111153,5,0,0:0:0:0:
240,232,111267,1,0,0:0:0:0:
256,236,111380,2,0,L|264:328,1,80,0|0,1:0|0:0,0:0:0:0:
152,360,111834,2,0,L|160:268,1,80,8|2,0:0|0:0,0:0:0:0:
200,152,112289,5,0,1:0:0:0:
276,116,112517,1,0,1:0:0:0:
364,124,112744,1,8,0:0:0:0:
424,184,112971,1,0,0:0:0:0:
492,52,113198,6,0,B|480:88|480:88|492:140,1,80,0|0,1:0|0:0,0:0:0:0:
488,324,113653,1,8,0:0:0:0:
488,324,113880,2,0,B|516:272|496:216|496:216|480:240|448:256,1,160,2|2,1:2|1:2,0:0:0:0:
316,292,114562,1,8,0:0:0:0:
300,200,114789,5,0,0:0:0:0:
320,205,114903,1,0,0:0:0:0:
340,210,115017,1,0,1:2:0:0:
368,356,115244,1,0,1:0:0:0:
392,273,115471,1,8,0:0:0:0:
287,368,115698,1,2,0:0:0:0:
136,284,115926,2,0,P|126:322|134:361,1,80,0|2,1:0|1:2,0:0:0:0:
220,320,116380,2,0,P|229:281|221:242,1,80,8|10,0:0|0:0,0:0:0:0:
148,204,116721,5,8,0:0:0:0:
148,204,116834,2,0,B|108:196|108:196|60:212,2,80,0|0|8,1:0|0:0|0:0,0:0:0:0:
156,12,117516,1,2,0:0:0:0:
200,76,117743,2,0,B|226:45|226:45|237:-4,1,80,0|0,1:0|1:0,0:0:0:0:
288,176,118198,2,0,B|301:214|301:214|338:248,1,80,8|0,0:0|0:0,0:0:0:0:
396,276,118539,5,0,0:0:0:0:
416,268,118653,2,0,L|424:184,2,80,0|0|8,1:0|0:0|0:0,0:0:0:0:
496,364,119334,1,2,0:0:0:0:
332,316,119562,5,0,1:0:0:0:
244,360,119789,1,2,1:2:0:0:
88,304,120016,1,8,0:0:0:0:
0,348,120243,1,2,0:2:0:0:
172,272,120471,6,0,L|164:364,1,80,0|0,1:0|0:0,0:0:0:0:
40,168,120926,1,8,0:0:0:0:
16,252,121153,2,0,B|4:92,1,160,2|2,1:2|1:2,0:0:0:0:
164,60,121835,1,10,0:0:0:0:
84,24,122062,5,2,0:0:0:0:
82,43,122176,1,0,0:0:0:0:
81,63,122289,1,4,1:2:0:0:
120,132,122517,1,2,3:2:0:0:
120,268,122743,5,8,0:0:0:0:
160,199,122971,1,2,3:2:0:0:
284,136,123198,5,0,1:0:0:0:
204,135,123426,1,2,1:2:0:0:
344,192,123653,1,8,0:0:0:0:
404,24,123880,5,8,3:0:0:0:
424,20,123993,1,8,0:0:0:0:
444,16,124107,2,0,P|464:72|452:136,1,120,4|2,1:2|0:0,0:0:0:0:
444,152,124561,1,8,0:0:0:0:
436,244,124789,2,0,B|468:228|468:228|528:228,1,80,2|0,1:2|0:0,0:0:0:0:
436,244,125243,1,0,1:0:0:0:
444,336,125471,2,0,B|412:320|412:320|352:320,1,80,8|0,0:0|0:0,0:0:0:0:
308,372,125811,5,0,0:0:0:0:
308,372,125925,2,0,P|292:352|292:300,1,80,0|2,1:0|0:0,0:0:0:0:
364,172,126380,1,8,0:0:0:0:
364,172,126607,2,0,P|354:195|309:221,1,80,2|0,0:0|1:0,0:0:0:0:
164,224,127062,1,0,1:0:0:0:
164,224,127289,2,0,P|189:220|234:246,1,80,8|0,0:0|0:0,0:0:0:0:
176,308,127630,5,0,0:0:0:0:
172,304,127743,2,0,B|88:312|120:260|56:272,1,120,0|2,1:0|0:0,0:0:0:0:
40,284,128198,1,8,0:0:0:0:
32,100,128425,1,2,0:0:0:0:
0,180,128652,2,0,B|37:184|37:184|80:172,2,80,0|0|8,1:0|1:0|0:0,0:0:0:0:
116,60,129334,5,0,0:0:0:0:
116,80,129448,1,0,0:0:0:0:
116,96,129561,1,0,1:0:0:0:
200,132,129789,1,2,0:0:0:0:
384,52,130016,1,8,0:0:0:0:
308,0,130243,6,0,P|296:64|300:140,1,120,2|0,1:2|0:0,0:0:0:0:
304,144,130698,1,2,1:2:0:0:
384,312,130925,1,10,1:2:0:0:
484,160,131152,1,2,1:2:0:0:
512,252,131380,6,0,L|400:240,1,80,6|0,1:2|0:0,0:0:0:0:
396,172,131834,1,8,0:0:0:0:
312,280,132062,2,0,L|200:268,1,80,2|0,1:2|0:0,0:0:0:0:
196,200,132516,1,0,1:0:0:0:
128,352,132743,1,10,0:0:0:0:
40,292,132971,5,0,0:0:0:0:
56,292,133084,1,0,0:0:0:0:
72,292,133198,1,2,1:2:0:0:
212,352,133425,1,2,0:2:0:0:
96,136,133653,1,8,0:0:0:0:
152,277,133880,1,2,0:2:0:0:
208,84,134107,5,0,1:0:0:0:
159,195,134334,1,2,1:2:0:0:
340,116,134562,1,8,0:0:0:0:
226,159,134789,1,2,0:2:0:0:
332,248,135016,6,0,B|324:283|324:283|336:332,1,80,0|0,1:0|3:0,0:0:0:0:
409,367,135357,1,0,3:0:0:0:
409,367,135471,2,0,B|416:331|416:331|404:282,1,80,8|2,3:2|3:2,0:0:0:0:
180,248,135925,6,0,B|187:283|187:283|175:332,1,80,0|8,1:0|3:0,0:0:0:0:
103,367,136266,1,0,3:0:0:0:
103,367,136380,2,0,B|95:331|95:331|107:282,1,80,8|2,3:2|3:2,0:0:0:0:
196,128,136834,5,8,3:0:0:0:
224,120,136948,1,2,3:2:0:0:
150,199,137175,5,0,3:0:0:0:
166,223,137289,1,10,3:2:0:0:
68,177,137516,5,0,3:0:0:0:
50,200,137630,1,2,3:2:0:0:
63,92,137857,5,0,3:0:0:0:
36,82,137971,1,2,3:2:0:0:
142,62,138198,5,8,3:0:0:0:
143,33,138312,1,2,3:2:0:0:
144,4,138425,1,8,3:0:0:0:
168,19,138539,1,2,3:2:0:0:
194,35,138652,1,4,0:0:0:0:
352,139,138880,5,0,3:0:0:0:
388,143,138994,1,2,3:2:0:0:
416,123,139107,1,8,0:0:0:0:
247,207,139334,5,0,3:0:0:0:
226,236,139448,1,2,3:2:0:0:
229,270,139561,1,0,0:0:0:0:
240,82,139789,5,0,3:0:0:0:
225,49,139903,1,2,3:2:0:0:
194,35,140016,1,8,0:0:0:0:
352,139,140243,5,0,3:0:0:0:
388,142,140357,1,2,3:2:0:0:
416,123,140471,5,10,3:2:0:0:
465,71,140585,5,0,3:0:0:0:
395,84,140699,5,10,3:2:0:0:
459,115,140812,5,0,3:0:0:0:
425,52,140926,5,10,3:2:0:0:
360,312,142289,5,4,1:2:0:0:
318,298,142403,1,0,3:0:0:0:
318,254,142516,1,0,3:0:0:0:
360,240,142630,1,0,3:0:0:0:
385,276,142743,1,8,3:2:0:0:
252,336,142971,1,0,3:0:0:0:
124,268,143198,5,2,1:2:0:0:
208,228,143425,2,0,L|200:308,1,47.9999985351563,10|0,3:0|3:0,0:0:0:0:
84,336,143653,5,8,0:0:0:0:
0,296,143880,2,0,L|8:376,1,47.9999985351563,2|0,3:2|3:0,0:0:0:0:
48,224,144107,5,4,1:2:0:0:
6,210,144221,1,0,3:0:0:0:
6,166,144334,1,0,3:0:0:0:
48,152,144448,1,0,3:0:0:0:
73,188,144561,1,8,3:2:0:0:
212,96,144789,1,0,3:0:0:0:
56,16,145016,5,0,1:0:0:0:
116,104,145243,2,0,L|128:40,1,47.9999985351563,10|0,3:0|3:0,0:0:0:0:
256,24,145471,5,8,0:0:0:0:
316,112,145698,2,0,L|328:48,1,47.9999985351563,2|0,3:0|3:0,0:0:0:0:
212,96,145925,5,4,1:2:0:0:
208,120,146039,1,2,3:0:0:0:
268,264,146266,1,0,3:0:0:0:
264,288,146380,1,10,3:2:0:0:
212,352,146607,1,0,3:0:0:0:
192,196,146834,5,8,3:0:0:0:
216,200,146948,1,2,3:0:0:0:
348,268,147175,1,0,3:0:0:0:
372,272,147289,1,10,3:2:0:0:
436,324,147516,1,2,3:0:0:0:
512,172,147743,5,4,1:2:0:0:
508,196,147857,1,0,3:0:0:0:
476,192,147971,1,2,3:0:0:0:
448,188,148084,1,0,3:0:0:0:
444,212,148198,1,10,3:2:0:0:
328,340,148425,1,0,3:0:0:0:
180,272,148653,5,0,1:0:0:0:
24,360,148880,1,10,3:0:0:0:
16,336,148993,1,0,3:0:0:0:
8,308,149107,2,0,P|42:282|104:280,1,95.9999970703126,8|2,3:2|3:0,0:0:0:0:
256,192,149562,5,4,1:2:0:0:
298,178,149676,1,0,3:0:0:0:
298,134,149789,1,0,3:0:0:0:
256,120,149903,1,0,3:0:0:0:
231,156,150016,1,8,3:2:0:0:
372,152,150244,1,0,3:0:0:0:
512,64,150471,5,0,1:0:0:0:
428,24,150698,2,0,L|436:104,1,47.9999985351563,10|0,3:0|3:0,0:0:0:0:
456,192,150926,5,8,0:0:0:0:
372,152,151153,2,0,L|380:232,1,47.9999985351563,2|0,3:0|3:0,0:0:0:0:
484,348,151380,5,4,1:2:0:0:
442,334,151494,1,0,3:0:0:0:
442,290,151607,1,0,3:0:0:0:
484,276,151721,1,0,3:0:0:0:
509,312,151834,1,8,3:2:0:0:
360,272,152062,1,0,3:0:0:0:
252,352,152289,5,0,1:0:0:0:
192,272,152516,2,0,L|183:319,1,47.9999985351563,10|0,3:0|3:0,0:0:0:0:
68,216,152743,5,8,0:0:0:0:
8,136,152970,2,0,L|0:183,1,47.9999985351563,2|0,3:0|3:0,0:0:0:0:
164,184,153198,5,4,1:2:0:0:
140,180,153312,1,2,3:0:0:0:
84,308,153539,1,0,3:0:0:0:
108,312,153653,1,10,3:2:0:0:
192,272,153880,1,0,3:0:0:0:
220,56,154107,5,8,3:0:0:0:
196,52,154221,1,0,3:0:0:0:
204,92,154334,1,10,3:0:0:0:
216,124,154448,1,0,3:0:0:0:
240,128,154562,1,8,3:2:0:0:
416,84,154789,1,2,3:0:0:0:
336,32,155016,5,4,1:2:0:0:
312,28,155130,1,2,3:0:0:0:
488,144,155357,1,0,3:0:0:0:
512,148,155471,1,10,3:2:0:0:
472,16,155698,1,0,3:0:0:0:
328,112,155925,6,0,L|324:176,1,47.9999985351563,10|0,3:0|3:0,0:0:0:0:
492,276,156153,2,0,L|488:212,1,47.9999985351563,10|0,3:0|3:0,0:0:0:0:
256,292,156380,1,10,3:2:0:0:
348,268,156607,5,10,0:2:0:0:
348,268,156721,1,8,0:2:0:0:
348,268,156834,2,0,B|340:232|376:212|412:232|436:312|360:356,1,191.999994140625,12|0,1:2|0:0,0:0:0:0:
369,349,157516,1,12,0:0:0:0:
224,232,157743,6,0,L|217:185,1,47.9999985351563,2|0,1:2|0:0,0:0:0:0:
191,359,157971,2,0,L|184:312,1,47.9999985351563,2|0,1:2|0:0,0:0:0:0:
0,232,158198,6,0,B|-32:296|0:356|0:356|12:324|40:312,1,180.000006866455,12|0,0:2|0:0,0:0:0:0:
92,268,158653,6,0,B|140:240|152:152|100:104|100:104|92:140|64:152,1,240.000009155274,12|0,1:2|0:0,0:0:0:0:
72,147,159334,1,12,0:0:0:0:
32,28,159561,6,0,L|25:76,1,47.9999985351563,2|0,1:2|0:0,0:0:0:0:
200,104,159789,2,0,L|207:56,1,47.9999985351563,2|0,1:2|0:0,0:0:0:0:
392,72,160016,6,0,B|388:28|388:28|372:20|356:4|356:4|336:20|316:32|316:32|324:84,1,180.000006866455,12|0,0:0|0:0,0:0:0:0:
276,132,160471,6,0,P|316:152|364:140,2,95.9999970703126,12|0|0,1:2|0:0|0:0,0:0:0:0:
452,144,161152,1,12,0:0:0:0:
452,144,161266,1,0,0:0:0:0:
452,144,161380,2,0,L|460:192,1,47.9999985351563,2|0,1:2|0:0,0:0:0:0:
424,320,161607,2,0,L|432:368,1,47.9999985351563,2|0,1:2|0:0,0:0:0:0:
496,268,161834,1,12,0:0:0:0:
352,252,162061,5,0,0:0:0:0:
336,252,162175,1,0,0:0:0:0:
324,252,162289,2,0,B|308:300|308:300|324:352,1,95.9999970703126,4|2,1:2|0:0,0:0:0:0:
195,175,162743,2,0,B|244:164|244:164|281:125,1,95.9999970703126,8|2,0:0|0:0,0:0:0:0:
192,304,163198,2,0,B|158:266|158:266|105:254,1,95.9999970703126,4|2,1:2|1:2,0:0:0:0:
44,292,163539,1,2,0:0:0:0:
44,308,163652,1,12,0:0:0:0:
36,204,163879,5,8,0:0:0:0:
40,172,163993,1,8,0:0:0:0:
44,140,164107,2,0,P|76:76|20:28,1,143.999995605469,4|2,1:2|0:0,0:0:0:0:
24,40,164562,1,8,0:0:0:0:
212,96,164789,1,2,0:0:0:0:
180,24,165016,1,0,1:0:0:0:
160,156,165243,1,0,1:0:0:0:
292,112,165471,2,0,B|380:100|344:156|436:148,1,143.999995605469,8|0,0:0|0:0,0:0:0:0:
486,89,165925,6,0,B|502:133|502:133|498:185,1,95.9999970703126,4|0,1:2|0:0,0:0:0:0:
438,241,166266,1,2,0:0:0:0:
438,241,166380,2,0,B|422:197|422:197|426:145,1,95.9999970703126,0|2,0:0|0:0,0:0:0:0:
512,316,166834,1,0,1:0:0:0:
344,240,167061,1,2,1:2:0:0:
200,348,167289,1,8,0:0:0:0:
72,292,167516,5,2,3:2:0:0:
56,288,167630,1,2,3:2:0:0:
40,284,167743,1,12,1:2:0:0:
36,128,167971,1,0,1:2:0:0:
8,208,168198,1,0,1:2:0:0:
36,128,168425,5,12,1:2:0:0:
169,46,168653,1,0,1:2:0:0:
85,62,168880,1,0,1:2:0:0:
169,46,169107,5,12,1:2:0:0:
250,55,169335,1,0,1:2:0:0:
306,120,169562,5,12,1:2:0:0:
310,275,169790,1,0,1:2:0:0:
338,194,170017,1,0,1:2:0:0:
310,275,170243,5,12,1:2:0:0:
177,355,170471,1,0,1:2:0:0:
261,339,170698,1,0,1:2:0:0:
177,355,170925,5,12,1:2:0:0:
97,344,171153,1,0,1:2:0:0:
41,279,171380,5,12,1:2:0:0:
174,199,171608,1,0,1:2:0:0:
90,215,171835,1,0,1:2:0:0:
172,44,172062,5,12,1:2:0:0:
174,199,172290,1,0,1:2:0:0:
202,118,172517,1,0,1:2:0:0:
310,275,172743,5,12,1:2:0:0:
230,263,172971,1,0,1:2:0:0:
352,348,173198,5,12,1:2:0:0:
508,308,173424,1,2,1:2:0:0:
396,284,173652,1,2,1:2:0:0:
512,228,173880,5,12,1:2:0:0:
356,188,174106,1,2,1:2:0:0:
468,164,174334,1,2,1:2:0:0:
328,112,174561,5,12,1:2:0:0:
480,92,174788,1,2,3:2:0:0:
456,60,174902,1,0,3:2:0:0:
424,28,175016,5,12,1:2:0:0:
270,45,175243,1,0,1:2:0:0:
118,64,175470,1,0,1:2:0:0:
40,84,175698,5,12,1:2:0:0:
192,100,175925,1,0,1:2:0:0:
346,120,176152,1,0,1:2:0:0:
428,136,176380,5,12,1:2:0:0:
274,153,176607,1,0,1:2:0:0:
44,184,176834,5,12,1:2:0:0:
198,201,177061,1,0,1:2:0:0:
324,256,177289,1,0,1:2:0:0:
478,273,177516,1,12,1:2:0:0:
244,276,177743,5,0,1:2:0:0:
398,293,177970,1,2,1:2:0:0:
472,348,178198,5,12,1:2:0:0:
318,331,178425,1,2,1:2:0:0:
392,368,178653,5,0,0:0:0:0:
484,348,192289,5,0,1:0:0:0:
484,328,192516,1,8,1:2:0:0:
484,308,192743,1,0,1:0:0:0:
484,288,192971,1,0,1:0:0:0:
472,212,193198,5,0,1:2:0:0:
400,176,193425,1,2,1:2:0:0:
320,176,193653,1,0,1:2:0:0:
256,224,193880,1,2,1:2:0:0:
236,300,194107,5,0,1:2:0:0:
236,316,194334,1,0,1:2:0:0:
232,328,194562,1,0,1:2:0:0:
224,336,194789,1,0,1:2:0:0:
140,368,195016,5,0,1:2:0:0:
56,344,195243,1,2,1:2:0:0:
8,276,195471,1,0,1:2:0:0:
20,192,195698,1,2,1:2:0:0:
76,128,195925,5,0,1:2:0:0:
92,124,196153,1,0,1:2:0:0:
108,124,196380,1,0,1:2:0:0:
124,128,196607,1,0,1:2:0:0:
192,168,196834,5,0,1:2:0:0:
275,204,197061,1,2,1:2:0:0:
365,194,197288,1,0,1:2:0:0:
438,139,197515,1,2,1:2:0:0:
475,58,197743,5,0,1:2:0:0:
402,111,197970,1,2,1:2:0:0:
365,194,198197,1,0,1:2:0:0:
377,285,198424,1,2,1:2:0:0:
428,358,198653,5,0,1:2:0:0:
418,268,198880,1,2,1:2:0:0:
365,194,199107,1,0,1:2:0:0:
280,159,199334,1,2,1:2:0:0:
304,324,199562,5,0,1:2:0:0:
95,290,199789,1,2,1:2:0:0:
204,279,200016,1,2,1:2:0:0:
7,357,200243,1,2,1:2:0:0:
44,176,200471,6,0,P|24:208|36:268,1,80,12|0,0:0|0:0,0:0:0:0:
95,290,200925,1,0,0:0:0:0:
128,120,201153,2,0,P|110:86|52:67,1,80,12|0,0:0|0:0,0:0:0:0:
3,107,201607,1,0,0:0:0:0:
136,212,201834,2,0,P|173:213|219:172,1,80,12|0,0:0|0:0,0:0:0:0:
260,20,202289,5,12,0:0:0:0:
360,64,202516,1,0,0:0:0:0:
252,96,202743,1,0,0:0:0:0:
340,172,202971,2,0,L|356:80,1,80,12|0,0:0|0:0,0:0:0:0:
512,260,203425,1,0,0:0:0:0:
424,336,203653,2,0,L|408:244,1,80,12|0,0:0|0:0,0:0:0:0:
280,224,204107,5,12,0:0:0:0:
224,288,204334,1,0,0:0:0:0:
256,364,204562,1,0,0:0:0:0:
280,224,204789,5,12,0:0:0:0:
252,144,205016,1,0,0:0:0:0:
170,133,205244,1,0,0:0:0:0:
8,192,205471,2,0,L|24:276,1,80,12|0,0:0|0:0,0:0:0:0:
107,306,205812,5,0,0:0:0:0:
107,306,205925,2,0,B|67:290|67:290|27:294,2,80,12|0|0,0:0|0:0|0:0,0:0:0:0:
197,205,206607,2,0,B|190:162|190:162|167:129,2,80,12|0|0,0:0|0:0|0:0,0:0:0:0:
324,272,207289,2,0,B|357:245|357:245|374:208,1,80,12|0,0:0|3:0,0:0:0:0:
428,160,207630,5,0,3:0:0:0:
428,160,207743,2,0,P|448:196|436:252,1,95.9999970703126,12|0,0:0|0:0,0:0:0:0:
256,360,208198,1,0,0:0:0:0:
256,360,208425,2,0,P|236:324|248:268,1,95.9999970703126,12|0,0:0|0:0,0:0:0:0:
32,152,208880,1,0,0:0:0:0:
32,152,209107,2,0,L|40:212,1,47.9999985351563,12|8,0:0|0:0,0:0:0:0:
8,288,209334,2,0,L|0:348,1,47.9999985351563,8|8,0:0|0:0,0:0:0:0:
100,272,209562,5,12,0:0:0:0:
168,224,209789,1,2,0:0:0:0:
184,144,210016,1,2,0:0:0:0:
264,16,210243,5,12,0:0:0:0:
272,99,210470,1,2,0:0:0:0:
333,153,210697,1,2,0:0:0:0:
403,287,210925,5,12,0:0:0:0:
324,252,211152,1,2,0:0:0:0:
243,377,211380,5,12,0:0:0:0:
242,277,211607,1,2,0:0:0:0:
175,206,211834,1,2,0:0:0:0:
422,109,212062,5,12,0:0:0:0:
336,161,212289,1,2,0:0:0:0:
308,254,212516,1,2,0:0:0:0:
101,88,212743,5,12,0:0:0:0:
188,137,212970,1,2,0:0:0:0:
256,36,213198,5,12,0:0:0:0:
336,161,213425,1,2,3:0:0:0:
362,130,213539,1,0,3:0:0:0:
363,89,213653,1,2,3:0:0:0:
256,188,213880,5,12,0:0:0:0:
187,319,214107,1,2,3:0:0:0:
227,326,214221,1,0,3:0:0:0:
263,307,214335,1,2,3:0:0:0:
148,204,214562,5,12,0:0:0:0:
0,209,214789,1,2,3:0:0:0:
13,247,214903,1,0,3:0:0:0:
48,269,215017,1,2,3:0:0:0:
256,192,215130,12,0,216607,0:0:0:0:
460,16,216834,5,4,1:2:0:0:
448,139,217062,1,0,3:0:0:0:
409,128,217175,1,0,3:0:0:0:
437,100,217289,1,8,3:2:0:0:
511,202,217516,1,0,3:0:0:0:
324,151,217744,5,0,1:0:0:0:
272,32,217971,2,0,L|284:115,1,47.9999985351563,10|0,3:0|3:0,0:0:0:0:
324,151,218198,5,8,0:0:0:0:
246,255,218425,2,0,L|311:203,1,47.9999985351563,2|0,3:2|3:0,0:0:0:0:
152,180,218653,5,4,1:2:0:0:
140,303,218881,1,0,3:0:0:0:
101,292,218994,1,0,3:0:0:0:
129,264,219108,1,8,3:2:0:0:
203,366,219335,1,0,3:0:0:0:
16,315,219563,5,0,1:0:0:0:
12,188,219789,2,0,L|16:264,1,47.9999985351563,10|0,3:0|3:0,0:0:0:0:
152,180,220016,5,8,0:0:0:0:
156,53,220243,2,0,L|152:129,1,47.9999985351563,2|0,3:2|3:0,0:0:0:0:
244,84,220471,5,4,1:2:0:0:
300,248,220698,1,0,3:0:0:0:
276,267,220812,1,0,3:0:0:0:
238,267,220926,1,8,0:0:0:0:
300,156,221153,1,2,3:0:0:0:
496,120,221380,5,0,1:0:0:0:
325,86,221607,1,8,3:0:0:0:
321,56,221721,1,0,3:0:0:0:
340,23,221835,1,8,0:0:0:0:
405,132,222062,1,2,3:0:0:0:
340,324,222289,5,4,1:2:0:0:
454,192,222516,1,2,3:0:0:0:
482,204,222630,1,0,3:0:0:0:
502,237,222744,1,8,0:0:0:0:
375,239,222971,1,2,3:0:0:0:
252,352,223198,6,0,L|260:296,1,47.9999985351563,0|0,1:0|0:0,0:0:0:0:
428,336,223425,2,0,L|436:280,1,47.9999985351563,2|0,1:2|0:0,0:0:0:0:
164,344,223653,2,0,L|172:288,1,47.9999985351563,8|0,0:0|0:0,0:0:0:0:
340,324,223880,2,0,L|348:268,1,47.9999985351563,2|0,1:2|0:0,0:0:0:0:
248,228,224107,5,4,1:2:0:0:
206,214,224221,1,0,3:0:0:0:
206,170,224334,1,0,3:0:0:0:
248,156,224448,1,0,3:0:0:0:
273,192,224561,1,8,3:2:0:0:
116,240,224789,1,0,3:0:0:0:
12,116,225016,5,0,1:0:0:0:
96,76,225243,2,0,L|88:156,1,47.9999985351563,10|0,3:0|3:0,0:0:0:0:
116,240,225471,5,8,0:0:0:0:
32,200,225698,2,0,L|40:280,1,47.9999985351563,2|0,3:0|3:0,0:0:0:0:
252,352,225925,5,4,1:2:0:0:
294,338,226039,1,0,3:0:0:0:
294,294,226152,1,0,3:0:0:0:
252,280,226266,1,0,3:0:0:0:
227,316,226379,1,8,3:2:0:0:
380,356,226607,1,0,3:0:0:0:
512,232,226834,5,0,1:0:0:0:
432,292,227061,2,0,L|479:301,1,47.9999985351563,10|0,3:0|3:0,0:0:0:0:
416,128,227289,5,8,0:0:0:0:
336,68,227516,2,0,L|383:59,1,47.9999985351563,2|0,3:0|3:0,0:0:0:0:
376,208,227743,5,4,1:2:0:0:
352,204,227857,1,2,3:0:0:0:
136,208,228084,1,0,3:0:0:0:
160,204,228198,1,10,3:2:0:0:
256,128,228425,1,2,3:0:0:0:
256,352,228652,5,10,1:2:0:0:
232,240,228880,1,10,1:2:0:0:
256,128,229107,1,10,1:2:0:0:
272,20,229334,5,8,1:2:0:0:
244,72,229448,1,8,1:2:0:0:
256,128,229561,1,12,1:2:0:0:
256,192,229675,12,0,230471,0:0:0:0:
44,88,231380,6,0,L|36:28,3,47.9999985351563,4|0|0|0,1:2|3:0|3:0|3:0,3:3:0:0:
96,152,231834,5,10,3:2:0:0:
120,148,231949,1,0,3:0:0:0:
40,216,232062,5,2,3:2:0:0:
16,212,232175,1,0,3:0:0:0:
104,304,232289,6,0,L|108:236,1,47.9999985351563,0|0,1:0|0:0,0:0:0:0:
200,176,232516,2,0,L|204:108,1,47.9999985351563,2|0,1:2|0:0,0:0:0:0:
184,300,232743,6,0,L|188:232,1,47.9999985351563,8|0,0:0|0:0,0:0:0:0:
280,172,232970,2,0,L|284:104,1,47.9999985351563,2|0,0:0|0:0,0:0:0:0:
264,256,233198,6,0,P|285:249|328:248,3,47.9999985351563,4|0|0|0,1:2|3:0|3:0|3:0,3:3:0:0:
280,328,233653,5,10,3:2:0:0:
304,324,233766,1,0,3:0:0:0:
452,348,233881,5,2,3:2:0:0:
476,344,233993,1,0,3:0:0:0:
376,360,234107,6,0,P|378:331|392:296,1,47.9999985351563,0|0,1:0|0:0,0:0:0:0:
472,240,234334,2,0,P|494:221|528:206,1,47.9999985351563,2|0,1:2|0:0,0:0:0:0:
312,248,234562,6,0,P|293:225|278:191,1,47.9999985351563,8|0,0:0|0:0,0:0:0:0:
396,140,234789,2,0,P|398:111|412:76,1,47.9999985351563,2|0,0:0|0:0,0:0:0:0:
256,24,235016,6,0,L|268:100,3,47.9999985351563,4|0|0|0,1:2|3:0|3:0|3:0,3:3:0:0:
204,124,235471,5,10,3:2:0:0:
180,120,235584,1,0,3:0:0:0:
112,64,235699,5,2,3:2:0:0:
88,60,235812,1,0,3:0:0:0:
24,104,235925,5,0,1:0:0:0:
24,104,236153,2,0,P|24:136|32:184,1,47.9999985351563,10|0,3:0|3:0,0:0:0:0:
136,232,236380,5,8,0:0:0:0:
136,232,236608,2,0,P|136:264|128:312,1,47.9999985351563,2|0,3:0|3:0,0:0:0:0:
8,296,236834,6,0,P|32:280|72:276,1,47.9999985351563,4|0,1:2|0:0,0:0:0:0:
232,292,237062,2,0,P|260:297|291:323,1,47.9999985351563,2|0,0:0|0:0,0:0:0:0:
368,352,237289,2,0,B|420:360|420:360|484:340,1,95.9999970703126,10|0,0:0|0:0,0:0:0:0:
488,280,237630,5,0,0:0:0:0:
488,280,237743,2,0,L|492:208,1,47.9999985351563,0|0,1:0|0:0,0:0:0:0:
280,180,237971,2,0,L|340:219,1,47.9999985351563,2|0,1:2|0:0,0:0:0:0:
472,52,238198,2,0,L|407:84,1,47.9999985351563,10|0,0:0|0:0,0:0:0:0:
412,172,238425,5,2,0:2:0:0:
412,172,238539,1,0,0:0:0:0:
412,172,238653,2,0,L|404:244,3,47.9999985351563,4|0|0|0,1:2|3:0|3:0|3:0,3:3:0:0:
352,104,239107,5,10,3:2:0:0:
328,100,239221,1,0,3:0:0:0:
244,28,239335,5,2,3:2:0:0:
268,32,239448,1,0,3:0:0:0:
244,112,239562,5,0,1:0:0:0:
60,88,239789,1,2,1:2:0:0:
40,80,239903,1,0,0:0:0:0:
20,72,240016,2,0,L|16:20,1,47.9999985351563,8|0,0:0|0:0,0:0:0:0:
112,156,240243,5,2,0:0:0:0:
132,148,240357,1,0,0:0:0:0:
152,140,240471,2,0,L|157:92,3,47.9999985351563,4|0|0|0,1:2|3:0|3:0|3:0,3:3:0:0:
220,184,240925,5,10,3:2:0:0:
216,208,241040,1,0,3:0:0:0:
132,260,241153,5,2,3:2:0:0:
136,236,241266,1,0,3:0:0:0:
60,212,241380,6,0,L|52:260,1,47.9999985351563,0|0,1:0|0:0,0:0:0:0:
208,308,241607,2,0,L|200:356,1,47.9999985351563,2|0,1:2|0:0,0:0:0:0:
368,172,241834,2,0,L|360:220,1,47.9999985351563,10|0,0:0|0:0,0:0:0:0:
468,352,242062,5,2,0:0:0:0:
480,339,242175,1,0,0:0:0:0:
488,324,242289,2,0,P|499:305|501:280,3,47.9999985351563,4|0|0|0,1:2|3:0|3:0|3:0,3:3:0:0:
424,288,242743,5,10,3:2:0:0:
400,284,242858,1,0,3:0:0:0:
320,332,242971,5,2,3:2:0:0:
296,328,243084,1,0,3:0:0:0:
236,236,243198,5,0,1:0:0:0:
236,236,243425,2,0,P|260:220|300:216,1,47.9999985351563,10|0,3:0|3:0,0:0:0:0:
476,188,243653,5,8,0:0:0:0:
476,188,243880,2,0,P|450:175|426:142,1,47.9999985351563,2|0,3:0|3:0,0:0:0:0:
312,12,244107,5,4,1:2:0:0:
312,12,244334,2,0,P|313:40|297:77,1,47.9999985351563,2|0,3:0|3:0,0:0:0:0:
200,12,244562,5,8,0:0:0:0:
200,12,244789,2,0,P|198:40|214:77,1,47.9999985351563,2|0,3:0|3:0,0:0:0:0:
36,188,245016,2,0,P|61:175|85:142,1,47.9999985351563,10|0,3:0|3:0,0:0:0:0:
276,236,245243,2,0,P|252:220|212:216,1,47.9999985351563,10|0,3:0|3:0,0:0:0:0:
168,144,245471,1,8,0:0:0:0:
132,256,245698,5,10,0:2:0:0:
100,260,245812,1,8,0:2:0:0:
72,264,245925,2,0,B|196:244|124:340|252:328,1,191.999994140625,12|0,1:2|0:0,0:0:0:0:
238,328,246607,1,12,0:0:0:0:
408,364,246834,6,0,P|413:332|408:308,1,47.9999985351563,2|0,1:2|0:0,0:0:0:0:
276,236,247062,2,0,P|300:256|324:264,1,47.9999985351563,2|0,1:2|0:0,0:0:0:0:
512,244,247289,6,0,B|528:180|512:120|512:120|500:152|472:164,1,180.000006866455,12|0,0:2|0:0,0:0:0:0:
396,216,247743,6,0,B|408:176|396:148|396:148|420:112|420:112|404:76|424:24,1,191.999994140625,12|0,1:2|0:0,0:0:0:0:
420,34,248425,1,12,0:0:0:0:
248,80,248652,6,0,L|255:32,1,47.9999985351563,2|0,1:2|0:0,0:0:0:0:
320,168,248880,2,0,L|327:120,1,47.9999985351563,2|0,1:2|0:0,0:0:0:0:
168,16,249107,6,0,B|172:52|152:84|152:84|168:120|168:120|148:144|144:204,1,180.000006866455,12|0,0:0|0:0,0:0:0:0:
84,124,249562,6,0,P|72:80|88:32,2,95.9999970703126,12|0|0,1:2|0:0|0:0,0:0:0:0:
236,188,250243,1,12,0:0:0:0:
236,188,250357,1,0,0:0:0:0:
236,188,250471,2,0,L|244:236,1,47.9999985351563,2|0,1:2|0:0,0:0:0:0:
68,244,250698,2,0,L|60:196,1,47.9999985351563,2|0,1:2|0:0,0:0:0:0:
148,208,250925,1,12,0:0:0:0:
8,308,251152,5,0,0:0:0:0:
8,324,251266,1,0,0:0:0:0:
8,336,251380,2,0,P|48:352|108:336,1,95.9999970703126,4|2,1:2|0:0,0:0:0:0:
236,360,251834,2,0,P|275:343|306:289,1,95.9999970703126,8|2,0:0|0:0,0:0:0:0:
456,244,252289,2,0,P|461:201|430:147,1,95.9999970703126,4|2,1:2|1:2,0:0:0:0:
372,200,252630,1,2,0:0:0:0:
372,220,252743,1,12,0:0:0:0:
336,20,252970,5,8,0:0:0:0:
316,24,253084,1,8,0:0:0:0:
296,28,253198,2,0,B|284:76|284:76|304:120|304:120|296:168,1,143.999995605469,4|2,1:2|0:0,0:0:0:0:
224,200,253652,2,0,P|188:172|136:168,1,95.9999970703126,8|2,0:0|0:0,0:0:0:0:
8,44,254107,1,0,1:0:0:0:
139,167,254334,1,0,1:0:0:0:
92,40,254562,2,0,B|104:128|48:92|56:184,1,143.999995605469,8|0,0:0|0:0,0:0:0:0:
0,264,255016,6,0,B|44:248|44:248|96:252,1,95.9999970703126,4|0,1:2|0:0,0:0:0:0:
100,332,255357,1,2,0:0:0:0:
100,332,255471,2,0,B|56:348|56:348|4:344,1,95.9999970703126,0|2,0:0|0:0,0:0:0:0:
168,232,255925,1,0,1:0:0:0:
264,348,256152,1,2,1:2:0:0:
340,196,256380,1,8,0:0:0:0:
468,320,256607,5,2,3:2:0:0:
484,304,256721,1,2,3:2:0:0:
496,292,256834,2,0,L|392:276,1,95.9999970703126,12|0,1:2|0:0,0:0:0:0:
352,344,257289,1,2,0:0:0:0:
180,156,257516,6,0,L|284:140,1,95.9999970703126,8|0,0:0|1:0,0:0:0:0:
324,208,257971,1,2,1:2:0:0:
448,12,258198,6,0,L|448:64,1,47.9999985351563,12|0,0:0|0:0,0:0:0:0:
512,156,258425,2,0,L|332:128,1,143.999995605469,12|0,1:2|0:0,0:0:0:0:
352,120,258880,1,0,1:0:0:0:
274,141,259335,5,0,1:0:0:0:
200,16,259562,2,0,B|184:68|184:68|204:136,1,95.9999970703126,2|0,0:0|1:0,0:0:0:0:
112,200,259903,1,0,0:0:0:0:
112,200,260016,2,0,B|128:148|128:148|108:80,1,95.9999970703126,12|0,0:0|0:0,0:0:0:0:
0,304,260471,6,0,P|20:280|120:316,1,143.999995605469,4|2,1:2|0:0,0:0:0:0:
128,324,260926,1,8,0:0:0:0:
324,304,261153,1,2,0:0:0:0:
272,364,261380,1,0,1:0:0:0:
292,232,261607,1,0,1:0:0:0:
404,320,261835,2,0,B|436:284|436:284|428:164,1,143.999995605469,8|0,0:0|0:0,0:0:0:0:
512,100,262289,6,0,B|468:116|468:116|416:112,1,95.9999970703126,4|0,1:2|0:0,0:0:0:0:
360,52,262630,1,2,0:0:0:0:
360,52,262744,2,0,B|404:36|404:36|456:40,1,95.9999970703126,8|2,0:0|0:0,0:0:0:0:
429,188,263198,1,0,1:0:0:0:
240,236,263425,1,2,1:2:0:0:
92,76,263653,5,8,0:2:0:0:
116,50,263767,1,8,0:0:0:0:
81,56,263881,1,8,0:2:0:0:
113,72,263994,1,8,0:0:0:0:
96,40,264107,5,12,1:2:0:0:
256,108,264334,1,2,1:2:0:0:
416,40,264562,1,0,1:2:0:0:
429,188,264789,5,14,1:2:0:0:
256,108,265016,1,0,1:2:0:0:
83,188,265243,1,2,1:2:0:0:
256,360,265471,5,12,1:2:0:0:
256,192,265698,1,2,1:2:0:0:
96,344,265925,5,12,1:2:0:0:
340,284,266153,1,2,1:2:0:0:
160,192,266380,1,2,1:2:0:0:
416,344,266607,5,12,1:2:0:0:
172,284,266834,1,2,1:2:0:0:
352,192,267062,1,2,1:2:0:0:
260,360,267289,6,0,L|252:284,1,47.9999985351563,12|8,0:0|0:0,0:0:0:0:
256,196,267516,2,0,L|244:112,1,47.9999985351563,8|8,0:0|0:0,0:0:0:0:
180,44,267743,5,12,1:2:0:0:
256,12,267971,1,0,1:2:0:0:
336,40,268198,1,0,1:2:0:0:
106,182,268425,5,12,1:2:0:0:
116,100,268653,1,0,1:2:0:0:
180,44,268880,1,0,1:2:0:0:
189,316,269107,5,12,1:2:0:0:
122,266,269335,1,0,1:2:0:0:
346,312,269562,5,12,1:2:0:0:
269,344,269790,1,0,1:2:0:0:
189,316,270017,1,0,1:2:0:0:
422,175,270243,5,12,1:2:0:0:
411,257,270471,1,0,1:2:0:0:
346,312,270698,1,0,1:2:0:0:
342,41,270925,5,12,1:2:0:0:
407,91,271153,1,0,1:2:0:0:
266,179,271380,5,12,1:2:0:0:
277,96,271608,1,0,1:2:0:0:
342,41,271835,1,0,1:2:0:0:
262,207,272062,5,12,1:2:0:0:
328,258,272290,1,0,1:2:0:0:
343,341,272517,1,0,1:2:0:0:
239,189,272743,5,12,1:2:0:0:
162,221,272971,1,0,1:2:0:0:
82,193,273199,5,12,1:2:0:0:
42,37,273425,1,2,1:2:0:0:
18,149,273653,1,2,1:2:0:0:
162,221,273880,5,12,1:2:0:0:
202,377,274106,1,2,1:2:0:0:
226,265,274334,1,2,1:2:0:0:
328,164,274561,1,12,1:2:0:0:
480,356,274788,5,2,3:0:0:0:
484,320,274902,1,0,3:0:0:0:
488,280,275016,2,0,P|476:232|492:184,2,95.9999970703126,12|0|0,1:2|1:2|1:2,1:1:0:0:
428,40,275698,2,0,P|392:74|342:84,2,95.9999970703126,12|0|0,1:2|1:2|1:2,1:1:0:0:
256,216,276380,2,0,P|303:229|337:267,1,95.9999970703126,12|0,1:2|1:2,1:1:0:0:
88,352,276834,6,0,P|40:338|6:300,1,95.9999970703126,12|0,1:2|1:2,1:1:0:0:
88,352,277289,1,0,1:2:0:0:
256,216,277516,2,0,P|268:264|252:312,1,95.9999970703126,12|0,1:2|1:2,1:1:0:0:
256,216,277971,1,0,1:2:0:0:
52,144,278198,2,0,P|87:109|137:99,1,95.9999970703126,12|0,1:2|1:2,1:1:0:0:
344,32,278653,5,12,1:2:0:0:
176,12,278880,1,0,1:2:0:0:
340,56,279107,1,0,1:2:0:0:
260,80,279334,5,12,1:2:0:0:
428,60,279561,1,0,1:2:0:0:
264,104,279788,1,0,1:2:0:0:
344,132,280016,5,12,1:2:0:0:
176,112,280243,1,0,1:2:0:0:
20,164,280471,5,12,1:2:0:0:
40,276,280698,5,2,1:2:0:0:
132,348,280925,5,2,1:2:0:0:
256,372,281153,5,12,1:2:0:0:
380,348,281380,5,2,1:2:0:0:
472,276,281607,5,2,1:2:0:0:
492,164,281834,5,12,0:0:0:0:
496,140,281948,1,8,0:0:0:0:
416,172,282062,5,10,0:0:0:0:
420,148,282176,1,8,0:0:0:0:
360,224,282289,6,0,P|339:179|352:128,1,95.9999970703126,12|0,1:2|1:2,1:1:0:0:
392,72,282743,1,2,1:2:0:0:
245,121,282971,2,0,P|273:81|324:66,1,95.9999970703126,12|0,1:2|1:2,1:1:0:0:
392,72,283425,1,2,1:2:0:0:
164,136,283653,5,12,0:0:0:0:
168,112,283767,1,8,0:0:0:0:
128,52,283881,5,10,0:0:0:0:
132,28,283993,1,8,0:0:0:0:
56,80,284107,6,0,P|36:120|32:180,1,95.9999970703126,12|0,1:2|1:2,1:1:0:0:
20,244,284562,1,2,1:2:0:0:
248,196,284789,2,0,P|268:236|272:296,1,95.9999970703126,12|0,1:2|1:2,1:1:0:0:
284,360,285244,1,2,1:2:0:0:
132,216,285471,5,12,0:0:0:0:
136,240,285585,1,8,0:0:0:0:
96,300,285699,5,10,0:0:0:0:
100,324,285813,1,8,0:0:0:0:
168,360,285925,5,12,1:2:0:0:
273,286,286153,1,2,1:2:0:0:
404,336,286380,1,2,1:2:0:0:
512,96,286607,5,12,1:2:0:0:
407,170,286835,1,0,1:2:0:0:
276,120,287062,1,2,1:2:0:0:
148,128,287289,5,12,0:0:0:0:
120,119,287403,1,8,0:0:0:0:
120,90,287516,1,8,0:0:0:0:
148,81,287630,1,8,0:0:0:0:
164,104,287743,5,12,1:2:0:0:
136,180,287971,5,2,1:2:0:0:
44,160,288198,5,2,1:2:0:0:
36,56,288425,5,12,1:2:0:0:
172,0,288653,5,2,1:2:0:0:
336,64,288880,5,2,1:2:0:0:
348,252,289107,5,12,0:0:0:0:
320,244,289221,1,8,0:0:0:0:
268,304,289334,5,10,0:0:0:0:
240,312,289448,1,8,0:0:0:0:
176,356,289562,6,0,L|60:336,2,95.9999970703126,12|2|2,1:2|1:2|1:2,1:1:0:0:
348,252,290243,6,0,L|464:232,2,95.9999970703126,12|2|2,1:2|1:2|1:2,1:1:0:0:
272,128,290925,5,12,0:0:0:0:
244,120,291039,1,8,0:0:0:0:
192,180,291152,5,8,0:0:0:0:
164,188,291266,1,8,0:0:0:0:
100,140,291380,6,0,L|-16:120,2,95.9999970703126,12|2|2,1:2|1:2|1:2,1:1:0:0:
392,32,292061,6,0,L|508:12,2,95.9999970703126,12|2|2,1:2|1:2|1:2,1:1:0:0:
476,208,292743,5,12,0:0:0:0:
500,182,292857,5,8,0:0:0:0:
465,188,292971,5,8,0:0:0:0:
497,204,293084,5,8,0:0:0:0:
256,192,293198,12,0,296607,0:0:0:0:
