osu file format v14

[General]
AudioFilename: audio.mp3
AudioLeadIn: 0
PreviewTime: 44604
Countdown: 0
SampleSet: Soft
StackLeniency: 0.3
Mode: 0
LetterboxInBreaks: 0
WidescreenStoryboard: 0

[Editor]
Bookmarks: 1084,6665,17828,20967,40153,45735,70851,82014,104342,109921,135037,146200,155967,181084,193467
DistanceSpacing: 1
BeatDivisor: 4
GridSize: 8
TimelineZoom: 2.2

[Metadata]
Title:Binetsu kara Mystery
TitleUnicode:微熱からMystery
Artist:lily white
ArtistUnicode:lily white
Creator:newton-
Version:Toshino's Insane
Source:ラブライブ! School idol project
Tags:u's μ's love live! live lovelive lovelive! 園田海未 sonoda umi 三森すずこ mimori suzuko 星空凛 hoshizora rin 飯田里穂 iida riho 東條希 toujou nozomi 楠田亜衣奈 kusuda aina
BeatmapID:1325064
BeatmapSetID:626313

[Difficulty]
HPDrainRate:6
CircleSize:4.2
OverallDifficulty:7.5
ApproachRate:8.7
SliderMultiplier:1.7
SliderTickRate:1

[Events]
//Background and Video events
0,0,"rin.jpg",0,0
//Break Periods
//Storyboard Layer 0 (Background)
//Storyboard Layer 1 (Fail)
//Storyboard Layer 2 (Pass)
//Storyboard Layer 3 (Foreground)
//Storyboard Sound Samples

[TimingPoints]
1087,348.837209302326,4,2,1,60,1,0
6668,-100,4,2,91,60,0,0
7017,-100,4,2,90,60,0,0
12249,-100,4,2,91,60,0,0
12424,-100,4,2,90,60,0,0
16261,-100,4,2,91,60,0,0
16435,-100,4,2,90,60,0,0
16610,-100,4,2,91,60,0,0
16784,-100,4,2,90,60,0,0
16959,-100,4,2,92,60,0,0
17133,-100,4,2,93,60,0,0
17831,-100,4,2,91,60,0,0
18180,-100,4,2,90,50,0,0
22714,-100,4,2,92,50,0,0
22889,-100,4,2,90,50,0,0
23238,-100,4,2,93,50,0,0
23412,-100,4,2,91,50,0,0
23761,-100,4,2,90,50,0,0
28470,-100,4,2,92,50,0,0
28645,-100,4,2,93,50,0,0
28993,-100,4,2,91,50,0,0
29168,-100,4,2,99,50,0,0
31784,-100,4,2,91,50,0,0
31959,-100,4,2,99,50,0,0
34575,-100,4,2,91,50,0,0
34749,-100,4,2,99,50,0,0
37366,-100,4,2,91,50,0,0
37540,-100,4,2,99,50,0,0
39633,-100,4,2,94,50,0,0
39807,-100,4,2,92,50,0,0
39982,-100,4,2,93,50,0,0
40156,-100,4,2,91,50,0,0
42075,-100,4,2,90,50,0,0
42424,-100,4,2,92,70,0,0
42598,-100,4,2,93,70,0,0
42773,-100,4,2,91,70,0,0
43121,-100,4,2,90,70,0,0
43296,-90.9090909090909,4,2,90,70,0,0
43645,-83.3333333333333,4,2,90,70,0,0
43993,-76.9230769230769,4,2,90,70,0,0
44342,-76.9230769230769,4,2,91,70,0,0
45650,-76.9230769230769,4,2,91,5,0,0
45738,-83.3333333333333,4,2,91,80,0,1
45912,-83.3333333333333,4,2,90,80,0,1
50970,-83.3333333333333,4,2,91,80,0,1
51668,-83.3333333333333,4,2,90,80,0,1
54459,-83.3333333333333,4,2,91,80,0,1
54633,-83.3333333333333,4,2,90,80,0,1
56028,-83.3333333333333,4,2,91,80,0,1
56202,-83.3333333333333,4,2,90,80,0,1
56552,-83.3333333333333,4,2,92,80,0,1
56726,-83.3333333333333,4,2,93,80,0,1
56900,-83.3333333333333,4,2,91,80,0,1
57074,-83.3333333333333,4,2,90,80,0,1
62133,-83.3333333333333,4,2,91,80,0,1
62831,-83.3333333333333,4,2,90,80,0,1
65273,-83.3333333333333,4,2,91,80,0,1
65447,-83.3333333333333,4,2,90,80,0,1
65970,-83.3333333333333,4,2,91,80,0,1
66144,-83.3333333333333,4,2,90,80,0,1
66668,-83.3333333333333,4,2,91,80,0,1
66842,-83.3333333333333,4,2,90,80,0,1
67366,-83.3333333333333,4,2,91,80,0,1
67540,-83.3333333333333,4,2,90,80,0,1
67627,-83.3333333333333,4,2,94,80,0,1
67714,-83.3333333333333,4,2,92,80,0,1
67889,-83.3333333333333,4,2,93,80,0,1
68063,-83.3333333333333,4,2,91,80,0,1
68238,-83.3333333333333,4,2,92,80,0,1
68412,-83.3333333333333,4,2,93,80,0,1
68587,-83.3333333333333,4,2,91,80,0,1
68935,-83.3333333333333,4,2,92,80,0,1
69109,-83.3333333333333,4,2,93,80,0,1
69284,-83.3333333333333,4,2,91,80,0,1
69807,-83.3333333333333,4,2,90,80,0,1
70156,-100,4,2,90,60,0,0
70854,-100,4,2,91,60,0,0
71203,-100,4,2,90,60,0,0
76435,-100,4,2,91,60,0,0
76610,-100,4,2,90,60,0,0
80447,-100,4,2,91,60,0,0
80621,-100,4,2,90,60,0,0
80796,-100,4,2,91,60,0,0
80970,-100,4,2,90,60,0,0
81145,-100,4,2,92,60,0,0
81319,-100,4,2,93,60,0,0
81493,-100,4,2,90,60,0,0
81668,-100,4,2,92,60,0,0
81842,-100,4,2,93,60,0,0
82017,-100,4,2,91,60,0,0
82366,-100,4,2,90,50,0,0
87249,-100,4,2,92,50,0,0
87424,-100,4,2,93,50,0,0
87598,-100,4,2,91,50,0,0
87947,-100,4,2,90,50,0,0
92656,-100,4,2,92,50,0,0
92831,-100,4,2,93,50,0,0
93008,-100,4,2,91,50,0,0
93528,-100,4,2,99,50,0,0
95970,-100,4,2,91,50,0,0
96145,-100,4,2,99,50,0,0
98761,-100,4,2,91,50,0,0
98935,-100,4,2,99,50,0,0
101552,-100,4,2,91,50,0,0
101726,-100,4,2,99,50,0,0
103819,-100,4,2,94,50,0,0
103993,-100,4,2,92,50,0,0
104168,-100,4,2,93,50,0,0
104342,-100,4,2,91,50,0,0
106261,-100,4,2,90,70,0,0
106610,-100,4,2,92,70,0,0
106784,-100,4,2,93,70,0,0
106959,-100,4,2,91,70,0,0
107307,-100,4,2,90,70,0,0
107482,-90.9090909090909,4,2,90,70,0,0
107831,-83.3333333333333,4,2,90,70,0,0
108179,-76.9230769230769,4,2,90,70,0,0
108528,-76.9230769230769,4,2,91,70,0,0
109226,-100,4,2,90,70,0,0
109575,-100,4,2,92,70,0,0
109749,-100,4,2,90,70,0,0
109924,-83.3333333333333,4,2,91,80,0,1
110098,-83.3333333333333,4,2,90,80,0,1
115156,-83.3333333333333,4,2,91,80,0,1
115854,-83.3333333333333,4,2,90,80,0,1
118645,-83.3333333333333,4,2,91,80,0,1
118819,-83.3333333333333,4,2,90,80,0,1
120214,-83.3333333333333,4,2,91,80,0,1
120388,-83.3333333333333,4,2,90,80,0,1
120738,-83.3333333333333,4,2,92,80,0,1
120912,-83.3333333333333,4,2,93,80,0,1
121086,-83.3333333333333,4,2,91,80,0,1
121260,-83.3333333333333,4,2,90,80,0,1
126319,-83.3333333333333,4,2,91,80,0,1
127017,-83.3333333333333,4,2,90,80,0,1
129459,-83.3333333333333,4,2,91,80,0,1
129633,-83.3333333333333,4,2,90,80,0,1
130156,-83.3333333333333,4,2,91,80,0,1
130330,-83.3333333333333,4,2,90,80,0,1
130854,-83.3333333333333,4,2,91,80,0,1
131028,-83.3333333333333,4,2,90,80,0,1
131552,-83.3333333333333,4,2,91,80,0,1
131726,-83.3333333333333,4,2,90,80,0,1
131813,-83.3333333333333,4,2,94,80,0,1
131900,-83.3333333333333,4,2,92,80,0,1
132075,-83.3333333333333,4,2,93,80,0,1
132249,-83.3333333333333,4,2,91,80,0,1
132424,-83.3333333333333,4,2,92,80,0,1
132598,-83.3333333333333,4,2,93,80,0,1
132773,-83.3333333333333,4,2,91,80,0,1
133121,-83.3333333333333,4,2,92,80,0,1
133295,-83.3333333333333,4,2,93,80,0,1
133470,-83.3333333333333,4,2,91,80,0,1
133993,-83.3333333333333,4,2,90,80,0,1
134342,-100,4,2,90,60,0,0
135040,-100,4,2,91,60,0,0
135389,-100,4,2,90,60,0,0
140447,-100,4,2,92,60,0,0
140621,-100,4,2,91,60,0,0
140970,-100,4,2,90,60,0,0
144807,-100,4,2,91,60,0,0
144982,-100,4,2,90,60,0,0
145680,-100,4,2,92,60,0,0
145854,-100,4,2,93,60,0,0
146203,-100,4,2,91,60,0,0
148296,-100,4,2,94,60,0,0
148470,-100,4,2,92,60,0,0
148645,-100,4,2,93,60,0,0
148819,-100,4,2,91,60,0,0
149168,-100,4,2,90,60,0,0
150214,-100,4,2,91,60,0,0
150563,-100,4,2,90,60,0,0
151610,-100,4,2,91,60,0,0
151959,-100,4,2,90,60,0,0
153005,-100,4,2,91,60,0,0
153528,-90.9090909090909,4,2,90,70,0,0
153877,-83.3333333333333,4,2,90,70,0,0
154225,-76.9230769230769,4,2,90,70,0,0
155970,-100,4,2,90,60,0,0
158238,-100,4,2,92,60,0,0
158412,-100,4,2,93,60,0,0
158587,-100,4,2,90,60,0,0
158761,-100,4,2,91,60,0,0
159110,-100,4,2,92,60,0,0
159284,-100,4,2,93,60,0,0
159459,-100,4,2,91,60,0,0
159807,-100,4,2,93,60,0,0
159982,-100,4,2,90,60,0,0
161203,-100,4,2,92,60,0,0
161552,-83.3333333333333,4,2,91,80,0,1
161726,-83.3333333333333,4,2,90,80,0,1
164342,-83.3333333333333,4,2,91,80,0,1
164516,-83.3333333333333,4,2,90,80,0,1
165040,-83.3333333333333,4,2,91,80,0,1
165214,-83.3333333333333,4,2,90,80,0,1
166261,-83.3333333333333,4,2,91,80,0,1
166435,-83.3333333333333,4,2,90,80,0,1
166784,-83.3333333333333,4,2,92,80,0,1
166958,-83.3333333333333,4,2,93,80,0,1
167132,-83.3333333333333,4,2,91,80,0,1
167306,-83.3333333333333,4,2,90,80,0,1
172365,-83.3333333333333,4,2,91,80,0,1
173063,-83.3333333333333,4,2,90,80,0,1
175505,-83.3333333333333,4,2,91,80,0,1
175679,-83.3333333333333,4,2,90,80,0,1
176202,-83.3333333333333,4,2,91,80,0,1
176376,-83.3333333333333,4,2,90,80,0,1
176900,-83.3333333333333,4,2,91,80,0,1
177074,-83.3333333333333,4,2,90,80,0,1
177598,-83.3333333333333,4,2,91,80,0,1
177772,-83.3333333333333,4,2,90,80,0,1
177859,-83.3333333333333,4,2,94,80,0,1
177946,-83.3333333333333,4,2,92,80,0,1
178121,-83.3333333333333,4,2,93,80,0,1
178295,-83.3333333333333,4,2,91,80,0,1
178470,-83.3333333333333,4,2,92,80,0,1
178644,-83.3333333333333,4,2,93,80,0,1
178819,-83.3333333333333,4,2,91,80,0,1
179167,-83.3333333333333,4,2,92,80,0,1
179341,-83.3333333333333,4,2,93,80,0,1
179516,-83.3333333333333,4,2,91,80,0,1
180039,-83.3333333333333,4,2,90,80,0,1
180389,-100,4,2,90,60,0,0
181087,-100,4,2,91,60,0,0
181436,-100,4,2,90,60,0,0
186668,-100,4,2,91,60,0,0
186843,-100,4,2,90,60,0,0
190680,-100,4,2,91,60,0,0
190854,-100,4,2,90,60,0,0
191029,-100,4,2,91,60,0,0
191203,-100,4,2,90,60,0,0
191378,-100,4,2,92,60,0,0
191552,-100,4,2,93,60,0,0
191639,-100,4,2,90,60,0,0
191900,-100,4,2,92,60,0,0
192075,-100,4,2,93,60,0,0
192249,-100,4,2,90,60,0,0
192424,-100,4,2,92,60,0,0
192598,-100,4,2,93,60,0,0
193121,-100,4,2,90,60,0,0
193470,-100,4,2,91,60,0,0
194342,-100,4,2,91,5,0,0

[Colours]
Combo1 : 255,159,255
Combo2 : 192,192,192
Combo3 : 128,128,128
Combo4 : 234,117,0
Combo5 : 255,152,102
Combo6 : 27,188,27
Combo7 : 121,242,0
Combo8 : 255,128,192

[HitObjects]
40,80,6668,70,0,P|84:36|146:37,1,127.5,6|0,0:0|0:0,0:0:0:0:
177,61,7017,1,12,0:0:0:0:
107,197,7191,2,0,L|115:113,1,85,2|4,0:0|0:0,0:0:0:0:
177,248,7540,1,2,0:0:0:0:
99,283,7714,1,12,0:0:0:0:
183,160,7889,2,0,P|224:173|252:203,1,85,2|4,0:0|0:0,0:0:0:0:
244,290,8238,1,2,0:0:0:0:
331,170,8412,6,0,L|338:85,1,85,12|2,0:0|0:0,0:0:0:0:
409,135,8761,2,0,L|416:50,1,85,4|2,0:0|0:0,0:0:0:0:
487,100,9110,2,0,L|494:15,1,85,12|2,0:0|0:0,0:0:0:0:
471,193,9459,102,0,P|414:219|354:201,1,127.5,4|0,0:0|0:0,0:0:0:0:
331,170,9807,1,12,0:0:0:0:
416,50,9982,2,0,L|409:135,1,85,2|4,0:0|0:0,0:0:0:0:
259,120,10331,1,2,0:0:0:0:
330,82,10505,1,12,0:0:0:0:
251,206,10680,2,0,P|210:193|181:162,1,85,2|4,0:0|0:0,0:0:0:0:
190,78,11028,1,2,0:0:0:0:
259,120,11203,5,12,0:0:0:0:
182,162,11377,1,2,0:0:0:0:
105,35,11552,2,0,L|113:120,1,85,4|2,0:0|0:0,0:0:0:0:
34,83,11900,2,0,L|41:167,1,85,12|2,0:0|0:0,0:0:0:0:
170,289,12249,102,0,L|182:162,1,127.5,6|0,0:0|0:0,0:0:0:0:
184,123,12598,1,12,0:0:0:0:
344,192,12773,2,0,L|260:199,1,85,2|4,0:0|0:0,0:0:0:0:
380,115,13121,1,2,0:0:0:0:
429,185,13296,1,12,0:0:0:0:
308,264,13470,2,0,P|316:223|343:192,1,85,2|4,0:0|0:0,0:0:0:0:
429,185,13819,1,2,0:0:0:0:
399,346,13993,6,0,L|392:262,1,85,12|2,0:0|0:0,0:0:0:0:
315,348,14342,2,0,L|308:264,1,85,4|2,0:0|0:0,0:0:0:0:
231,350,14691,2,0,L|224:266,1,85,12|2,0:0|0:0,0:0:0:0:
97,178,15040,102,0,L|224:189,1,127.5,4|0,0:0|0:0,0:0:0:0:
263,191,15389,1,12,0:0:0:0:
139,259,15563,2,0,L|55:252,1,85,2|4,0:0|0:0,0:0:0:0:
175,335,15912,1,2,0:0:0:0:
223,265,16087,5,12,0:0:0:0:
101,187,16261,2,0,P|110:228|139:259,1,85,6|4,0:0|0:0,0:0:0:0:
303,268,16610,2,0,P|263:255|223:265,1,85,6|4,0:0|0:0,0:0:0:0:
175,335,16959,1,10,0:0:0:0:
184,189,17133,1,10,0:0:0:0:
184,189,17831,6,0,L|195:62,1,127.5,6|0,0:0|0:0,0:0:0:0:
197,23,18180,1,12,0:0:0:0:
280,0,18354,1,8,0:0:0:0:
336,64,18528,2,0,P|367:92|408:99,1,85,2|4,0:0|0:0,0:0:0:0:
483,9,18877,1,12,0:0:0:0:
401,17,19052,1,4,0:0:0:0:
456,163,19226,6,0,P|484:132|491:91,1,85,2|4,0:0|0:0,0:0:0:0:
374,171,19575,1,12,0:0:0:0:
422,239,19749,1,8,0:0:0:0:
408,98,19924,2,0,P|367:89|328:103,1,85,2|4,0:0|0:0,0:0:0:0:
254,253,20273,2,0,P|295:262|334:248,1,85,12|4,0:0|0:0,0:0:0:0:
157,118,20621,102,0,L|72:110,1,85,2|4,0:0|0:0,0:0:0:0:
171,260,20970,1,12,0:0:0:0:
123,192,21145,1,8,0:0:0:0:
254,253,21319,2,0,P|246:294|221:328,1,85,2|4,0:0|0:0,0:0:0:0:
4,275,21668,2,0,L|89:268,1,85,12|4,0:0|0:0,0:0:0:0:
137,336,22017,5,2,0:0:0:0:
89,268,22191,1,4,0:0:0:0:
206,185,22366,101,12,0:0:0:0:
171,260,22540,1,2,0:0:0:0:
40,199,22714,5,10,0:0:0:0:
123,192,22889,1,12,0:0:0:0:
55,344,23063,1,12,0:0:0:0:
4,275,23238,1,10,0:0:0:0:
137,336,23412,102,0,L|264:347,1,127.5,6|0,0:0|0:0,0:0:0:0:
303,349,23761,1,12,0:0:0:0:
332,272,23935,1,8,0:0:0:0:
279,208,24110,2,0,P|283:166|307:131,1,85,2|4,0:0|0:0,0:0:0:0:
441,180,24459,1,12,0:0:0:0:
360,194,24633,1,4,0:0:0:0:
389,117,24807,6,0,L|396:32,1,85,2|4,0:0|0:0,0:0:0:0:
441,180,25156,1,12,0:0:0:0:
360,194,25331,1,8,0:0:0:0:
225,144,25505,2,0,P|264:127|306:131,1,85,2|4,0:0|0:0,0:0:0:0:
332,272,25854,1,12,0:0:0:0:
279,208,26028,1,4,0:0:0:0:
389,117,26203,102,0,P|384:158|359:192,1,85,2|4,0:0|0:0,0:0:0:0:
253,67,26552,1,12,0:0:0:0:
306,131,26726,1,8,0:0:0:0:
197,222,26900,5,2,0:0:0:0:
225,144,27075,1,4,0:0:0:0:
359,193,27249,101,12,0:0:0:0:
279,208,27424,1,4,0:0:0:0:
335,54,27598,2,0,L|419:46,1,85,2|4,0:0|0:0,0:0:0:0:
359,193,27947,1,12,0:0:0:0:
306,131,28121,1,8,0:0:0:0:
335,54,28296,1,8,0:0:0:0:
442,181,28470,5,8,0:0:0:0:
279,208,28645,1,12,0:0:0:0:
442,181,28819,1,2,0:0:0:0:
279,208,28993,2,0,L|194:215,1,85,6|0,0:0|0:0,0:0:0:0:
109,222,29342,1,12,0:0:0:0:
251,286,29517,2,0,L|335:278,1,85,2|4,0:0|0:0,0:0:0:0:
226,144,29866,101,2,0:0:0:0:
335,278,30040,1,12,0:0:0:0:
226,144,30214,1,2,0:0:0:0:
335,278,30389,2,0,L|342:362,1,85,4|2,0:0|0:0,0:0:0:0:
251,286,30738,1,12,0:0:0:0:
419,270,30912,2,0,L|503:277,1,85,2|4,0:0|0:0,0:0:0:0:
342,362,31261,5,2,0:0:0:0:
447,192,31435,1,12,0:0:0:0:
342,362,31610,1,2,0:0:0:0:
447,192,31784,2,0,L|439:107,1,85,4|2,0:0|0:0,0:0:0:0:
431,22,32133,1,12,0:0:0:0:
327,193,32307,2,0,L|335:278,1,85,2|4,0:0|0:0,0:0:0:0:
447,192,32656,101,2,0:0:0:0:
274,131,32831,1,12,0:0:0:0:
447,192,33005,1,2,0:0:0:0:
274,131,33180,2,0,L|186:138,1,85,4|2,0:0|0:0,0:0:0:0:
104,123,33528,1,12,0:0:0:0:
249,283,33703,2,0,L|334:277,1,85,2|4,0:0|0:0,0:0:0:0:
219,211,34052,5,2,0:0:0:0:
201,344,34226,1,12,0:0:0:0:
134,204,34400,1,2,0:0:0:0:
249,283,34575,2,0,L|334:277,1,85,4|2,0:0|0:0,0:0:0:0:
219,211,34924,1,12,0:0:0:0:
201,344,35098,2,0,L|116:337,1,85,2|4,0:0|0:0,0:0:0:0:
134,204,35447,101,2,0:0:0:0:
249,283,35621,1,12,0:0:0:0:
309,221,35796,1,2,0:0:0:0:
74,266,35970,2,0,P|51:231|48:189,1,85,4|2,0:0|0:0,0:0:0:0:
104,123,36319,1,12,0:0:0:0:
219,211,36493,2,0,P|242:175|244:133,1,85,2|4,0:0|0:0,0:0:0:0:
104,123,36842,1,2,0:0:0:0:
164,285,37017,1,12,0:0:0:0:
219,211,37191,1,2,0:0:0:0:
159,49,37366,6,0,P|99:29|41:54,1,127.5,4|0,0:0|0:0,0:0:0:0:
24,88,37714,2,0,L|16:172,1,85,12|2,0:0|0:0,0:0:0:0:
74,266,38063,1,4,0:0:0:0:
104,123,38238,1,2,0:0:0:0:
16,172,38412,1,12,0:0:0:0:
162,217,38587,1,2,0:0:0:0:
188,115,38761,102,0,L|103:122,1,85,4|2,0:0|0:0,0:0:0:0:
246,224,39110,2,0,L|162:217,1,85,12|2,0:0|0:0,0:0:0:0:
74,266,39459,2,0,L|69:322,2,42.5,8|8|8,0:0|0:0|0:0,0:0:0:0:
201,318,39807,2,0,L|286:311,1,85,8|8,0:0|0:0,0:0:0:0:
367,250,40156,21,6,0:0:0:0:
367,250,40854,5,6,0:0:0:0:
367,250,41552,101,6,0:0:0:0:
451,160,42075,5,8,0:0:0:0:
367,250,42249,1,8,0:0:0:0:
332,133,42424,2,0,L|324:48,1,85,8|8,0:0|0:0,0:0:0:0:
451,160,42773,2,0,L|458:244,1,85,6|0,0:0|0:0,0:0:0:0:
418,326,43121,1,10,0:0:0:0:
273,241,43296,70,0,L|367:250,1,93.5000028533936,10|10,0:0|0:0,0:0:0:0:
230,124,43645,6,0,L|332:133,1,101.999996887207,10|10,0:0|0:0,0:0:0:0:
186,6,43993,102,0,L|296:15,1,110.499994941712,10|10,0:0|0:0,0:0:0:0:
176,232,44342,5,14,0:0:0:0:
176,231,45389,6,0,P|114:246|154:197,1,165.749992412568
191,194,45738,22,6,P|239:185|303:217,1,101.999996887207
230,282,46087,1,12,0:0:0:0:
150,104,46261,2,0,P|167:56|206:24,1,101.999996887207,2|4,0:0|0:0,0:0:0:0:
345,124,46610,1,2,0:0:0:0:
247,114,46784,1,12,0:0:0:0:
402,44,46959,1,2,0:0:0:0:
441,133,47133,6,0,P|423:180|363:218,1,101.999996887207,6|2,0:0|0:0,0:0:0:0:
247,114,47482,1,12,0:0:0:0:
328,289,47656,2,0,P|375:307|425:299,1,101.999996887207,2|4,0:0|0:0,0:0:0:0:
441,133,48005,1,2,0:0:0:0:
328,289,48180,1,12,0:0:0:0:
345,124,48354,1,2,0:0:0:0:
480,221,48528,101,6,0:0:0:0:
498,56,48703,1,2,0:0:0:0:
384,211,48877,1,12,0:0:0:0:
402,45,49052,1,2,0:0:0:0:
480,220,49226,6,0,P|464:268|426:302,1,101.999996887207,4|2,0:0|0:0,0:0:0:0:
283,206,49575,1,12,0:0:0:0:
441,133,49749,1,2,0:0:0:0:
426,301,49924,102,0,P|328:293|283:206,1,203.999993774414,6|12,0:0|0:0,0:0:0:0:
305,36,50447,1,2,0:0:0:0:
441,133,50621,2,0,P|423:180|382:211,1,101.999996887207,4|2,0:0|0:0,0:0:0:0:
249,115,50970,1,12,0:0:0:0:
345,124,51145,1,2,0:0:0:0:
194,194,51319,6,0,L|92:202,1,101.999996887207,6|2,0:0|0:0,0:0:0:0:
52,98,51668,2,0,L|154:107,1,101.999996887207,12|2,0:0|0:0,0:0:0:0:
235,281,52017,1,4,0:0:0:0:
249,115,52191,1,2,0:0:0:0:
140,274,52366,1,12,0:0:0:0:
289,201,52540,102,0,L|390:209,1,101.999996887207,2|6,0:0|0:0,0:0:0:0:
235,281,52889,1,2,0:0:0:0:
194,194,53063,1,12,0:0:0:0:
181,361,53238,2,0,L|79:352,1,101.999996887207,2|4,0:0|0:0,0:0:0:0:
99,187,53587,1,2,0:0:0:0:
140,274,53761,1,12,0:0:0:0:
9,183,53935,5,2,0:0:0:0:
117,23,54110,1,6,0:0:0:0:
203,198,54284,1,2,0:0:0:0:
22,16,54459,101,12,0:0:0:0:
160,111,54633,1,2,0:0:0:0:
9,183,54807,1,4,0:0:0:0:
99,187,54982,2,0,L|92:258,2,50.9999984436036,8|8|12,0:0|0:0|0:0,0:0:0:0:
213,31,55331,1,2,0:0:0:0:
254,118,55505,6,0,L|355:126,1,101.999996887207,6|8,0:0|0:0,0:0:0:0:
456,134,55854,1,12,0:0:0:0:
387,214,56028,2,0,L|285:205,1,101.999996887207,6|0,0:0|0:0,0:0:0:0:
154,139,56377,102,0,L|149:190,1,50.9999984436036,8|8,0:0|0:0,0:0:0:0:
285,205,56552,2,0,L|281:155,1,50.9999984436036,8|8,0:0|0:0,0:0:0:0:
184,280,56726,2,0,L|233:284,1,50.9999984436036,8|8,0:0|0:0,0:0:0:0:
88,268,56900,6,0,P|97:318|130:357,1,101.999996887207,6|2,0:0|0:0,0:0:0:0:
149,190,57249,1,12,0:0:0:0:
328,289,57424,2,0,P|311:336|273:369,1,101.999996887207,2|4,0:0|0:0,0:0:0:0:
285,205,57773,1,2,0:0:0:0:
379,209,57947,1,12,0:0:0:0:
234,284,58121,1,2,0:0:0:0:
337,126,58296,102,0,P|386:117|433:133,1,101.999996887207,6|2,0:0|0:0,0:0:0:0:
422,292,58645,1,12,0:0:0:0:
285,205,58819,2,0,P|237:188|188:200,1,101.999996887207,2|4,0:0|0:0,0:0:0:0:
185,366,59168,1,2,0:0:0:0:
285,205,59342,1,12,0:0:0:0:
374,372,59517,1,2,0:0:0:0:
188,200,59691,5,6,0:0:0:0:
281,368,59866,1,2,0:0:0:0:
379,203,60040,1,12,0:0:0:0:
281,368,60214,1,2,0:0:0:0:
139,280,60389,2,0,P|104:243|95:194,1,101.999996887207,4|2,0:0|0:0,0:0:0:0:
237,118,60738,1,12,0:0:0:0:
188,200,60912,1,2,0:0:0:0:
333,120,61087,102,0,L|434:111,1,101.999996887207,6|2,0:0|0:0,0:0:0:0:
480,211,61435,2,0,L|379:203,1,101.999996887207,12|2,0:0|0:0,0:0:0:0:
287,37,61784,1,4,0:0:0:0:
434,111,61959,1,2,0:0:0:0:
284,202,62133,1,12,0:0:0:0:
287,37,62307,1,2,0:0:0:0:
379,203,62482,6,0,P|326:285|229:280,1,203.999993774414,6|12,0:0|0:0,0:0:0:0:
244,116,63005,1,2,0:0:0:0:
284,202,63180,1,4,0:0:0:0:
134,270,63354,101,2,0:0:0:0:
189,193,63528,1,12,0:0:0:0:
237,381,63703,2,0,L|229:280,1,101.999996887207,2|6,0:0|0:0,0:0:0:0:
95,184,64052,1,2,0:0:0:0:
134,270,64226,1,12,0:0:0:0:
146,105,64400,2,0,P|98:89|50:101,1,101.999996887207,2|4,0:0|0:0,0:0:0:0:
189,193,64749,1,2,0:0:0:0:
244,117,64924,1,12,0:0:0:0:
205,31,65098,1,2,0:0:0:0:
95,184,65273,6,0,P|126:265|208:285,1,152.999995330811,6|0,0:0|0:0,0:0:0:0:
229,289,65621,1,12,0:0:0:0:
283,203,65796,1,2,0:0:0:0:
376,352,65970,102,0,L|389:200,1,152.999995330811,6|0,0:0|0:0,0:0:0:0:
393,154,66319,1,12,0:0:0:0:
283,203,66493,1,0,0:0:0:0:
472,216,66668,6,0,L|480:114,1,101.999996887207,12|2,0:0|0:0,0:0:0:0:
282,203,67017,1,12,0:0:0:0:
402,59,67191,1,2,0:0:0:0:
205,148,67366,1,6,0:0:0:0:
402,59,67540,2,0,L|407:9,2,50.9999984436036,8|8|12,0:0|0:0|0:0,0:0:0:0:
214,53,67889,1,8,0:0:0:0:
292,109,68063,101,6,0:0:0:0:
118,189,68238,1,8,0:0:0:0:
275,300,68412,1,12,0:0:0:0:
292,109,68587,1,6,0:0:0:0:
292,109,68935,5,8,0:0:0:0:
275,300,69110,1,8,0:0:0:0:
118,189,69284,1,12,0:0:0:0:
118,189,69633,101,2,0:0:0:0:
274,299,69807,1,12,0:0:0:0:
205,148,70156,5,6,0:0:0:0:
205,148,70854,6,0,P|265:164|295:218,1,127.5,6|0,0:0|0:0,0:0:0:0:
289,257,71203,1,12,0:0:0:0:
131,236,71377,2,0,L|216:229,1,85,2|4,0:0|0:0,0:0:0:0:
95,314,71726,1,2,0:0:0:0:
46,244,71900,1,12,0:0:0:0:
166,163,72075,2,0,P|158:204|130:236,1,85,2|4,0:0|0:0,0:0:0:0:
81,166,72424,1,2,0:0:0:0:
173,78,72598,6,0,L|166:163,1,85,12|2,0:0|0:0,0:0:0:0:
259,71,72947,2,0,L|251:155,1,85,4|2,0:0|0:0,0:0:0:0:
344,63,73296,2,0,L|336:147,1,85,12|2,0:0|0:0,0:0:0:0:
435,305,73645,102,0,L|423:178,1,127.5,4|0,0:0|0:0,0:0:0:0:
421,139,73993,1,12,0:0:0:0:
344,231,74168,2,0,L|351:315,1,85,2|4,0:0|0:0,0:0:0:0:
266,195,74517,1,2,0:0:0:0:
336,147,74691,1,12,0:0:0:0:
274,279,74866,2,0,P|232:272|199:245,1,85,2|4,0:0|0:0,0:0:0:0:
258,110,75214,1,2,0:0:0:0:
266,195,75389,1,12,0:0:0:0:
189,160,75563,1,2,0:0:0:0:
258,110,75738,6,0,L|342:102,1,85,4|2,0:0|0:0,0:0:0:0:
266,25,76087,2,0,L|350:17,1,85,12|2,0:0|0:0,0:0:0:0:
432,209,76435,102,0,L|305:197,1,127.5,6|0,0:0|0:0,0:0:0:0:
266,195,76784,1,12,0:0:0:0:
180,74,76959,2,0,L|187:158,1,85,2|4,0:0|0:0,0:0:0:0:
32,86,77307,1,2,0:0:0:0:
102,38,77482,1,12,0:0:0:0:
109,122,77656,2,0,L|116:206,1,85,2|4,0:0|0:0,0:0:0:0:
46,255,78005,1,2,0:0:0:0:
187,158,78180,6,0,L|271:165,1,85,12|2,0:0|0:0,0:0:0:0:
195,243,78528,2,0,L|279:250,1,85,4|2,0:0|0:0,0:0:0:0:
203,329,78877,2,0,L|287:336,1,85,12|2,0:0|0:0,0:0:0:0:
369,120,79226,102,0,L|357:247,1,127.5,4|0,0:0|0:0,0:0:0:0:
355,286,79575,1,12,0:0:0:0:
496,314,79749,2,0,P|471:278|433:260,1,85,2|4,0:0|0:0,0:0:0:0:
337,366,80098,1,2,0:0:0:0:
416,341,80273,1,12,0:0:0:0:
347,201,80447,2,0,L|355:286,1,85,6|4,0:0|0:0,0:0:0:0:
269,165,80796,1,6,0:0:0:0:
338,116,80970,1,12,0:0:0:0:
276,249,81145,5,10,0:0:0:0:
199,214,81319,1,10,0:0:0:0:
190,129,81493,2,0,L|186:86,2,42.5,8|8|8,0:0|0:0|0:0,0:0:0:0:
199,214,81842,1,8,0:0:0:0:
212,313,82017,6,0,P|166:355|103:355,1,127.5,6|0,0:0|0:0,0:0:0:0:
72,332,82366,1,4,0:0:0:0:
131,264,82540,1,2,0:0:0:0:
49,216,82714,2,0,P|33:176|37:134,1,85,12|0,0:0|0:0,0:0:0:0:
182,113,83063,6,0,P|156:145|118:164,1,85,2|0,0:0|0:0,0:0:0:0:
26,48,83412,2,0,P|67:54|102:78,1,85,6|8,0:0|0:0,0:0:0:0:
182,113,83761,2,0,L|266:120,1,85,4|2,0:0|0:0,0:0:0:0:
385,34,84110,2,0,L|301:42,1,85,12|0,0:0|0:0,0:0:0:0:
229,196,84459,2,0,P|292:201|339:162,1,127.5,4|0,0:0|0:0,0:0:0:0:
360,130,84807,102,0,P|421:117|475:148,1,127.5,6|0,0:0|0:0,0:0:0:0:
490,183,85156,1,4,0:0:0:0:
482,267,85331,1,2,0:0:0:0:
397,296,85505,2,0,L|404:211,1,85,12|0,0:0|0:0,0:0:0:0:
490,183,85854,2,0,L|482:267,1,85,6|0,0:0|0:0,0:0:0:0:
328,248,86203,5,6,0:0:0:0:
405,211,86377,1,0,0:0:0:0:
321,335,86552,101,4,0:0:0:0:
249,285,86726,1,2,0:0:0:0:
397,296,86900,5,12,0:0:0:0:
390,383,87075,1,12,0:0:0:0:
249,285,87249,101,8,0:0:0:0:
328,248,87424,1,8,0:0:0:0:
242,372,87598,6,0,P|186:343|162:286,1,127.5,6|0,0:0|0:0,0:0:0:0:
163,248,87947,1,12,0:0:0:0:
212,176,88121,1,8,0:0:0:0:
174,97,88296,2,0,P|133:83|92:89,1,85,2|4,0:0|0:0,0:0:0:0:
212,176,88645,1,12,0:0:0:0:
260,104,88819,1,4,0:0:0:0:
139,22,88993,102,0,P|148:63|174:97,1,85,2|4,0:0|0:0,0:0:0:0:
260,104,89342,1,12,0:0:0:0:
308,33,89517,1,8,0:0:0:0:
212,176,89691,2,0,P|171:182|131:169,1,85,2|4,0:0|0:0,0:0:0:0:
346,109,90040,1,12,0:0:0:0:
384,185,90214,1,4,0:0:0:0:
246,253,90389,5,2,0:0:0:0:
293,183,90563,1,4,0:0:0:0:
422,261,90738,101,12,0:0:0:0:
338,256,90912,1,8,0:0:0:0:
431,115,91087,5,2,0:0:0:0:
469,191,91261,1,4,0:0:0:0:
346,109,91435,101,12,0:0:0:0:
392,39,91610,1,4,0:0:0:0:
307,31,91784,6,0,L|222:23,1,85,2|4,0:0|0:0,0:0:0:0:
346,109,92133,1,12,0:0:0:0:
294,180,92307,1,8,0:0:0:0:
206,172,92482,1,8,0:0:0:0:
169,92,92656,101,8,0:0:0:0:
294,180,92831,1,12,0:0:0:0:
169,92,93005,2,0,L|126:88,1,42.5,8|8,0:0|0:0,0:0:0:0:
36,186,93180,6,0,L|121:179,1,85,6|0,0:0|0:0,0:0:0:0:
206,172,93528,1,12,0:0:0:0:
170,249,93703,2,0,L|85:256,1,85,2|4,0:0|0:0,0:0:0:0:
169,92,94052,101,2,0:0:0:0:
254,241,94226,1,12,0:0:0:0:
169,92,94400,1,2,0:0:0:0:
254,241,94575,2,0,L|338:248,1,85,4|2,0:0|0:0,0:0:0:0:
386,178,94924,1,12,0:0:0:0:
374,325,95098,2,0,L|290:318,1,85,2|4,0:0|0:0,0:0:0:0:
218,163,95447,5,2,0:0:0:0:
386,178,95621,1,12,0:0:0:0:
218,163,95796,1,2,0:0:0:0:
387,180,95970,2,0,L|394:95,1,85,4|2,0:0|0:0,0:0:0:0:
303,172,96319,1,12,0:0:0:0:
421,256,96493,2,0,L|505:263,1,85,2|4,0:0|0:0,0:0:0:0:
394,95,96842,101,2,0:0:0:0:
338,248,97017,1,12,0:0:0:0:
394,95,97191,1,2,0:0:0:0:
338,248,97366,2,0,L|253:255,1,85,4|2,0:0|0:0,0:0:0:0:
204,324,97714,1,12,0:0:0:0:
132,169,97889,2,0,L|217:177,1,85,2|4,0:0|0:0,0:0:0:0:
83,238,98238,5,2,0:0:0:0:
48,161,98412,1,12,0:0:0:0:
97,91,98587,1,2,0:0:0:0:
182,98,98761,2,0,L|266:90,1,85,4|2,0:0|0:0,0:0:0:0:
350,82,99110,1,12,0:0:0:0:
217,177,99284,2,0,L|132:169,1,85,2|4,0:0|0:0,0:0:0:0:
253,254,99633,101,2,0:0:0:0:
339,262,99807,1,12,0:0:0:0:
388,192,99982,1,2,0:0:0:0:
351,114,100156,2,0,P|345:73|358:33,1,85,4|2,0:0|0:0,0:0:0:0:
464,159,100505,1,12,0:0:0:0:
512,73,100680,2,0,L|428:81,1,85,2|4,0:0|0:0,0:0:0:0:
271,99,101028,5,2,0:0:0:0:
365,225,101203,1,12,0:0:0:0:
427,81,101377,1,2,0:0:0:0:
271,99,101552,102,0,L|186:91,1,85,4|2,0:0|0:0,0:0:0:0:
88,229,101900,2,0,L|172:236,1,85,12|2,0:0|0:0,0:0:0:0:
186,91,102249,1,4,0:0:0:0:
137,160,102424,1,2,0:0:0:0:
258,247,102598,5,12,0:0:0:0:
222,169,102773,1,2,0:0:0:0:
391,183,102947,102,0,L|306:175,1,85,4|2,0:0|0:0,0:0:0:0:
355,91,103296,2,0,L|271:99,1,85,12|2,0:0|0:0,0:0:0:0:
137,160,103645,2,0,L|142:224,2,42.5,8|8|8,0:0|0:0|0:0,0:0:0:0:
148,16,103993,2,0,L|234:23,1,85,8|8,0:0|0:0,0:0:0:0:
391,183,104342,21,6,0:0:0:0:
391,183,105040,5,6,0:0:0:0:
391,183,105738,101,6,0:0:0:0:
400,304,106261,5,8,0:0:0:0:
391,183,106435,1,8,0:0:0:0:
290,251,106610,2,0,L|205:258,1,85,8|8,0:0|0:0,0:0:0:0:
111,129,106959,2,0,L|196:137,1,85,6|0,0:0|0:0,0:0:0:0:
288,144,107307,1,10,0:0:0:0:
298,344,107482,70,0,L|290:251,1,93.5000028533936,10|10,0:0|0:0,0:0:0:0:
196,137,107831,6,0,L|187:238,1,101.999996887207,10|10,0:0|0:0,0:0:0:0:
60,324,108180,102,0,L|49:202,1,110.499994941712,10|10,0:0|0:0,0:0:0:0:
203,52,108528,5,14,0:0:0:0:
203,52,109226,101,8,0:0:0:0:
297,66,109400,2,0,L|300:23,2,42.5,8|8|8,0:0|0:0|0:0,0:0:0:0:
391,80,109749,2,0,L|394:37,1,42.5,8|8,0:0|0:0,0:0:0:0:
332,155,109924,54,0,L|340:256,1,101.999996887207,6|2,0:0|0:0,0:0:0:0:
431,299,110273,5,12,0:0:0:0:
250,213,110447,2,0,P|201:199|135:227,1,101.999996887207,2|4,0:0|0:0,0:0:0:0:
155,382,110796,1,2,0:0:0:0:
202,297,110970,1,12,0:0:0:0:
153,213,111145,1,2,0:0:0:0:
253,381,111319,101,6,0:0:0:0:
250,213,111493,1,2,0:0:0:0:
155,382,111668,1,12,0:0:0:0:
153,213,111842,2,0,P|140:163|83:120,1,101.999996887207,2|4,0:0|0:0,0:0:0:0:
55,215,112192,1,2,0:0:0:0:
199,126,112366,2,0,L|300:135,1,101.999996887207,12|2,0:0|0:0,0:0:0:0:
342,227,112714,5,6,0:0:0:0:
258,43,112889,1,2,0:0:0:0:
460,62,113063,1,12,0:0:0:0:
241,219,113238,101,2,0:0:0:0:
359,51,113412,1,4,0:0:0:0:
445,238,113587,1,2,0:0:0:0:
300,135,113761,1,12,0:0:0:0:
461,61,113935,1,2,0:0:0:0:
341,227,114110,6,0,P|244:220|199:133,1,203.999993774414,6|12,0:0|0:0,0:0:0:0:
252,47,114633,1,2,0:0:0:0:
341,227,114807,2,0,L|332:328,1,101.999996887207,4|2,0:0|0:0,0:0:0:0:
300,135,115156,1,12,0:0:0:0:
445,238,115331,2,0,L|495:233,1,50.9999984436036,2|0,0:0|0:0,0:0:0:0:
332,328,115505,102,0,L|128:345,1,203.999993774414,6|12,0:0|0:0,0:0:0:0:
26,353,116028,1,2,0:0:0:0:
112,169,116203,1,4,0:0:0:0:
128,345,116377,1,2,0:0:0:0:
70,261,116552,1,12,0:0:0:0:
171,252,116726,6,0,L|272:243,1,101.999996887207,2|6,0:0|0:0,0:0:0:0:
128,345,117075,1,2,0:0:0:0:
70,261,117250,1,12,0:0:0:0:
111,168,117424,2,0,P|95:121|57:88,1,101.999996887207,2|4,0:0|0:0,0:0:0:0:
12,177,117773,1,2,0:0:0:0:
70,261,117948,1,12,0:0:0:0:
171,252,118121,101,2,0:0:0:0:
157,77,118296,1,6,0:0:0:0:
12,177,118471,1,2,0:0:0:0:
273,243,118645,5,12,0:0:0:0:
256,67,118819,1,2,0:0:0:0:
112,169,118993,1,4,0:0:0:0:
171,252,119168,2,0,L|165:315,2,50.9999984436036,8|8|12,0:0|0:0|0:0,0:0:0:0:
273,243,119517,1,2,0:0:0:0:
317,151,119691,102,0,L|418:142,1,101.999996887207,6|8,0:0|0:0,0:0:0:0:
491,235,120040,1,12,0:0:0:0:
374,251,120214,2,0,L|273:243,1,101.999996887207,6|0,0:0|0:0,0:0:0:0:
214,160,120563,2,0,L|218:109,1,50.9999984436036,8|8,0:0|0:0,0:0:0:0:
171,252,120738,2,0,L|166:302,1,50.9999984436036,8|8,0:0|0:0,0:0:0:0:
112,169,120912,2,0,L|116:118,1,50.9999984436036,8|8,0:0|0:0,0:0:0:0:
11,183,121087,6,0,P|30:230|70:261,1,101.999996887207,6|2,0:0|0:0,0:0:0:0:
171,252,121435,1,12,0:0:0:0:
218,109,121610,2,0,L|116:117,1,101.999996887207,2|4,0:0|0:0,0:0:0:0:
278,193,121959,1,2,0:0:0:0:
321,100,122133,1,12,0:0:0:0:
158,25,122307,101,2,0:0:0:0:
218,109,122481,1,6,0:0:0:0:
364,7,122656,5,2,0:0:0:0:
262,17,122831,1,12,0:0:0:0:
385,178,123005,2,0,P|420:86|364:7,1,203.999993774414,2|2,0:0|0:0,0:0:0:0:
219,108,123528,2,0,L|321:100,1,101.999996887207,12|2,0:0|0:0,0:0:0:0:
175,200,123877,101,6,0:0:0:0:
156,28,124051,1,2,0:0:0:0:
277,191,124226,1,12,0:0:0:0:
262,17,124400,1,2,0:0:0:0:
118,117,124575,2,0,P|124:66|156:29,1,101.999996887207,4|2,0:0|0:0,0:0:0:0:
175,200,124924,1,12,0:0:0:0:
73,208,125098,1,2,0:0:0:0:
133,299,125273,6,0,L|234:307,1,101.999996887207,6|2,0:0|0:0,0:0:0:0:
336,317,125621,1,12,0:0:0:0:
292,225,125796,1,2,0:0:0:0:
234,307,125970,1,4,0:0:0:0:
394,235,126145,1,2,0:0:0:0:
249,131,126319,1,12,0:0:0:0:
336,317,126493,2,0,L|331:367,1,50.9999984436036,2|0,0:0|0:0,0:0:0:0:
394,235,126668,102,0,L|402:133,1,101.999996887207,6|2,0:0|0:0,0:0:0:0:
240,29,127017,2,0,L|249:131,1,101.999996887207,12|2,0:0|0:0,0:0:0:0:
165,189,127366,1,4,0:0:0:0:
156,87,127540,1,2,0:0:0:0:
256,232,127714,1,12,0:0:0:0:
72,145,127889,1,2,0:0:0:0:
249,131,128063,6,0,L|350:122,1,101.999996887207,6|2,0:0|0:0,0:0:0:0:
240,29,128412,1,12,0:0:0:0:
156,86,128587,2,0,P|144:136|162:189,1,101.999996887207,2|4,0:0|0:0,0:0:0:0:
256,232,128935,1,2,0:0:0:0:
249,131,129110,1,12,0:0:0:0:
156,86,129284,1,2,0:0:0:0:
170,290,129459,102,0,P|231:333|305:323,1,152.999995330811,6|0,0:0|0:0,0:0:0:0:
341,295,129807,1,12,0:0:0:0:
256,232,129982,1,2,0:0:0:0:
84,348,130156,6,0,L|70:195,1,152.999995330811,6|0,0:0|0:0,0:0:0:0:
66,150,130505,1,12,0:0:0:0:
256,232,130680,1,0,0:0:0:0:
162,191,130854,2,0,L|153:89,1,101.999996887207,12|2,0:0|0:0,0:0:0:0:
256,232,131203,1,12,0:0:0:0:
170,290,131377,1,2,0:0:0:0:
249,129,131552,1,6,0:0:0:0:
349,277,131726,2,0,L|353:327,2,50.9999984436036,8|8|12,0:0|0:0|0:0,0:0:0:0:
342,174,132075,1,8,0:0:0:0:
170,290,132249,101,6,0:0:0:0:
249,129,132424,1,8,0:0:0:0:
349,277,132598,1,12,0:0:0:0:
156,84,132773,1,6,0:0:0:0:
170,290,133121,5,8,0:0:0:0:
249,129,133296,1,8,0:0:0:0:
349,277,133470,1,12,0:0:0:0:
170,290,133819,101,2,0:0:0:0:
249,129,133994,1,12,0:0:0:0:
349,277,134342,5,6,0:0:0:0:
349,277,135040,6,0,L|433:284,1,85,6|0,0:0|0:0,0:0:0:0:
313,199,135389,1,12,0:0:0:0:
264,268,135563,1,8,0:0:0:0:
395,204,135738,2,0,P|388:162|362:130,1,85,2|4,0:0|0:0,0:0:0:0:
243,47,136087,2,0,P|250:89|277:122,1,85,12|4,0:0|0:0,0:0:0:0:
412,48,136435,6,0,L|328:56,1,85,2|4,0:0|0:0,0:0:0:0:
460,117,136784,1,12,0:0:0:0:
495,39,136958,1,8,0:0:0:0:
362,130,137133,2,0,L|354:214,1,85,2|4,0:0|0:0,0:0:0:0:
277,122,137482,1,12,0:0:0:0:
328,56,137656,2,0,L|370:52,1,42.5,4|0,0:0|0:0,0:0:0:0:
277,122,137831,102,0,L|192:114,1,85,2|4,0:0|0:0,0:0:0:0:
142,183,138180,1,12,0:0:0:0:
227,191,138354,1,8,0:0:0:0:
102,108,138528,2,0,P|70:136|57:176,1,85,2|4,0:0|0:0,0:0:0:0:
192,114,138877,1,12,0:0:0:0:
157,37,139051,1,4,0:0:0:0:
142,183,139226,6,0,L|149:267,1,85,2|4,0:0|0:0,0:0:0:0:
227,191,139575,2,0,L|234:275,1,85,12|2,0:0|0:0,0:0:0:0:
311,310,139924,2,0,L|353:313,2,42.5,2|8|8,0:0|0:0|0:0,0:0:0:0:
149,267,140273,2,0,L|64:274,1,85,12|8,0:0|0:0,0:0:0:0:
198,352,140621,101,6,0:0:0:0:
234,275,140795,1,0,0:0:0:0:
269,197,140970,1,12,0:0:0:0:
311,310,141145,1,8,0:0:0:0:
184,200,141319,2,0,P|192:158|219:127,1,85,2|4,0:0|0:0,0:0:0:0:
354,190,141668,1,12,0:0:0:0:
269,197,141842,1,4,0:0:0:0:
389,112,142017,6,0,L|473:119,1,85,2|4,0:0|0:0,0:0:0:0:
354,190,142366,1,12,0:0:0:0:
305,120,142540,1,8,0:0:0:0:
440,182,142714,2,0,L|432:266,1,85,2|4,0:0|0:0,0:0:0:0:
389,112,143063,2,0,L|396:27,1,85,12|4,0:0|0:0,0:0:0:0:
354,190,143412,102,0,L|269:197,1,85,2|4,0:0|0:0,0:0:0:0:
257,51,143761,1,12,0:0:0:0:
305,120,143935,1,8,0:0:0:0:
172,58,144110,2,0,L|87:65,1,85,2|4,0:0|0:0,0:0:0:0:
184,189,144459,2,0,L|269:197,1,85,12|4,0:0|0:0,0:0:0:0:
99,182,144807,5,6,0:0:0:0:
219,266,144982,2,0,L|222:308,2,42.5,8|8|8,0:0|0:0|0:0,0:0:0:0:
233,119,145331,1,12,0:0:0:0:
269,197,145505,1,2,0:0:0:0:
135,258,145680,1,12,0:0:0:0:
184,189,145854,1,12,0:0:0:0:
304,274,146028,1,2,0:0:0:0:
233,119,146203,37,6,0:0:0:0:
233,119,146900,5,6,0:0:0:0:
233,119,147598,101,6,0:0:0:0:
232,0,148121,85,2,0:0:0:0:
233,119,148296,1,8,0:0:0:0:
130,61,148470,2,0,L|45:68,1,85,8|8,0:0|0:0,0:0:0:0:
233,119,148819,2,0,L|317:127,1,85,6|0,0:0|0:0,0:0:0:0:
219,266,149168,1,6,0:0:0:0:
183,188,149342,1,12,0:0:0:0:
353,205,149517,5,4,0:0:0:0:
304,276,149691,2,0,L|319:359,1,85,2|2,0:0|0:0,0:0:0:0:
219,266,150040,1,14,0:0:0:0:
353,205,150214,2,0,L|437:210,1,85,6|0,0:0|0:0,0:0:0:0:
304,276,150563,1,6,0:0:0:0:
268,198,150737,1,12,0:0:0:0:
451,65,150912,101,2,0:0:0:0:
402,135,151087,2,0,L|317:127,1,85,4|2,0:0|0:0,0:0:0:0:
281,50,151435,1,10,0:0:0:0:
183,205,151610,2,0,L|268:198,1,85,6|0,0:0|0:0,0:0:0:0:
317,127,151959,1,2,0:0:0:0:
304,276,152133,1,12,0:0:0:0:
183,205,152307,5,0,0:0:0:0:
196,42,152482,2,0,L|281:50,1,85,2|10,0:0|0:0,0:0:0:0:
134,135,152831,1,10,0:0:0:0:
219,283,153005,2,0,L|304:276,1,85,6|0,0:0|0:0,0:0:0:0:
317,127,153354,1,10,0:0:0:0:
219,283,153528,102,0,L|227:376,1,93.5000028533936,10|10,0:0|0:0,0:0:0:0:
369,206,153877,6,0,L|268:198,1,101.999996887207,10|10,0:0|0:0,0:0:0:0:
108,292,154226,102,0,L|219:283,1,110.499994941712,10|10,0:0|0:0,0:0:0:0:
317,127,154575,5,14,0:0:0:0:
317,127,155970,37,14,0:0:0:0:
232,119,156145,1,14,0:0:0:0:
147,111,156319,1,14,0:0:0:0:
62,103,156493,1,14,0:0:0:0:
134,259,157366,5,14,0:0:0:0:
182,189,157541,1,14,0:0:0:0:
232,119,157715,1,14,0:0:0:0:
282,50,157889,1,14,0:0:0:0:
267,196,158238,102,0,L|309:192,1,42.5,8|0,0:0|0:0,0:0:0:0:
393,184,158412,1,12,0:0:0:0:
352,368,158587,2,0,L|352:326,1,42.5,8|8,0:0|0:0,0:0:0:0:
266,344,158761,6,0,L|181:351,1,85,6|0,0:0|0:0,0:0:0:0:
60,265,159110,2,0,L|145:273,1,85,8|8,0:0|0:0,0:0:0:0:
73,118,159459,1,6,0:0:0:0:
24,187,159633,1,0,0:0:0:0:
60,265,159807,1,8,0:0:0:0:
157,125,159982,101,10,0:0:0:0:
37,40,160331,5,10,0:0:0:0:
24,187,160680,101,10,0:0:0:0:
73,118,160854,1,6,0:0:0:0:
157,125,161028,2,0,L|160:82,1,42.5,8|8,0:0|0:0,0:0:0:0:
193,203,161203,2,0,L|189:245,1,42.5,8|8,0:0|0:0,0:0:0:0:
242,132,161377,2,0,L|246:81,1,42.5,8|8,0:0|0:0,0:0:0:0:
277,210,161552,6,0,L|380:219,1,101.999996887207,6|0,0:0|0:0,0:0:0:0:
421,310,161900,1,12,0:0:0:0:
319,301,162075,1,2,0:0:0:0:
437,135,162249,1,4,0:0:0:0:
421,310,162424,1,2,0:0:0:0:
276,208,162598,1,12,0:0:0:0:
437,135,162773,2,0,L|487:138,1,50.9999984436036,2|0,0:0|0:0,0:0:0:0:
394,42,162947,102,0,L|292:33,1,101.999996887207,6|2,0:0|0:0,0:0:0:0:
276,208,163296,1,12,0:0:0:0:
233,114,163471,1,2,0:0:0:0:
378,218,163645,2,0,L|479:226,1,101.999996887207,4|2,0:0|0:0,0:0:0:0:
319,301,163993,1,12,0:0:0:0:
335,125,164168,5,2,0:0:0:0:
421,312,164342,1,6,0:0:0:0:
217,291,164517,1,2,0:0:0:0:
378,218,164691,101,12,0:0:0:0:
217,291,164866,1,2,0:0:0:0:
233,115,165040,1,4,0:0:0:0:
319,301,165214,2,0,L|314:351,2,50.9999984436036,8|8|12,0:0|0:0|0:0,0:0:0:0:
378,218,165563,1,2,0:0:0:0:
217,291,165738,6,0,L|115:282,1,101.999996887207,6|8,0:0|0:0,0:0:0:0:
71,189,166087,1,12,0:0:0:0:
56,365,166261,2,0,L|157:373,1,101.999996887207,6|0,0:0|0:0,0:0:0:0:
217,291,166610,2,0,L|212:240,1,50.9999984436036,8|8,0:0|0:0,0:0:0:0:
318,299,166784,2,0,L|322:349,1,50.9999984436036,8|8,0:0|0:0,0:0:0:0:
376,215,166959,2,0,L|371:164,1,50.9999984436036,8|8,0:0|0:0,0:0:0:0:
275,157,167133,102,0,L|173:148,1,101.999996887207,6|2,0:0|0:0,0:0:0:0:
129,55,167482,1,12,0:0:0:0:
371,164,167656,2,0,P|410:131|425:61,1,101.999996887207,2|4,0:0|0:0,0:0:0:0:
327,75,168006,1,2,0:0:0:0:
212,237,168180,2,0,L|199:337,1,101.999996887207,12|2,0:0|0:0,0:0:0:0:
362,265,168528,6,0,L|371:164,1,101.999996887207,6|2,0:0|0:0,0:0:0:0:
327,75,168877,1,12,0:0:0:0:
173,148,169052,2,0,P|180:198|231:248,1,101.999996887207,2|4,0:0|0:0,0:0:0:0:
272,157,169402,1,0,0:0:0:0:
131,57,169575,1,12,0:0:0:0:
116,230,169749,1,2,0:0:0:0:
230,66,169924,101,6,0:0:0:0:
211,237,170098,1,2,0:0:0:0:
74,139,170273,1,12,0:0:0:0:
230,66,170447,1,2,0:0:0:0:
211,237,170621,2,0,L|219:338,1,101.999996887207,4|2,0:0|0:0,0:0:0:0:
116,230,170970,1,12,0:0:0:0:
173,148,171145,1,2,0:0:0:0:
310,246,171319,6,0,L|411:237,1,101.999996887207,6|2,0:0|0:0,0:0:0:0:
269,156,171668,1,12,0:0:0:0:
211,237,171841,1,2,0:0:0:0:
350,332,172017,1,4,0:0:0:0:
366,159,172191,1,2,0:0:0:0:
109,228,172366,1,12,0:0:0:0:
310,246,172540,2,0,L|360:242,1,50.9999984436036,2|0,0:0|0:0,0:0:0:0:
211,237,172714,102,0,L|220:339,1,101.999996887207,6|2,0:0|0:0,0:0:0:0:
51,312,173063,1,12,0:0:0:0:
7,219,173238,1,2,0:0:0:0:
167,144,173412,1,4,0:0:0:0:
153,321,173587,1,2,0:0:0:0:
67,136,173761,1,12,0:0:0:0:
269,153,173935,1,2,0:0:0:0:
109,228,174110,6,0,L|7:219,1,101.999996887207,6|2,0:0|0:0,0:0:0:0:
167,144,174459,1,12,0:0:0:0:
254,329,174633,2,0,L|355:337,1,101.999996887207,2|4,0:0|0:0,0:0:0:0:
210,236,174982,1,2,0:0:0:0:
151,319,175156,101,12,0:0:0:0:
311,244,175331,1,2,0:0:0:0:
151,319,175505,6,0,P|110:256|122:182,1,152.999995330811,6|0,0:0|0:0,0:0:0:0:
152,148,175853,1,12,0:0:0:0:
211,235,176028,1,2,0:0:0:0:
355,337,176203,102,0,P|406:282|406:207,1,152.999995330811,6|0,0:0|0:0,0:0:0:0:
383,168,176551,1,12,0:0:0:0:
211,235,176726,1,0,0:0:0:0:
489,265,176900,6,0,L|497:163,1,101.999996887207,12|2,0:0|0:0,0:0:0:0:
374,66,177249,2,0,L|383:168,1,101.999996887207,12|2,0:0|0:0,0:0:0:0:
355,337,177598,1,6,0:0:0:0:
211,235,177773,2,0,L|206:184,2,50.9999984436036,8|8|12,0:0|0:0|0:0,0:0:0:0:
355,337,178121,1,8,0:0:0:0:
383,168,178296,101,6,0:0:0:0:
255,329,178470,1,8,0:0:0:0:
383,168,178645,1,12,0:0:0:0:
255,329,178819,1,6,0:0:0:0:
383,168,179168,5,8,0:0:0:0:
255,329,179342,1,8,0:0:0:0:
383,168,179517,1,12,0:0:0:0:
255,329,179866,101,2,0:0:0:0:
383,168,180040,1,12,0:0:0:0:
255,329,180389,5,6,0:0:0:0:
255,329,180738,5,8,0:0:0:0:
125,225,180912,2,0,L|83:229,1,42.5,8|8,0:0|0:0,0:0:0:0:
16,112,181087,6,0,P|60:68|122:69,1,127.5,6|0,0:0|0:0,0:0:0:0:
153,93,181436,1,12,0:0:0:0:
83,229,181610,2,0,L|91:145,1,85,2|4,0:0|0:0,0:0:0:0:
153,280,181959,1,2,0:0:0:0:
75,315,182133,1,12,0:0:0:0:
159,192,182308,2,0,P|200:205|228:235,1,85,2|4,0:0|0:0,0:0:0:0:
220,322,182657,1,2,0:0:0:0:
307,202,182831,102,0,L|314:117,1,85,12|2,0:0|0:0,0:0:0:0:
385,167,183180,2,0,L|392:82,1,85,4|2,0:0|0:0,0:0:0:0:
463,132,183529,2,0,L|470:47,1,85,12|2,0:0|0:0,0:0:0:0:
447,225,183878,6,0,P|390:251|330:233,1,127.5,4|0,0:0|0:0,0:0:0:0:
307,202,184226,1,12,0:0:0:0:
392,82,184401,2,0,L|385:167,1,85,2|4,0:0|0:0,0:0:0:0:
235,152,184750,1,2,0:0:0:0:
306,114,184924,1,12,0:0:0:0:
227,238,185099,2,0,P|186:225|157:194,1,85,2|4,0:0|0:0,0:0:0:0:
166,110,185447,1,2,0:0:0:0:
235,152,185622,101,12,0:0:0:0:
158,194,185796,1,2,0:0:0:0:
81,67,185971,2,0,L|89:152,1,85,4|2,0:0|0:0,0:0:0:0:
10,115,186319,2,0,L|17:199,1,85,12|2,0:0|0:0,0:0:0:0:
146,321,186668,6,0,L|158:194,1,127.5,6|0,0:0|0:0,0:0:0:0:
160,155,187017,1,12,0:0:0:0:
320,224,187192,2,0,L|236:231,1,85,2|4,0:0|0:0,0:0:0:0:
356,147,187540,1,2,0:0:0:0:
405,217,187715,1,12,0:0:0:0:
284,296,187889,2,0,P|292:255|319:224,1,85,2|4,0:0|0:0,0:0:0:0:
405,217,188238,1,2,0:0:0:0:
375,378,188412,102,0,L|368:294,1,85,12|2,0:0|0:0,0:0:0:0:
291,380,188761,2,0,L|284:296,1,85,4|2,0:0|0:0,0:0:0:0:
207,382,189110,2,0,L|200:298,1,85,12|2,0:0|0:0,0:0:0:0:
73,210,189459,6,0,L|200:221,1,127.5,4|0,0:0|0:0,0:0:0:0:
239,223,189808,1,12,0:0:0:0:
115,291,189982,2,0,L|31:284,1,85,2|4,0:0|0:0,0:0:0:0:
151,367,190331,1,2,0:0:0:0:
199,297,190506,101,12,0:0:0:0:
77,219,190680,2,0,P|86:260|115:291,1,85,6|4,0:0|0:0,0:0:0:0:
279,300,191029,2,0,P|239:287|199:297,1,85,6|12,0:0|0:0,0:0:0:0:
151,367,191378,1,10,0:0:0:0:
160,221,191552,2,0,L|156:178,1,42.5,10|8,0:0|0:0,0:0:0:0:
201,61,191726,2,0,L|198:104,1,42.5,8|8,0:0|0:0,0:0:0:0:
240,216,191900,1,12,0:0:0:0:
281,56,192075,1,8,0:0:0:0:
320,211,192249,5,14,0:0:0:0:
362,137,192424,1,10,0:0:0:0:
436,180,192598,1,10,0:0:0:0:
393,254,192773,1,6,0:0:0:0:
240,302,193121,101,14,0:0:0:0:
121,193,193470,5,14,0:0:0:0:
256,192,193557,12,0,194342,0:0:0:0:
