osu file format v14

[General]
AudioFilename: audio.mp3
AudioLeadIn: 0
PreviewTime: 44604
Countdown: 0
SampleSet: Soft
StackLeniency: 0.2
Mode: 0
LetterboxInBreaks: 0
WidescreenStoryboard: 0

[Editor]
Bookmarks: 17831,28993,40156,45738,70854,82017,87598,93180,104342,109924,135040,146203,154575,155970,161552
DistanceSpacing: 1
BeatDivisor: 4
GridSize: 8
TimelineZoom: 1.4

[Metadata]
Title:Binetsu kara Mystery
TitleUnicode:微熱からMystery
Artist:lily white
ArtistUnicode:lily white
Creator:newton-
Version:Fever Pitch
Source:ラブライブ! School idol project
Tags:u's μ's love live! live lovelive lovelive! 園田海未 sonoda umi 三森すずこ mimori suzuko 星空凛 hoshizora rin 飯田里穂 iida riho 東條希 toujou nozomi 楠田亜衣奈 kusuda aina
BeatmapID:1320115
BeatmapSetID:626313

[Difficulty]
HPDrainRate:7
CircleSize:4.2
OverallDifficulty:9
ApproachRate:9.2
SliderMultiplier:1.7
SliderTickRate:1

[Events]
//Background and Video events
0,0,"background.jpg",0,0
//Break Periods
//Storyboard Layer 0 (Background)
//Storyboard Layer 1 (Fail)
//Storyboard Layer 2 (Pass)
//Storyboard Layer 3 (Foreground)
//Storyboard Sound Samples

[TimingPoints]
1087,348.837209302326,4,2,1,60,1,0
6668,-100,4,2,91,60,0,0
7017,-100,4,2,90,60,0,0
12249,-100,4,2,91,60,0,0
12424,-100,4,2,90,60,0,0
16261,-200,4,2,91,60,0,0
16435,-200,4,2,90,60,0,0
16610,-200,4,2,91,60,0,0
16784,-200,4,2,90,60,0,0
16959,-200,4,2,92,60,0,0
17133,-200,4,2,93,60,0,0
17831,-100,4,2,91,60,0,0
18180,-100,4,2,90,50,0,0
22714,-100,4,2,92,50,0,0
22889,-100,4,2,90,50,0,0
23238,-100,4,2,93,50,0,0
23412,-100,4,2,91,50,0,0
23761,-100,4,2,90,50,0,0
28470,-100,4,2,92,50,0,0
28645,-100,4,2,93,50,0,0
28993,-100,4,2,91,50,0,0
29168,-100,4,2,99,50,0,0
31784,-100,4,2,91,50,0,0
31959,-100,4,2,99,50,0,0
34575,-100,4,2,91,50,0,0
34749,-100,4,2,99,50,0,0
37366,-100,4,2,91,50,0,0
37540,-100,4,2,99,50,0,0
39633,-100,4,2,94,50,0,0
39807,-100,4,2,92,50,0,0
39982,-100,4,2,93,50,0,0
40156,-100,4,2,91,50,0,0
42075,-100,4,2,90,50,0,0
42424,-100,4,2,92,70,0,0
42598,-100,4,2,93,70,0,0
42773,-100,4,2,91,70,0,0
43121,-100,4,2,90,70,0,0
44342,-100,4,2,91,70,0,0
44691,-200,4,2,91,70,0,0
45650,-200,4,2,91,5,0,0
45738,-83.3333333333333,4,2,91,80,0,1
45912,-83.3333333333333,4,2,90,80,0,1
50970,-83.3333333333333,4,2,91,80,0,1
51668,-83.3333333333333,4,2,90,80,0,1
54459,-83.3333333333333,4,2,91,80,0,1
54633,-83.3333333333333,4,2,90,80,0,1
56028,-83.3333333333333,4,2,91,80,0,1
56202,-83.3333333333333,4,2,90,80,0,1
56552,-83.3333333333333,4,2,92,80,0,0
56726,-83.3333333333333,4,2,93,80,0,0
56900,-83.3333333333333,4,2,91,80,0,1
57074,-83.3333333333333,4,2,90,80,0,1
62133,-83.3333333333333,4,2,91,80,0,1
62831,-83.3333333333333,4,2,90,80,0,1
65273,-83.3333333333333,4,2,91,80,0,1
65447,-83.3333333333333,4,2,90,80,0,1
65970,-83.3333333333333,4,2,91,80,0,1
66144,-83.3333333333333,4,2,90,80,0,1
66668,-83.3333333333333,4,2,91,80,0,1
66842,-83.3333333333333,4,2,90,80,0,1
67366,-83.3333333333333,4,2,91,80,0,1
67540,-83.3333333333333,4,2,90,80,0,1
67627,-83.3333333333333,4,2,94,80,0,1
67714,-83.3333333333333,4,2,92,80,0,1
67889,-83.3333333333333,4,2,93,80,0,1
68063,-83.3333333333333,4,2,91,80,0,1
68238,-83.3333333333333,4,2,92,80,0,1
68412,-83.3333333333333,4,2,93,80,0,1
68587,-83.3333333333333,4,2,91,80,0,1
68935,-83.3333333333333,4,2,92,80,0,1
69109,-83.3333333333333,4,2,93,80,0,1
69284,-83.3333333333333,4,2,91,80,0,1
69807,-83.3333333333333,4,2,90,80,0,1
70156,-83.3333333333333,4,2,90,60,0,1
70854,-100,4,2,91,60,0,0
71203,-100,4,2,90,60,0,0
76435,-100,4,2,91,60,0,0
76610,-100,4,2,90,60,0,0
80447,-200,4,2,91,60,0,0
80621,-200,4,2,90,60,0,0
80796,-200,4,2,91,60,0,0
80970,-200,4,2,90,60,0,0
81145,-200,4,2,92,60,0,0
81319,-200,4,2,93,60,0,0
81493,-200,4,2,90,60,0,0
81668,-200,4,2,92,60,0,0
81842,-200,4,2,93,60,0,0
82017,-125,4,2,91,60,0,0
82366,-125,4,2,90,50,0,0
87249,-125,4,2,92,50,0,0
87424,-125,4,2,93,50,0,0
87598,-100,4,2,91,50,0,0
87947,-100,4,2,90,50,0,0
92656,-100,4,2,92,50,0,0
92831,-100,4,2,93,50,0,0
93008,-100,4,2,91,50,0,0
93528,-100,4,2,99,50,0,0
95970,-100,4,2,91,50,0,0
96145,-100,4,2,99,50,0,0
98761,-100,4,2,91,50,0,0
98935,-100,4,2,99,50,0,0
101552,-100,4,2,91,50,0,0
101726,-100,4,2,99,50,0,0
103819,-100,4,2,94,50,0,0
103993,-100,4,2,92,50,0,0
104168,-100,4,2,93,50,0,0
104342,-100,4,2,91,50,0,0
106261,-100,4,2,90,70,0,0
106610,-100,4,2,92,70,0,0
106784,-100,4,2,93,70,0,0
106959,-100,4,2,91,70,0,0
107307,-100,4,2,90,70,0,0
108528,-100,4,2,91,70,0,0
109226,-100,4,2,90,70,0,0
109575,-100,4,2,92,70,0,0
109749,-100,4,2,90,70,0,0
109924,-83.3333333333333,4,2,91,80,0,1
110098,-83.3333333333333,4,2,90,80,0,1
115156,-83.3333333333333,4,2,91,80,0,1
115854,-83.3333333333333,4,2,90,80,0,1
118645,-83.3333333333333,4,2,91,80,0,1
118819,-83.3333333333333,4,2,90,80,0,1
120214,-83.3333333333333,4,2,91,80,0,1
120388,-83.3333333333333,4,2,90,80,0,1
120738,-83.3333333333333,4,2,92,80,0,0
120912,-83.3333333333333,4,2,93,80,0,0
121086,-83.3333333333333,4,2,91,80,0,0
121087,-83.3333333333333,4,2,91,80,0,1
121260,-83.3333333333333,4,2,90,80,0,1
126319,-83.3333333333333,4,2,91,80,0,1
127017,-83.3333333333333,4,2,90,80,0,1
129459,-83.3333333333333,4,2,91,80,0,1
129633,-83.3333333333333,4,2,90,80,0,1
130156,-83.3333333333333,4,2,91,80,0,1
130330,-83.3333333333333,4,2,90,80,0,1
130854,-83.3333333333333,4,2,91,80,0,1
131028,-83.3333333333333,4,2,90,80,0,1
131552,-83.3333333333333,4,2,91,80,0,1
131726,-83.3333333333333,4,2,90,80,0,1
131813,-83.3333333333333,4,2,94,80,0,1
131900,-83.3333333333333,4,2,92,80,0,1
132075,-83.3333333333333,4,2,93,80,0,1
132249,-83.3333333333333,4,2,91,80,0,1
132424,-83.3333333333333,4,2,92,80,0,1
132598,-83.3333333333333,4,2,93,80,0,1
132773,-83.3333333333333,4,2,91,80,0,1
133121,-83.3333333333333,4,2,92,80,0,1
133295,-83.3333333333333,4,2,93,80,0,1
133470,-83.3333333333333,4,2,91,80,0,1
133993,-83.3333333333333,4,2,90,80,0,1
134342,-83.3333333333333,4,2,90,60,0,1
135040,-83.3333333333333,4,2,91,60,0,0
135389,-83.3333333333333,4,2,90,60,0,0
140447,-83.3333333333333,4,2,92,60,0,0
140621,-83.3333333333333,4,2,91,60,0,0
140970,-83.3333333333333,4,2,90,60,0,0
144807,-83.3333333333333,4,2,91,60,0,0
144982,-83.3333333333333,4,2,90,60,0,0
145680,-83.3333333333333,4,2,92,60,0,0
145854,-83.3333333333333,4,2,93,60,0,0
146203,-83.3333333333333,4,2,91,60,0,0
148296,-83.3333333333333,4,2,94,60,0,0
148470,-83.3333333333333,4,2,92,60,0,0
148645,-83.3333333333333,4,2,93,60,0,0
148819,-83.3333333333333,4,2,91,60,0,0
149168,-83.3333333333333,4,2,90,60,0,0
150214,-83.3333333333333,4,2,91,60,0,0
150563,-83.3333333333333,4,2,90,60,0,0
151610,-83.3333333333333,4,2,91,60,0,0
151959,-83.3333333333333,4,2,90,60,0,0
153005,-83.3333333333333,4,2,91,60,0,0
153528,-83.3333333333333,4,2,90,70,0,0
155970,-83.3333333333333,4,2,90,60,0,0
158238,-83.3333333333333,4,2,92,60,0,0
158412,-83.3333333333333,4,2,93,60,0,0
158587,-83.3333333333333,4,2,90,60,0,0
158761,-83.3333333333333,4,2,91,60,0,0
159110,-83.3333333333333,4,2,92,60,0,0
159284,-83.3333333333333,4,2,93,60,0,0
159459,-83.3333333333333,4,2,91,60,0,0
159807,-83.3333333333333,4,2,93,60,0,0
159982,-83.3333333333333,4,2,90,60,0,0
161203,-83.3333333333333,4,2,92,60,0,0
161552,-83.3333333333333,4,2,91,80,0,1
161726,-83.3333333333333,4,2,90,80,0,1
164342,-83.3333333333333,4,2,91,80,0,1
164516,-83.3333333333333,4,2,90,80,0,1
165040,-83.3333333333333,4,2,91,80,0,1
165214,-83.3333333333333,4,2,90,80,0,1
166261,-83.3333333333333,4,2,91,80,0,1
166435,-83.3333333333333,4,2,90,80,0,1
166784,-83.3333333333333,4,2,92,80,0,0
166958,-83.3333333333333,4,2,93,80,0,0
167132,-83.3333333333333,4,2,91,80,0,0
167133,-83.3333333333333,4,2,91,80,0,1
167306,-83.3333333333333,4,2,90,80,0,1
172365,-83.3333333333333,4,2,91,80,0,1
173063,-83.3333333333333,4,2,90,80,0,1
175505,-83.3333333333333,4,2,91,80,0,1
175679,-83.3333333333333,4,2,90,80,0,1
176202,-83.3333333333333,4,2,91,80,0,1
176376,-83.3333333333333,4,2,90,80,0,1
176900,-83.3333333333333,4,2,91,80,0,1
177074,-83.3333333333333,4,2,90,80,0,1
177598,-83.3333333333333,4,2,91,80,0,1
177772,-83.3333333333333,4,2,90,80,0,1
177859,-83.3333333333333,4,2,94,80,0,1
177946,-83.3333333333333,4,2,92,80,0,1
178121,-83.3333333333333,4,2,93,80,0,1
178295,-83.3333333333333,4,2,91,80,0,1
178470,-83.3333333333333,4,2,92,80,0,1
178644,-83.3333333333333,4,2,93,80,0,1
178819,-83.3333333333333,4,2,91,80,0,1
179167,-83.3333333333333,4,2,92,80,0,1
179341,-83.3333333333333,4,2,93,80,0,1
179516,-83.3333333333333,4,2,91,80,0,1
180039,-83.3333333333333,4,2,90,80,0,1
180389,-83.3333333333333,4,2,90,60,0,1
181087,-100,4,2,91,60,0,0
181436,-100,4,2,90,60,0,0
186668,-100,4,2,91,60,0,0
186843,-100,4,2,90,60,0,0
190680,-100,4,2,91,60,0,0
190854,-100,4,2,90,60,0,0
191029,-100,4,2,91,60,0,0
191203,-100,4,2,90,60,0,0
191378,-100,4,2,92,60,0,0
191552,-100,4,2,93,60,0,0
191639,-100,4,2,90,60,0,0
191900,-100,4,2,92,60,0,0
192075,-100,4,2,93,60,0,0
192249,-100,4,2,90,60,0,0
192424,-100,4,2,92,60,0,0
192598,-100,4,2,93,60,0,0
193121,-100,4,2,90,60,0,0
193470,-166.666666666667,4,2,91,60,0,0
194342,-166.666666666667,4,2,91,5,0,0

[Colours]
Combo1 : 128,128,128
Combo2 : 0,102,204
Combo3 : 0,64,128
Combo4 : 96,0,191
Combo5 : 64,0,128
Combo6 : 255,158,62
Combo7 : 234,117,0
Combo8 : 192,192,192

[HitObjects]
348,44,1087,101,0,0:0:0:0:
363,214,1261,1,0,0:0:0:0:
278,93,1435,1,0,0:0:0:0:
433,165,1610,1,0,0:0:0:0:
286,177,1784,1,0,0:0:0:0:
424,79,1959,1,0,0:0:0:0:
286,177,2133,1,0,0:0:0:0:
433,165,2307,6,0,P|486:138|509:93,1,85,0|0,0:0|0:0,0:0:0:0:
363,214,2656,2,0,P|412:247|463:244,1,85,0|0,0:0|0:0,0:0:0:0:
434,165,3005,1,0,0:0:0:0:
293,263,3180,1,0,0:0:0:0:
278,93,3354,1,0,0:0:0:0:
433,165,3528,2,0,P|486:138|509:93,1,85,0|0,0:0|0:0,0:0:0:0:
278,93,3877,101,0,0:0:0:0:
293,263,4052,1,0,0:0:0:0:
356,130,4226,1,0,0:0:0:0:
216,226,4400,1,0,0:0:0:0:
363,214,4574,1,0,0:0:0:0:
209,142,4749,1,0,0:0:0:0:
363,214,4924,1,0,0:0:0:0:
216,226,5098,6,0,P|156:208|132:173,1,85,0|0,0:0|0:0,0:0:0:0:
293,263,5447,2,0,P|247:305|205:311,1,85,0|0,0:0|0:0,0:0:0:0:
216,226,5796,1,0,0:0:0:0:
370,300,5970,2,0,L|378:395,1,85,0|0,0:0|0:0,0:0:0:0:
216,226,6319,2,0,L|208:141,1,85,0|0,0:0|0:0,0:0:0:0:
227,311,6668,6,0,P|266:295|293:263,1,85,6|0,0:0|0:0,0:0:0:0:
208,141,7017,1,12,0:0:0:0:
148,275,7191,2,0,P|141:316|154:356,1,85,2|4,0:0|0:0,0:0:0:0:
226,309,7540,1,2,0:0:0:0:
70,241,7714,1,12,0:0:0:0:
226,309,7889,6,0,B|271:306|293:262|293:262|327:306|393:289,1,170,2|2,0:0|0:0,0:0:0:0:
425,159,8412,2,0,P|386:174|360:207,1,85,12|2,0:0|0:0,0:0:0:0:
366,293,8761,1,4,0:0:0:0:
438,243,8935,1,2,0:0:0:0:
281,171,9110,2,0,L|193:178,1,85,12|2,0:0|0:0,0:0:0:0:
30,151,9459,102,0,L|114:144,1,85,4|0,0:0|0:0,0:0:0:0:
183,90,9807,1,12,0:0:0:0:
200,262,9982,2,0,P|173:293|134:310,1,85,2|4,0:0|0:0,0:0:0:0:
125,226,10331,1,2,0:0:0:0:
277,298,10505,1,12,0:0:0:0:
125,226,10680,6,0,B|102:186|115:145|115:145|83:104|103:54,1,170,2|2,0:0|0:0,0:0:0:0:
200,262,11203,2,0,P|173:293|134:310,1,85,12|2,0:0|0:0,0:0:0:0:
195,179,11552,2,0,P|236:187|270:212,1,85,4|2,0:0|0:0,0:0:0:0:
66,361,11900,2,0,P|52:320|57:278,1,85,12|2,0:0|0:0,0:0:0:0:
114,145,12249,102,0,P|118:103|104:63,1,85,6|0,0:0|0:0,0:0:0:0:
25,28,12598,1,12,0:0:0:0:
128,234,12773,2,0,P|166:216|194:184,1,85,2|4,0:0|0:0,0:0:0:0:
114,145,13121,1,2,0:0:0:0:
142,323,13296,1,12,0:0:0:0:
272,213,13470,6,0,B|224:215|193:184|193:184|170:224|128:234,1,170,2|2,0:0|0:0,0:0:0:0:
353,239,13993,2,0,P|354:196|337:158,1,85,12|2,0:0|0:0,0:0:0:0:
272,213,14342,1,4,0:0:0:0:
288,297,14517,1,2,0:0:0:0:
437,232,14691,2,0,L|349:239,1,85,12|2,0:0|0:0,0:0:0:0:
258,128,15040,102,0,P|283:94|321:75,1,85,4|0,0:0|0:0,0:0:0:0:
337,158,15389,1,12,0:0:0:0:
194,182,15563,2,0,P|177:143|179:101,1,85,2|4,0:0|0:0,0:0:0:0:
337,158,15912,2,0,P|353:196|351:238,1,85,2|12,0:0|0:0,0:0:0:0:
258,128,16261,6,0,B|281:93|281:93|321:75,2,85,6|6|10,0:0|0:0|0:0,0:0:0:0:
288,297,17133,1,10,0:0:0:0:
288,297,17831,6,0,P|324:318|365:322,1,85,6|0,0:0|0:0,0:0:0:0:
337,158,18180,1,12,0:0:0:0:
337,158,18354,1,8,0:0:0:0:
210,271,18528,2,0,P|209:313|226:351,1,85,2|4,0:0|0:0,0:0:0:0:
350,239,18877,1,12,0:0:0:0:
350,239,19052,1,4,0:0:0:0:
193,190,19226,6,0,P|156:210|131:244,1,85,2|4,0:0|0:0,0:0:0:0:
288,297,19575,1,12,0:0:0:0:
288,297,19749,1,8,0:0:0:0:
193,190,19924,1,2,0:0:0:0:
210,271,20098,1,4,0:0:0:0:
254,134,20273,2,0,P|217:112|176:108,1,85,12|4,0:0|0:0,0:0:0:0:
46,251,20621,102,0,L|133:243,1,85,2|4,0:0|0:0,0:0:0:0:
193,190,20970,1,12,0:0:0:0:
193,190,21145,1,8,0:0:0:0:
288,297,21319,2,0,P|305:335|304:377,1,85,2|4,0:0|0:0,0:0:0:0:
210,271,21668,2,0,P|233:237|271:217,1,85,12|4,0:0|0:0,0:0:0:0:
225,351,22017,5,2,0:0:0:0:
271,216,22191,1,4,0:0:0:0:
304,377,22366,1,12,0:0:0:0:
210,271,22540,1,2,0:0:0:0:
349,243,22714,1,10,0:0:0:0:
349,243,22889,1,12,0:0:0:0:
225,351,23063,2,0,P|184:348|147:325,1,85,12|10,0:0|0:0,0:0:0:0:
202,186,23412,102,0,L|210:273,1,85,6|0,0:0|0:0,0:0:0:0:
294,296,23761,1,12,0:0:0:0:
294,296,23935,1,8,0:0:0:0:
264,131,24110,2,0,P|228:109|187:106,1,85,2|4,0:0|0:0,0:0:0:0:
209,270,24459,1,12,0:0:0:0:
209,270,24633,1,4,0:0:0:0:
341,158,24807,6,0,P|342:115|324:77,1,85,2|4,0:0|0:0,0:0:0:0:
202,186,25156,1,12,0:0:0:0:
202,186,25331,1,8,0:0:0:0:
341,158,25505,1,2,0:0:0:0:
264,131,25680,1,4,0:0:0:0:
357,239,25854,1,12,0:0:0:0:
202,186,26028,1,4,0:0:0:0:
325,77,26203,101,2,0:0:0:0:
279,213,26377,1,4,0:0:0:0:
184,105,26552,1,12,0:0:0:0:
341,158,26726,1,8,0:0:0:0:
217,268,26900,1,2,0:0:0:0:
261,132,27075,1,4,0:0:0:0:
357,239,27249,1,12,0:0:0:0:
202,186,27424,6,0,P|181:129|267:52,1,170,4|4,0:0|0:0,0:0:0:0:
278,213,27947,2,0,P|240:258|208:269,1,85,12|8,0:0|0:0,0:0:0:0:
261,132,28296,1,8,0:0:0:0:
261,132,28470,1,8,0:0:0:0:
261,132,28645,1,12,0:0:0:0:
261,132,28819,1,2,0:0:0:0:
202,186,28993,101,6,0:0:0:0:
278,213,29168,1,0,0:0:0:0:
357,239,29342,1,12,0:0:0:0:
188,107,29517,2,0,P|127:160|144:239,1,170,2|2,0:0|0:0,0:0:0:0:
219,264,30040,2,0,P|221:219|186:173,1,85,12|2,0:0|0:0,0:0:0:0:
85,291,30389,5,4,0:0:0:0:
159,316,30563,1,2,0:0:0:0:
233,341,30738,1,12,0:0:0:0:
280,211,30912,2,0,P|203:184|143:238,1,170,2|2,0:0|0:0,0:0:0:0:
159,316,31435,2,0,P|198:295|221:241,1,85,12|2,0:0|0:0,0:0:0:0:
188,109,31784,101,4,0:0:0:0:
203,185,31959,1,2,0:0:0:0:
218,261,32133,1,12,0:0:0:0:
129,159,32307,2,0,P|115:82|189:31,1,170,2|2,0:0|0:0,0:0:0:0:
203,185,32831,2,0,P|179:219|141:237,1,85,12|2,0:0|0:0,0:0:0:0:
188,109,33180,5,4,0:0:0:0:
262,136,33354,1,2,0:0:0:0:
336,163,33528,1,12,0:0:0:0:
203,185,33703,2,0,P|129:158|122:69,1,170,2|2,0:0|0:0,0:0:0:0:
178,28,34226,2,0,P|194:67|187:108,1,85,12|2,0:0|0:0,0:0:0:0:
64,201,34575,101,4,0:0:0:0:
79,277,34750,1,2,0:0:0:0:
94,353,34924,1,12,0:0:0:0:
273,203,35098,2,0,P|198:173|137:226,1,170,2|2,0:0|0:0,0:0:0:0:
150,303,35621,2,0,P|187:285|211:250,1,85,12|2,0:0|0:0,0:0:0:0:
107,74,35970,5,4,0:0:0:0:
122,150,36145,1,2,0:0:0:0:
137,226,36319,1,12,0:0:0:0:
166,29,36493,2,0,P|133:4|91:0,1,85,2|4,0:0|0:0,0:0:0:0:
137,226,36842,1,2,0:0:0:0:
254,125,37017,1,12,0:0:0:0:
107,74,37191,1,2,0:0:0:0:
210,251,37366,102,0,P|183:287|139:303,1,85,4|0,0:0|0:0,0:0:0:0:
269,200,37714,2,0,P|287:241|279:286,1,85,12|2,0:0|0:0,0:0:0:0:
253,125,38063,1,4,0:0:0:0:
253,125,38238,2,0,P|297:129|333:159,1,85,2|12,0:0|0:0,0:0:0:0:
196,176,38587,6,0,P|177:117|266:50,1,170,2|2,0:0|0:0,0:0:0:0:
269,200,39110,2,0,P|243:236|199:253,1,85,12|2,0:0|0:0,0:0:0:0:
62,195,39459,1,8,0:0:0:0:
62,195,39546,1,8,0:0:0:0:
62,195,39633,1,8,0:0:0:0:
196,176,39807,1,8,0:0:0:0:
146,302,39982,1,8,0:0:0:0:
112,69,40156,37,6,0:0:0:0:
112,69,40854,5,6,0:0:0:0:
112,69,41552,101,6,0:0:0:0:
146,302,42075,53,8,0:0:0:0:
62,195,42249,1,8,0:0:0:0:
196,176,42423,1,8,0:0:0:0:
112,69,42598,1,8,0:0:0:0:
207,252,42773,6,0,P|267:204|236:111,1,170,6|10,0:0|0:0,0:0:0:0:
62,195,43296,1,10,0:0:0:0:
220,329,43470,1,10,0:0:0:0:
249,120,43645,1,10,0:0:0:0:
146,302,43819,1,10,0:0:0:0:
175,93,43993,1,10,0:0:0:0:
72,275,44168,1,10,0:0:0:0:
282,274,44342,101,14,0:0:0:0:
282,274,44691,54,0,L|377:282,2,85,0|0|0,0:0|0:0|0:0,0:0:0:0:
174,93,45738,86,0,P|224:83|271:101,1,101.999996887207,6|6,0:0|0:0,0:0:0:0:
115,175,46087,1,12,0:0:0:0:
115,175,46261,2,0,P|77:124|76:73,1,101.999996887207,2|4,0:0|0:0,0:0:0:0:
127,2,46610,1,2,0:0:0:0:
270,100,46784,1,12,0:0:0:0:
270,100,46959,1,2,0:0:0:0:
115,175,47133,6,0,P|77:124|76:73,1,101.999996887207,6|2,0:0|0:0,0:0:0:0:
215,180,47482,1,12,0:0:0:0:
215,180,47656,2,0,P|191:239|149:267,1,101.999996887207,2|4,0:0|0:0,0:0:0:0:
65,259,48005,1,2,0:0:0:0:
73,87,48180,1,12,0:0:0:0:
73,87,48354,1,2,0:0:0:0:
215,180,48528,101,6,0:0:0:0:
20,172,48703,1,2,0:0:0:0:
161,261,48877,1,12,0:0:0:0:
73,87,49052,1,2,0:0:0:0:
63,254,49226,1,4,0:0:0:0:
172,89,49400,1,2,0:0:0:0:
20,172,49575,1,12,0:0:0:0:
106,336,49749,6,0,P|186:350|253:251,1,203.999993774414,2|0,0:0|0:0,0:0:0:0:
163,100,50273,1,12,0:0:0:0:
163,100,50447,1,2,0:0:0:0:
114,176,50621,2,0,P|124:225|160:260,1,101.999996887207,4|2,0:0|0:0,0:0:0:0:
254,261,50970,1,12,0:0:0:0:
254,261,51145,1,2,0:0:0:0:
348,102,51319,102,0,P|444:104|486:192,1,203.999993774414,6|12,0:0|0:0,0:0:0:0:
347,261,51842,1,2,0:0:0:0:
260,104,52017,2,0,P|272:55|309:21,1,101.999996887207,4|2,0:0|0:0,0:0:0:0:
304,183,52366,1,12,0:0:0:0:
304,183,52540,6,0,P|255:196|207:181,1,101.999996887207,2|6,0:0|0:0,0:0:0:0:
348,102,52889,2,0,P|384:136|395:185,1,101.999996887207,2|12,0:0|0:0,0:0:0:0:
260,104,53238,2,0,P|313:22|419:50,1,203.999993774414,2|2,0:0|0:0,0:0:0:0:
393,187,53761,1,12,0:0:0:0:
393,187,53935,1,2,0:0:0:0:
260,104,54110,101,6,0:0:0:0:
258,260,54284,1,2,0:0:0:0:
393,187,54459,1,12,0:0:0:0:
214,183,54633,1,2,0:0:0:0:
302,337,54807,1,4,0:0:0:0:
349,110,54982,1,8,0:0:0:0:
349,110,55069,1,8,0:0:0:0:
349,110,55156,1,12,0:0:0:0:
258,260,55331,1,2,0:0:0:0:
434,264,55505,5,6,0:0:0:0:
214,183,55680,1,8,0:0:0:0:
302,337,55854,1,12,0:0:0:0:
260,104,56028,2,0,P|170:101|121:194,1,203.999993774414,6|8,0:0|0:0,0:0:0:0:
146,233,56464,1,8,0:0:0:0:
174,272,56552,2,0,L|229:276,1,50.9999984436036,8|8,0:0|0:0,0:0:0:0:
264,187,56726,2,0,L|213:182,1,50.9999984436036,8|8,0:0|0:0,0:0:0:0:
78,279,56900,102,0,P|33:237|24:195,1,101.999996887207,6|2,0:0|0:0,0:0:0:0:
174,272,57249,1,12,0:0:0:0:
174,272,57424,2,0,P|159:331|128:360,1,101.999996887207,2|4,0:0|0:0,0:0:0:0:
36,365,57773,1,2,0:0:0:0:
25,199,57947,1,12,0:0:0:0:
25,199,58121,1,2,0:0:0:0:
174,272,58296,6,0,P|159:331|128:360,1,101.999996887207,6|2,0:0|0:0,0:0:0:0:
121,192,58645,1,12,0:0:0:0:
121,192,58819,2,0,P|179:174|219:187,1,101.999996887207,2|4,0:0|0:0,0:0:0:0:
269,266,59168,1,2,0:0:0:0:
131,358,59342,1,12,0:0:0:0:
131,358,59517,1,2,0:0:0:0:
121,192,59691,101,6,0:0:0:0:
227,352,59866,1,2,0:0:0:0:
79,278,60040,1,12,0:0:0:0:
269,266,60214,1,2,0:0:0:0:
131,358,60389,1,4,0:0:0:0:
217,186,60563,1,2,0:0:0:0:
227,352,60738,1,12,0:0:0:0:
79,278,60912,6,0,P|32:222|90:101,1,203.999993774414,2|2,0:0|0:0,0:0:0:0:
217,186,61435,1,12,0:0:0:0:
217,186,61610,1,2,0:0:0:0:
270,266,61784,2,0,P|255:325|224:354,1,101.999996887207,4|2,0:0|0:0,0:0:0:0:
174,272,62133,1,12,0:0:0:0:
313,181,62307,102,0,B|365:146|408:171|408:177|453:212|519:163,1,203.999993774414,2|0,0:0|0:0,0:0:0:0:
454,84,62831,1,12,0:0:0:0:
454,84,63005,1,2,0:0:0:0:
366,267,63180,2,0,P|381:315|419:347,1,101.999996887207,4|2,0:0|0:0,0:0:0:0:
409,175,63528,1,12,0:0:0:0:
409,175,63703,6,0,P|359:164|312:180,1,101.999996887207,2|6,0:0|0:0,0:0:0:0:
466,258,64052,2,0,P|500:220|509:171,1,101.999996887207,2|12,0:0|0:0,0:0:0:0:
366,267,64400,2,0,P|426:352|539:329,1,203.999993774414,2|2,0:0|0:0,0:0:0:0:
409,175,64924,1,12,0:0:0:0:
409,175,65098,1,2,0:0:0:0:
264,270,65273,102,0,L|160:279,1,101.999996887207,6|0,0:0|0:0,0:0:0:0:
205,186,65621,1,12,0:0:0:0:
205,186,65796,1,2,0:0:0:0:
366,267,65970,2,0,P|356:316|322:353,1,101.999996887207,6|0,0:0|0:0,0:0:0:0:
264,270,66319,1,12,0:0:0:0:
264,270,66494,1,0,0:0:0:0:
410,178,66668,6,0,P|448:210|463:258,1,101.999996887207,12|2,0:0|0:0,0:0:0:0:
366,267,67017,1,12,0:0:0:0:
366,267,67192,1,2,0:0:0:0:
454,89,67366,1,6,0:0:0:0:
264,270,67540,1,8,0:0:0:0:
264,270,67627,1,8,0:0:0:0:
264,270,67714,1,12,0:0:0:0:
463,258,67889,1,8,0:0:0:0:
313,182,68063,101,6,0:0:0:0:
423,347,68238,1,8,0:0:0:0:
454,89,68412,1,12,0:0:0:0:
366,267,68587,1,6,0:0:0:0:
366,267,68935,5,8,0:0:0:0:
454,89,69110,1,8,0:0:0:0:
423,347,69284,1,12,0:0:0:0:
423,347,69633,101,2,0:0:0:0:
313,182,69807,1,12,0:0:0:0:
313,182,70156,5,6,0:0:0:0:
313,182,70854,38,0,P|271:176|231:190,1,85,6|0,0:0|0:0,0:0:0:0:
245,330,71203,1,12,0:0:0:0:
360,249,71377,2,0,P|385:215|393:174,1,85,2|4,0:0|0:0,0:0:0:0:
313,182,71726,1,2,0:0:0:0:
408,316,71900,1,12,0:0:0:0:
313,182,72075,6,0,B|264:167|232:190|232:190|197:150|150:158,1,170,2|2,0:0|0:0,0:0:0:0:
98,286,72598,2,0,P|137:270|165:238,1,85,12|2,0:0|0:0,0:0:0:0:
157,157,72947,1,4,0:0:0:0:
148,75,73121,1,2,0:0:0:0:
17,172,73296,2,0,P|50:197|91:205,1,85,12|2,0:0|0:0,0:0:0:0:
148,75,73645,102,0,P|189:82|223:107,1,85,4|0,0:0|0:0,0:0:0:0:
242,272,73993,1,12,0:0:0:0:
92,205,74168,2,0,P|77:165|82:123,1,85,2|4,0:0|0:0,0:0:0:0:
157,157,74517,1,2,0:0:0:0:
98,286,74691,1,12,0:0:0:0:
157,157,74866,6,0,B|197:149|232:189|232:189|264:166|313:181,1,170,2|2,0:0|0:0,0:0:0:0:
92,205,75389,2,0,P|77:165|82:123,1,85,12|2,0:0|0:0,0:0:0:0:
164,237,75738,2,0,P|136:269|97:285,1,85,4|2,0:0|0:0,0:0:0:0:
7,90,76087,2,0,P|48:97|82:122,1,85,12|2,0:0|0:0,0:0:0:0:
164,237,76435,102,0,P|197:262|239:269,1,85,6|0,0:0|0:0,0:0:0:0:
232,189,76784,1,12,0:0:0:0:
92,205,76959,2,0,P|86:246|101:286,1,85,2|4,0:0|0:0,0:0:0:0:
164,237,77307,1,2,0:0:0:0:
20,173,77482,1,12,0:0:0:0:
163,236,77656,6,0,B|211:223|232:189|232:189|262:224|318:221,1,170,2|2,0:0|0:0,0:0:0:0:
362,92,78180,2,0,P|323:108|296:141,1,85,12|2,0:0|0:0,0:0:0:0:
306,221,78528,1,4,0:0:0:0:
370,173,78703,1,2,0:0:0:0:
230,189,78877,2,0,P|263:214|305:221,1,85,12|2,0:0|0:0,0:0:0:0:
362,92,79226,102,0,P|403:98|437:123,1,85,4|0,0:0|0:0,0:0:0:0:
370,173,79575,1,12,0:0:0:0:
284,56,79749,2,0,P|310:23|349:6,1,85,2|4,0:0|0:0,0:0:0:0:
362,92,80098,1,2,0:0:0:0:
303,221,80273,1,12,0:0:0:0:
150,155,80447,6,0,B|131:192|131:192|135:236,2,85,6|6|10,0:0|0:0|0:0,0:0:0:0:
304,221,81319,2,0,L|301:252,1,21.25,10|0,0:0|0:0,0:0:0:0:
228,189,81493,2,0,L|230:157,1,21.25,8|8,0:0|0:0,0:0:0:0:
304,221,81668,2,0,L|299:280,1,42.5,8|8,0:0|0:0,0:0:0:0:
327,324,82017,6,0,L|338:188,1,136,6|4,0:0|0:0,0:0:0:0:
347,103,82540,1,2,0:0:0:0:
424,66,82714,2,0,P|432:113|423:141,1,68,12|0,0:0|0:0,0:0:0:0:
339,189,83063,2,0,L|251:181,1,68,2|0,0:0|0:0,0:0:0:0:
75,231,83412,6,0,L|211:243,1,136,6|4,0:0|0:0,0:0:0:0:
271,183,83935,1,2,0:0:0:0:
249,320,84110,2,0,P|202:328|174:319,1,68,12|0,0:0|0:0,0:0:0:0:
146,247,84459,2,0,P|193:239|221:248,1,68,4|0,0:0|0:0,0:0:0:0:
327,324,84807,102,0,L|338:188,1,136,6|4,0:0|0:0,0:0:0:0:
347,103,85331,1,2,0:0:0:0:
266,74,85505,2,0,P|261:107|270:140,1,68,12|0,0:0|0:0,0:0:0:0:
339,189,85854,2,0,L|406:183,1,68,6|0,0:0|0:0,0:0:0:0:
347,103,86203,5,6,0:0:0:0:
262,226,86377,1,0,0:0:0:0:
339,189,86552,1,4,0:0:0:0:
189,176,86726,1,2,0:0:0:0:
335,276,86900,1,12,0:0:0:0:
335,276,87075,1,12,0:0:0:0:
405,133,87249,2,0,P|378:111|346:102,1,68,8|8,0:0|0:0,0:0:0:0:
189,175,87598,102,0,P|147:169|114:145,1,85,6|0,0:0|0:0,0:0:0:0:
242,45,87947,1,12,0:0:0:0:
242,45,88121,1,8,0:0:0:0:
266,207,88296,2,0,P|240:240|201:256,1,85,2|4,0:0|0:0,0:0:0:0:
177,94,88645,1,12,0:0:0:0:
177,94,88819,1,4,0:0:0:0:
332,155,88993,6,0,P|347:194|342:235,1,85,2|4,0:0|0:0,0:0:0:0:
189,175,89342,1,12,0:0:0:0:
189,175,89516,1,8,0:0:0:0:
332,155,89691,1,2,0:0:0:0:
266,207,89866,1,4,0:0:0:0:
177,92,90040,1,12,0:0:0:0:
201,258,90214,1,4,0:0:0:0:
332,155,90389,101,2,0:0:0:0:
189,175,90563,1,4,0:0:0:0:
278,290,90738,1,12,0:0:0:0:
254,124,90912,1,8,0:0:0:0:
124,226,91087,1,2,0:0:0:0:
278,290,91261,1,4,0:0:0:0:
189,175,91435,1,12,0:0:0:0:
213,341,91610,6,0,P|282:371|357:308,1,170,4|4,0:0|0:0,0:0:0:0:
201,258,92133,2,0,P|162:275|136:308,1,85,12|8,0:0|0:0,0:0:0:0:
278,290,92482,1,8,0:0:0:0:
189,175,92656,1,8,0:0:0:0:
213,341,92831,1,12,0:0:0:0:
266,207,93005,101,8,0:0:0:0:
266,207,93092,1,8,0:0:0:0:
266,207,93180,1,6,0:0:0:0:
278,290,93354,1,0,0:0:0:0:
213,341,93528,1,12,0:0:0:0:
189,175,93703,2,0,P|253:124|329:154,1,170,2|2,0:0|0:0,0:0:0:0:
342,234,94226,2,0,P|300:229|265:206,1,85,12|2,0:0|0:0,0:0:0:0:
239,41,94575,5,4,0:0:0:0:
316,72,94749,1,2,0:0:0:0:
328,153,94923,1,12,0:0:0:0:
202,256,95098,2,0,P|189:175|253:124,1,170,2|2,0:0|0:0,0:0:0:0:
328,153,95621,2,0,P|303:187|265:205,1,85,12|2,0:0|0:0,0:0:0:0:
113,144,95970,101,4,0:0:0:0:
125,224,96144,1,2,0:0:0:0:
202,256,96318,1,12,0:0:0:0:
328,153,96493,2,0,P|252:124|188:174,1,170,2|2,0:0|0:0,0:0:0:0:
202,256,97017,2,0,P|241:239|267:206,1,85,12|2,0:0|0:0,0:0:0:0:
126,225,97366,5,4,0:0:0:0:
138,305,97540,1,2,0:0:0:0:
215,337,97714,1,12,0:0:0:0:
189,175,97889,2,0,P|113:146|49:196,1,170,2|2,0:0|0:0,0:0:0:0:
63,277,98412,2,0,P|101:258|125:224,1,85,12|2,0:0|0:0,0:0:0:0:
100,63,98761,101,4,0:0:0:0:
177,94,98935,1,2,0:0:0:0:
189,175,99109,1,12,0:0:0:0:
63,277,99284,2,0,P|50:196|113:145,1,170,2|2,0:0|0:0,0:0:0:0:
189,174,99807,2,0,P|164:208|126:226,1,85,12|2,0:0|0:0,0:0:0:0:
177,94,100156,5,4,0:0:0:0:
254,125,100330,1,2,0:0:0:0:
266,206,100504,1,12,0:0:0:0:
113,145,100680,2,0,P|96:101|103:60,1,85,2|4,0:0|0:0,0:0:0:0:
254,125,101028,1,2,0:0:0:0:
202,256,101203,1,12,0:0:0:0:
113,145,101377,1,2,0:0:0:0:
266,206,101552,102,0,P|303:187|328:153,1,85,4|2,0:0|0:0,0:0:0:0:
202,263,101900,2,0,P|237:286|278:290,1,85,12|2,0:0|0:0,0:0:0:0:
120,236,102249,1,4,0:0:0:0:
120,236,102424,2,0,P|117:278|134:316,1,85,2|12,0:0|0:0,0:0:0:0:
184,178,102773,6,0,P|115:151|41:204,1,170,2|2,0:0|0:0,0:0:0:0:
208,263,103296,2,0,P|245:242|268:207,1,85,12|2,0:0|0:0,0:0:0:0:
236,32,103645,1,8,0:0:0:0:
236,32,103732,1,8,0:0:0:0:
236,32,103819,1,8,0:0:0:0:
184,178,103993,1,8,0:0:0:0:
337,151,104168,1,8,0:0:0:0:
83,59,104342,37,6,0:0:0:0:
83,59,105040,5,6,0:0:0:0:
83,59,105738,101,6,0:0:0:0:
337,151,106261,53,8,0:0:0:0:
236,32,106435,1,8,0:0:0:0:
184,178,106609,1,8,0:0:0:0:
83,59,106784,1,8,0:0:0:0:
251,119,106959,6,0,P|272:162|203:265,1,170,6|10,0:0|0:0,0:0:0:0:
31,206,107482,1,10,0:0:0:0:
184,178,107656,1,10,0:0:0:0:
132,325,107831,1,10,0:0:0:0:
98,147,108005,1,10,0:0:0:0:
270,207,108180,1,10,0:0:0:0:
46,294,108354,1,10,0:0:0:0:
124,74,108528,101,14,0:0:0:0:
124,74,108877,53,0,0:0:0:0:
218,261,109226,2,0,L|305:253,1,85,8|8,0:0|0:0,0:0:0:0:
302,253,109488,1,8,0:0:0:0:
302,253,109575,1,8,0:0:0:0:
131,206,109749,1,8,0:0:0:0:
131,206,109837,1,8,0:0:0:0:
131,206,109924,86,0,P|113:253|124:303,1,101.999996887207,6|2,0:0|0:0,0:0:0:0:
220,158,110273,1,12,0:0:0:0:
220,158,110447,2,0,P|188:119|141:103,1,101.999996887207,2|4,0:0|0:0,0:0:0:0:
48,147,110796,1,2,0:0:0:0:
123,302,110970,1,12,0:0:0:0:
123,302,111145,1,2,0:0:0:0:
220,158,111319,6,0,P|188:119|141:103,1,101.999996887207,6|2,0:0|0:0,0:0:0:0:
217,260,111668,1,12,0:0:0:0:
217,260,111842,2,0,P|267:251|306:219,1,101.999996887207,2|4,0:0|0:0,0:0:0:0:
316,115,112191,1,2,0:0:0:0:
141,103,112366,1,12,0:0:0:0:
141,103,112540,1,2,0:0:0:0:
218,260,112714,101,6,0:0:0:0:
230,61,112889,1,2,0:0:0:0:
304,215,113063,1,12,0:0:0:0:
141,104,113238,1,2,0:0:0:0:
311,116,113412,1,4,0:0:0:0:
134,202,113587,1,2,0:0:0:0:
230,60,113761,1,12,0:0:0:0:
392,172,113935,6,0,P|402:236|295:314,1,203.999993774414,2|0,0:0|0:0,0:0:0:0:
134,202,114459,1,12,0:0:0:0:
134,202,114633,1,2,0:0:0:0:
224,160,114807,2,0,P|268:174|305:213,1,101.999996887207,4|2,0:0|0:0,0:0:0:0:
218,260,115156,1,12,0:0:0:0:
218,260,115331,1,2,0:0:0:0:
141,104,115505,102,0,P|52:144|44:241,1,203.999993774414,6|12,0:0|0:0,0:0:0:0:
218,260,116028,1,2,0:0:0:0:
230,62,116203,2,0,P|154:6|120:8,1,101.999996887207,4|2,0:0|0:0,0:0:0:0:
224,160,116552,1,12,0:0:0:0:
224,160,116726,6,0,P|310:121|325:91,1,101.999996887207,2|6,0:0|0:0,0:0:0:0:
141,104,117075,2,0,P|130:197|149:225,1,101.999996887207,2|12,0:0|0:0,0:0:0:0:
230,62,117424,2,0,P|150:5|62:47,1,203.999993774414,2|2,0:0|0:0,0:0:0:0:
132,200,117947,1,12,0:0:0:0:
132,200,118121,1,2,0:0:0:0:
230,62,118296,101,6,0:0:0:0:
212,258,118470,1,2,0:0:0:0:
141,104,118645,1,12,0:0:0:0:
301,216,118819,1,2,0:0:0:0:
123,300,118993,1,4,0:0:0:0:
221,160,119168,1,8,0:0:0:0:
221,160,119255,1,8,0:0:0:0:
221,160,119342,1,12,0:0:0:0:
203,356,119517,1,2,0:0:0:0:
141,104,119691,5,6,0:0:0:0:
212,258,119866,1,8,0:0:0:0:
34,342,120040,1,12,0:0:0:0:
221,160,120214,2,0,P|300:215|292:312,1,203.999993774414,6|8,0:0|0:0,0:0:0:0:
248,337,120650,1,8,0:0:0:0:
203,356,120738,2,0,L|148:360,1,50.9999984436036,8|8,0:0|0:0,0:0:0:0:
161,262,120912,2,0,L|212:257,1,50.9999984436036,8|8,0:0|0:0,0:0:0:0:
390,176,121087,102,0,P|401:83|382:55,1,101.999996887207,6|2,0:0|0:0,0:0:0:0:
300,217,121435,1,12,0:0:0:0:
300,217,121610,2,0,P|375:273|408:270,1,101.999996887207,2|4,0:0|0:0,0:0:0:0:
469,235,121959,1,2,0:0:0:0:
399,79,122133,1,12,0:0:0:0:
399,79,122307,1,2,0:0:0:0:
300,217,122482,6,0,P|375:273|408:270,1,101.999996887207,6|2,0:0|0:0,0:0:0:0:
309,118,122831,1,12,0:0:0:0:
309,118,123005,2,0,P|222:154|208:185,1,101.999996887207,2|0,0:0|0:0,0:0:0:0:
210,256,123354,1,2,0:0:0:0:
378,273,123528,1,12,0:0:0:0:
378,273,123703,1,2,0:0:0:0:
309,118,123877,101,6,0:0:0:0:
288,313,124052,1,2,0:0:0:0:
389,176,124226,1,12,0:0:0:0:
210,256,124400,1,2,0:0:0:0:
378,273,124575,1,4,0:0:0:0:
221,159,124749,1,2,0:0:0:0:
288,313,124924,1,12,0:0:0:0:
309,118,125098,6,0,P|216:64|126:135,1,203.999993774414,2|2,0:0|0:0,0:0:0:0:
298,215,125621,1,12,0:0:0:0:
298,215,125796,1,2,0:0:0:0:
389,176,125970,2,0,P|399:83|380:55,1,101.999996887207,4|2,0:0|0:0,0:0:0:0:
309,118,126319,1,12,0:0:0:0:
378,273,126493,102,0,P|290:315|208:261,1,203.999993774414,2|2,0:0|0:0,0:0:0:0:
309,118,127017,1,12,0:0:0:0:
309,118,127191,1,2,0:0:0:0:
467,234,127366,2,0,P|476:284|458:331,1,101.999996887207,4|2,0:0|0:0,0:0:0:0:
389,176,127714,1,12,0:0:0:0:
389,176,127889,6,0,P|427:143|477:136,1,101.999996887207,2|6,0:0|0:0,0:0:0:0:
378,273,128238,2,0,P|330:256|299:216,1,101.999996887207,2|12,0:0|0:0,0:0:0:0:
468,235,128587,2,0,P|460:332|373:375,1,203.999993774414,2|2,0:0|0:0,0:0:0:0:
389,176,129110,1,12,0:0:0:0:
389,176,129284,1,2,0:0:0:0:
276,281,129459,102,0,L|378:273,1,101.999996887207,6|0,0:0|0:0,0:0:0:0:
373,375,129807,1,12,0:0:0:0:
373,375,129981,1,2,0:0:0:0:
195,321,130156,2,0,P|185:271|204:224,1,101.999996887207,6|0,0:0|0:0,0:0:0:0:
277,282,130505,1,12,0:0:0:0:
277,282,130680,1,0,0:0:0:0:
130,173,130854,6,0,P|168:140|218:133,1,101.999996887207,12|2,0:0|0:0,0:0:0:0:
204,224,131203,1,12,0:0:0:0:
204,224,131378,1,2,0:0:0:0:
56,122,131552,1,6,0:0:0:0:
217,132,131726,1,8,0:0:0:0:
217,132,131813,1,8,0:0:0:0:
217,132,131900,1,12,0:0:0:0:
42,302,132075,1,8,0:0:0:0:
204,224,132249,101,6,0:0:0:0:
56,122,132424,1,8,0:0:0:0:
116,352,132598,1,12,0:0:0:0:
130,173,132773,1,6,0:0:0:0:
130,173,133121,5,8,0:0:0:0:
42,302,133296,1,8,0:0:0:0:
278,275,133470,1,12,0:0:0:0:
278,275,133819,101,2,0:0:0:0:
42,302,133993,1,12,0:0:0:0:
42,302,134342,5,6,0:0:0:0:
42,302,135040,37,6,0:0:0:0:
159,137,135214,1,0,0:0:0:0:
245,322,135389,1,12,0:0:0:0:
245,322,135563,1,8,0:0:0:0:
101,219,135738,1,2,0:0:0:0:
260,146,135912,1,4,0:0:0:0:
260,146,135999,1,0,0:0:0:0:
260,146,136087,1,12,0:0:0:0:
143,311,136261,1,4,0:0:0:0:
59,127,136435,5,2,0:0:0:0:
201,229,136610,1,4,0:0:0:0:
0,210,136784,1,12,0:0:0:0:
0,210,136959,1,8,0:0:0:0:
117,45,137133,1,2,0:0:0:0:
201,229,137307,1,4,0:0:0:0:
59,127,137482,1,12,0:0:0:0:
260,146,137656,1,4,0:0:0:0:
260,146,137743,1,0,0:0:0:0:
260,146,137831,101,2,0:0:0:0:
143,311,138005,1,4,0:0:0:0:
347,333,138180,1,12,0:0:0:0:
347,333,138354,1,8,0:0:0:0:
260,146,138528,1,2,0:0:0:0:
245,322,138703,1,4,0:0:0:0:
404,249,138877,1,12,0:0:0:0:
201,229,139052,1,4,0:0:0:0:
347,333,139226,5,2,0:0:0:0:
361,156,139400,1,4,0:0:0:0:
201,229,139575,1,12,0:0:0:0:
218,54,139749,1,2,0:0:0:0:
302,238,139924,1,2,0:0:0:0:
302,238,140011,1,8,0:0:0:0:
302,238,140098,1,8,0:0:0:0:
318,63,140273,1,12,0:0:0:0:
159,137,140447,1,8,0:0:0:0:
361,156,140621,101,6,0:0:0:0:
201,229,140796,1,0,0:0:0:0:
218,54,140970,1,12,0:0:0:0:
218,54,141145,1,8,0:0:0:0:
301,238,141319,2,0,P|272:301|231:326,1,101.999996887207,2|4,0:0|0:0,0:0:0:0:
159,137,141668,1,12,0:0:0:0:
361,156,141842,1,4,0:0:0:0:
201,229,142017,6,0,P|131:235|89:212,1,101.999996887207,2|4,0:0|0:0,0:0:0:0:
218,54,142366,1,12,0:0:0:0:
218,54,142540,1,8,0:0:0:0:
301,238,142714,2,0,P|272:301|231:326,1,101.999996887207,2|4,0:0|0:0,0:0:0:0:
159,137,143063,1,12,0:0:0:0:
247,319,143238,102,0,L|462:337,1,203.999993774414,4|4,0:0|0:0,0:0:0:0:
450,336,143674,1,0,0:0:0:0:
450,336,143761,1,12,0:0:0:0:
361,156,143935,1,8,0:0:0:0:
247,319,144110,1,2,0:0:0:0:
404,249,144284,1,4,0:0:0:0:
318,63,144459,1,12,0:0:0:0:
301,238,144633,1,4,0:0:0:0:
462,165,144807,5,6,0:0:0:0:
159,137,144982,1,8,0:0:0:0:
159,137,145069,1,8,0:0:0:0:
159,137,145156,1,8,0:0:0:0:
247,319,145331,1,12,0:0:0:0:
361,156,145505,1,2,0:0:0:0:
143,311,145680,1,12,0:0:0:0:
404,249,145854,1,12,0:0:0:0:
101,219,146028,1,2,0:0:0:0:
347,333,146203,69,6,0:0:0:0:
347,333,146900,5,6,0:0:0:0:
347,333,147598,101,6,0:0:0:0:
260,146,148121,53,2,0:0:0:0:
347,333,148296,1,8,0:0:0:0:
201,229,148470,1,8,0:0:0:0:
301,238,148645,1,8,0:0:0:0:
143,311,148819,6,0,P|102:254|178:131,1,203.999993774414,6|6,0:0|0:0,0:0:0:0:
361,156,149342,1,12,0:0:0:0:
361,156,149517,1,4,0:0:0:0:
201,229,149691,1,2,0:0:0:0:
218,54,149866,1,2,0:0:0:0:
301,238,150040,1,14,0:0:0:0:
318,63,150214,102,0,P|387:56|456:183,1,203.999993774414,6|6,0:0|0:0,0:0:0:0:
301,238,150738,1,12,0:0:0:0:
361,156,150912,1,2,0:0:0:0:
347,333,151087,1,4,0:0:0:0:
260,146,151261,1,2,0:0:0:0:
243,320,151435,1,10,0:0:0:0:
461,155,151610,6,0,P|415:69|318:63,1,203.999993774414,6|2,0:0|0:0,0:0:0:0:
201,229,152133,1,12,0:0:0:0:
347,333,152307,1,0,0:0:0:0:
218,54,152482,1,2,0:0:0:0:
243,320,152656,1,10,0:0:0:0:
361,156,152831,1,10,0:0:0:0:
150,141,153005,102,0,P|98:224|143:311,1,203.999993774414,6|10,0:0|0:0,0:0:0:0:
192,316,153441,1,0,0:0:0:0:
242,319,153528,1,10,0:0:0:0:
317,63,153703,1,10,0:0:0:0:
101,219,153877,1,10,0:0:0:0:
342,329,154052,1,10,0:0:0:0:
218,54,154226,1,10,0:0:0:0:
142,310,154400,1,10,0:0:0:0:
317,63,154575,1,14,0:0:0:0:
401,247,155970,21,14,0:0:0:0:
101,219,156145,1,14,0:0:0:0:
401,247,156319,1,14,0:0:0:0:
101,219,156494,1,14,0:0:0:0:
317,63,157366,5,14,0:0:0:0:
142,310,157541,1,14,0:0:0:0:
317,63,157715,1,14,0:0:0:0:
142,310,157890,1,14,0:0:0:0:
142,310,158238,1,8,0:0:0:0:
159,136,158412,1,12,0:0:0:0:
401,247,158587,1,8,0:0:0:0:
401,247,158674,1,8,0:0:0:0:
401,247,158761,101,6,0:0:0:0:
200,227,158935,1,0,0:0:0:0:
358,156,159110,1,8,0:0:0:0:
340,328,159284,1,8,0:0:0:0:
218,54,159459,1,6,0:0:0:0:
358,156,159633,1,0,0:0:0:0:
200,227,159808,1,8,0:0:0:0:
317,63,159982,5,10,0:0:0:0:
317,63,160331,101,10,0:0:0:0:
317,63,160680,5,10,0:0:0:0:
241,318,160854,1,6,0:0:0:0:
159,136,161028,1,8,0:0:0:0:
159,136,161116,1,8,0:0:0:0:
159,136,161203,1,8,0:0:0:0:
358,156,161377,1,8,0:0:0:0:
358,156,161464,1,8,0:0:0:0:
357,156,161552,102,0,P|391:193|399:243,1,101.999996887207,6|0,0:0|0:0,0:0:0:0:
241,318,161900,1,12,0:0:0:0:
241,318,162075,1,2,0:0:0:0:
257,145,162249,2,0,P|272:97|311:65,1,101.999996887207,4|2,0:0|0:0,0:0:0:0:
298,238,162598,1,12,0:0:0:0:
298,238,162773,6,0,P|248:248|201:230,1,101.999996887207,2|6,0:0|0:0,0:0:0:0:
357,156,163121,2,0,P|391:193|399:243,1,101.999996887207,2|12,0:0|0:0,0:0:0:0:
257,145,163470,2,0,P|283:85|432:92,1,203.999993774414,2|2,0:0|0:0,0:0:0:0:
298,238,163993,1,12,0:0:0:0:
298,238,164168,1,2,0:0:0:0:
216,52,164342,101,6,0:0:0:0:
96,217,164517,1,2,0:0:0:0:
257,145,164691,1,12,0:0:0:0:
54,123,164866,1,2,0:0:0:0:
138,311,165040,1,4,0:0:0:0:
257,145,165214,1,8,0:0:0:0:
257,145,165302,1,8,0:0:0:0:
257,145,165389,1,12,0:0:0:0:
96,217,165563,1,2,0:0:0:0:
298,238,165738,5,6,0:0:0:0:
216,52,165912,1,8,0:0:0:0:
138,311,166087,1,12,0:0:0:0:
397,238,166261,2,0,P|354:151|257:145,1,203.999993774414,6|8,0:0|0:0,0:0:0:0:
224,185,166697,1,8,0:0:0:0:
196,226,166784,2,0,L|200:276,1,50.9999984436036,8|8,0:0|0:0,0:0:0:0:
302,288,166959,2,0,L|297:232,1,50.9999984436036,8|8,0:0|0:0,0:0:0:0:
154,134,167133,102,0,P|170:85|209:53,1,101.999996887207,6|2,0:0|0:0,0:0:0:0:
196,226,167482,1,12,0:0:0:0:
196,226,167656,2,0,P|145:236|98:218,1,101.999996887207,2|4,0:0|0:0,0:0:0:0:
52,129,168005,1,2,0:0:0:0:
207,53,168180,1,12,0:0:0:0:
207,53,168354,1,2,0:0:0:0:
196,226,168528,6,0,P|145:236|98:218,1,101.999996887207,6|2,0:0|0:0,0:0:0:0:
254,143,168877,1,12,0:0:0:0:
254,143,169052,2,0,P|288:181|296:231,1,101.999996887207,2|4,0:0|0:0,0:0:0:0:
238,318,169400,1,0,0:0:0:0:
100,220,169575,1,12,0:0:0:0:
100,220,169749,1,2,0:0:0:0:
255,144,169924,101,6,0:0:0:0:
137,308,170098,1,2,0:0:0:0:
296,235,170273,1,12,0:0:0:0:
95,216,170447,1,2,0:0:0:0:
238,318,170621,1,4,0:0:0:0:
154,134,170796,1,2,0:0:0:0:
137,308,170970,1,12,0:0:0:0:
255,144,171145,6,0,P|216:53|104:44,1,203.999993774414,2|2,0:0|0:0,0:0:0:0:
195,225,171668,1,12,0:0:0:0:
195,225,171842,1,2,0:0:0:0:
296,235,172017,2,0,P|343:190|356:139,1,101.999996887207,4|2,0:0|0:0,0:0:0:0:
255,144,172366,1,12,0:0:0:0:
255,144,172540,1,2,0:0:0:0:
137,308,172714,102,0,P|94:242|149:133,1,203.999993774414,6|12,0:0|0:0,0:0:0:0:
296,235,173238,1,2,0:0:0:0:
137,308,173412,2,0,P|87:318|38:304,1,101.999996887207,4|2,0:0|0:0,0:0:0:0:
195,225,173761,1,12,0:0:0:0:
195,225,173935,6,0,P|227:263|238:313,1,101.999996887207,2|6,0:0|0:0,0:0:0:0:
94,216,174284,2,0,P|111:168|148:134,1,101.999996887207,2|12,0:0|0:0,0:0:0:0:
137,308,174633,2,0,P|84:318|1:175,1,203.999993774414,2|2,0:0|0:0,0:0:0:0:
153,137,175156,1,12,0:0:0:0:
153,137,175331,1,2,0:0:0:0:
296,235,175505,102,0,L|398:227,1,101.999996887207,6|0,0:0|0:0,0:0:0:0:
339,142,175854,1,12,0:0:0:0:
339,142,176028,1,2,0:0:0:0:
199,228,176203,2,0,P|209:277|241:316,1,101.999996887207,6|0,0:0|0:0,0:0:0:0:
296,235,176552,1,12,0:0:0:0:
296,235,176726,1,0,0:0:0:0:
153,137,176900,6,0,P|115:170|98:218,1,101.999996887207,12|2,0:0|0:0,0:0:0:0:
199,228,177249,1,12,0:0:0:0:
199,228,177424,1,2,0:0:0:0:
107,46,177598,1,6,0:0:0:0:
258,146,177773,1,8,0:0:0:0:
258,146,177860,1,8,0:0:0:0:
258,146,177947,1,12,0:0:0:0:
98,221,178121,1,8,0:0:0:0:
207,56,178296,101,6,0:0:0:0:
52,132,178470,1,8,0:0:0:0:
199,228,178645,1,12,0:0:0:0:
107,46,178819,1,6,0:0:0:0:
107,46,179168,5,8,0:0:0:0:
98,221,179342,1,8,0:0:0:0:
258,146,179517,1,12,0:0:0:0:
258,146,179866,101,2,0:0:0:0:
94,216,180041,1,12,0:0:0:0:
94,216,180389,5,6,0:0:0:0:
94,216,180738,101,8,0:0:0:0:
258,146,180912,1,8,0:0:0:0:
258,146,180999,1,8,0:0:0:0:
258,146,181087,54,0,P|297:131|339:137,1,85,6|0,0:0|0:0,0:0:0:0:
356,281,181435,1,12,0:0:0:0:
223,223,181610,2,0,P|190:195|174:156,1,85,2|4,0:0|0:0,0:0:0:0:
258,146,181959,1,2,0:0:0:0:
188,300,182133,1,12,0:0:0:0:
258,146,182307,6,0,B|298:171|305:215|305:215|346:193|386:207,1,170,2|2,0:0|0:0,0:0:0:0:
223,223,182831,2,0,P|190:195|174:156,1,85,12|2,0:0|0:0,0:0:0:0:
205,78,183180,1,4,0:0:0:0:
258,146,183354,1,2,0:0:0:0:
121,89,183528,2,0,P|128:46|154:13,1,85,12|2,0:0|0:0,0:0:0:0:
223,223,183877,102,0,P|264:228|303:213,1,85,4|0,0:0|0:0,0:0:0:0:
291,67,184226,1,12,0:0:0:0:
173,157,184400,2,0,P|146:190|140:231,1,85,2|4,0:0|0:0,0:0:0:0:
223,223,184749,1,2,0:0:0:0:
121,89,184924,1,12,0:0:0:0:
223,223,185098,6,0,B|263:240|304:215|304:215|311:259|351:284,1,170,2|2,0:0|0:0,0:0:0:0:
338,136,185621,2,0,P|297:130|258:146,1,85,12|2,0:0|0:0,0:0:0:0:
191,298,185970,2,0,P|215:264|222:223,1,85,4|2,0:0|0:0,0:0:0:0:
90,166,186319,2,0,P|105:204|138:230,1,85,12|2,0:0|0:0,0:0:0:0:
258,145,186668,102,0,P|297:129|338:135,1,85,6|0,0:0|0:0,0:0:0:0:
307,217,187017,1,12,0:0:0:0:
172,152,187191,2,0,P|178:110|204:77,1,85,2|4,0:0|0:0,0:0:0:0:
258,145,187540,1,2,0:0:0:0:
139,230,187714,1,12,0:0:0:0:
258,145,187889,6,0,B|296:121|339:135|339:135|383:114|431:133,1,170,2|2,0:0|0:0,0:0:0:0:
355,282,188412,2,0,P|322:255|306:216,1,85,12|2,0:0|0:0,0:0:0:0:
338,134,188761,1,4,0:0:0:0:
387,207,188935,1,2,0:0:0:0:
258,145,189110,2,0,P|264:103|290:70,1,85,12|2,0:0|0:0,0:0:0:0:
387,207,189459,102,0,P|428:214|468:200,1,85,4|0,0:0|0:0,0:0:0:0:
422,129,189807,1,12,0:0:0:0:
306,216,189982,2,0,P|322:255|355:282,1,85,2|4,0:0|0:0,0:0:0:0:
422,129,190331,2,0,P|406:89|373:63,1,85,2|12,0:0|0:0,0:0:0:0:
172,156,190680,6,0,P|223:220|305:215,1,170,6|6,0:0|0:0,0:0:0:0:
258,145,191203,1,12,0:0:0:0:
87,168,191377,1,10,0:0:0:0:
60,327,191552,1,10,0:0:0:0:
102,322,191639,1,8,0:0:0:0:
144,317,191726,1,8,0:0:0:0:
186,312,191813,1,8,0:0:0:0:
228,307,191900,2,0,L|322:316,1,85,12|8,0:0|0:0,0:0:0:0:
258,144,192249,101,14,0:0:0:0:
228,307,192424,1,10,0:0:0:0:
389,208,192598,1,10,0:0:0:0:
225,225,192773,2,0,L|140:217,1,85,6|0,0:0|0:0,0:0:0:0:
291,63,193121,2,0,L|375:70,1,85,14|0,0:0|0:0,0:0:0:0:
332,252,193470,6,0,B|300:265|265:264|224:225|224:225|213:269|213:269|227:306,1,203.999993774414,14|0,0:0|0:0,0:0:0:0:
