osu file format v14

[General]
AudioFilename: audio.mp3
AudioLeadIn: 0
PreviewTime: 44604
Countdown: 0
SampleSet: Soft
StackLeniency: 0.7
Mode: 0
LetterboxInBreaks: 0
WidescreenStoryboard: 1

[Editor]
DistanceSpacing: 1
BeatDivisor: 4
GridSize: 8
TimelineZoom: 1.5

[Metadata]
Title:Binetsu kara Mystery
TitleUnicode:微熱からMystery
Artist:lily white
ArtistUnicode:lily white
Creator:newton-
Version:Kanan's Easy
Source:ラブライブ! School idol project
Tags:u's μ's love live! live lovelive lovelive! 園田海未 sonoda umi 三森すずこ mimori suzuko 星空凛 hoshizora rin 飯田里穂 iida riho 東條希 toujou nozomi 楠田亜衣奈 kusuda aina
BeatmapID:1322401
BeatmapSetID:626313

[Difficulty]
HPDrainRate:2
CircleSize:3
OverallDifficulty:2
ApproachRate:3
SliderMultiplier:0.799999999999999
SliderTickRate:1

[Events]
//Background and Video events
0,0,"umi.jpeg",0,0
//Break Periods
2,70356,74995
2,134542,144763
//Storyboard Layer 0 (Background)
//Storyboard Layer 1 (Fail)
//Storyboard Layer 2 (Pass)
//Storyboard Layer 3 (Foreground)
//Storyboard Sound Samples

[TimingPoints]
1087,348.837209302326,4,2,1,60,1,0
6668,-100,4,2,91,60,0,0
7017,-100,4,2,90,60,0,0
12249,-100,4,2,91,60,0,0
12424,-100,4,2,90,60,0,0
16261,-100,4,2,91,60,0,0
16435,-100,4,2,90,60,0,0
16610,-100,4,2,91,60,0,0
16784,-100,4,2,90,60,0,0
16959,-100,4,2,92,60,0,0
17133,-100,4,2,93,60,0,0
17831,-100,4,2,91,60,0,0
18180,-100,4,2,90,50,0,0
22714,-100,4,2,92,50,0,0
22889,-100,4,2,90,50,0,0
23238,-100,4,2,93,50,0,0
23412,-100,4,2,91,50,0,0
23761,-100,4,2,90,50,0,0
28470,-100,4,2,92,50,0,0
28645,-100,4,2,93,50,0,0
28993,-100,4,2,91,50,0,0
29168,-100,4,2,99,50,0,0
31784,-100,4,2,91,50,0,0
31959,-100,4,2,99,50,0,0
34575,-100,4,2,91,50,0,0
34749,-100,4,2,99,50,0,0
37366,-100,4,2,91,50,0,0
37540,-100,4,2,99,50,0,0
39633,-100,4,2,94,50,0,0
39807,-100,4,2,92,50,0,0
39982,-100,4,2,93,50,0,0
40156,-100,4,2,91,50,0,0
42075,-100,4,2,90,50,0,0
42424,-100,4,2,92,70,0,0
42598,-100,4,2,93,70,0,0
42773,-100,4,2,91,70,0,0
43121,-100,4,2,90,70,0,0
44342,-100,4,2,91,70,0,0
45650,-100,4,2,91,5,0,0
45738,-100,4,2,91,80,0,0
45912,-100,4,2,90,80,0,0
50970,-100,4,2,91,80,0,0
51668,-100,4,2,90,80,0,0
54459,-100,4,2,91,80,0,0
54633,-100,4,2,90,80,0,0
56028,-100,4,2,91,80,0,0
56202,-100,4,2,90,80,0,0
56552,-100,4,2,92,80,0,0
56726,-100,4,2,93,80,0,0
56900,-100,4,2,91,80,0,0
57074,-100,4,2,90,80,0,0
62133,-100,4,2,91,80,0,0
62831,-100,4,2,90,80,0,0
65273,-100,4,2,91,80,0,0
65447,-100,4,2,90,80,0,0
65970,-100,4,2,91,80,0,0
66144,-100,4,2,90,80,0,0
66668,-100,4,2,91,80,0,0
66842,-100,4,2,90,80,0,0
67366,-100,4,2,91,80,0,0
67540,-100,4,2,90,80,0,0
67627,-100,4,2,94,80,0,0
67714,-100,4,2,92,80,0,0
67889,-100,4,2,93,80,0,0
68063,-100,4,2,91,80,0,0
68238,-100,4,2,92,80,0,0
68412,-100,4,2,93,80,0,0
68587,-100,4,2,91,80,0,0
68935,-100,4,2,92,80,0,0
69109,-100,4,2,93,80,0,0
69284,-100,4,2,91,80,0,0
69807,-100,4,2,90,80,0,0
70156,-100,4,2,90,60,0,0
70854,-100,4,2,91,60,0,0
71203,-100,4,2,90,60,0,0
76435,-100,4,2,91,60,0,0
76610,-100,4,2,90,60,0,0
80447,-100,4,2,91,60,0,0
80621,-100,4,2,90,60,0,0
80796,-100,4,2,91,60,0,0
80970,-100,4,2,90,60,0,0
81145,-100,4,2,92,60,0,0
81319,-100,4,2,93,60,0,0
81493,-100,4,2,90,60,0,0
81668,-100,4,2,92,60,0,0
81842,-100,4,2,93,60,0,0
82017,-100,4,2,91,60,0,0
82366,-100,4,2,90,50,0,0
87249,-100,4,2,92,50,0,0
87424,-100,4,2,93,50,0,0
87598,-100,4,2,91,50,0,0
87947,-100,4,2,90,50,0,0
92656,-100,4,2,92,50,0,0
92831,-100,4,2,93,50,0,0
93008,-100,4,2,91,50,0,0
93528,-100,4,2,99,50,0,0
95970,-100,4,2,91,50,0,0
96145,-100,4,2,99,50,0,0
98761,-100,4,2,91,50,0,0
98935,-100,4,2,99,50,0,0
101552,-100,4,2,91,50,0,0
101726,-100,4,2,99,50,0,0
103819,-100,4,2,94,50,0,0
103993,-100,4,2,92,50,0,0
104168,-100,4,2,93,50,0,0
104342,-100,4,2,91,50,0,0
106261,-100,4,2,90,70,0,0
106610,-100,4,2,92,70,0,0
106784,-100,4,2,93,70,0,0
106959,-100,4,2,91,70,0,0
107307,-100,4,2,90,70,0,0
108528,-100,4,2,91,70,0,0
109226,-100,4,2,90,70,0,0
109575,-100,4,2,92,70,0,0
109749,-100,4,2,90,70,0,0
109924,-100,4,2,91,80,0,0
110098,-100,4,2,90,80,0,0
115156,-100,4,2,91,80,0,0
115854,-100,4,2,90,80,0,0
118645,-100,4,2,91,80,0,0
118819,-100,4,2,90,80,0,0
120214,-100,4,2,91,80,0,0
120388,-100,4,2,90,80,0,0
120738,-100,4,2,92,80,0,0
120912,-100,4,2,93,80,0,0
121086,-100,4,2,91,80,0,0
121260,-100,4,2,90,80,0,0
126319,-100,4,2,91,80,0,0
127017,-100,4,2,90,80,0,0
129459,-100,4,2,91,80,0,0
129633,-100,4,2,90,80,0,0
130156,-100,4,2,91,80,0,0
130330,-100,4,2,90,80,0,0
130854,-100,4,2,91,80,0,0
131028,-100,4,2,90,80,0,0
131552,-100,4,2,91,80,0,0
131726,-100,4,2,90,80,0,0
131813,-100,4,2,94,80,0,0
131900,-100,4,2,92,80,0,0
132075,-100,4,2,93,80,0,0
132249,-100,4,2,91,80,0,0
132424,-100,4,2,92,80,0,0
132598,-100,4,2,93,80,0,0
132773,-100,4,2,91,80,0,0
133121,-100,4,2,92,80,0,0
133295,-100,4,2,93,80,0,0
133470,-100,4,2,91,80,0,0
133993,-100,4,2,90,80,0,0
134342,-100,4,2,90,60,0,0
135040,-100,4,2,91,60,0,0
135389,-100,4,2,90,60,0,0
140447,-100,4,2,92,60,0,0
140621,-100,4,2,91,60,0,0
140970,-100,4,2,90,60,0,0
144807,-100,4,2,91,60,0,0
144982,-100,4,2,90,60,0,0
145680,-100,4,2,92,60,0,0
145854,-100,4,2,93,60,0,0
146203,-100,4,2,91,60,0,0
148296,-100,4,2,94,60,0,0
148470,-100,4,2,92,60,0,0
148645,-100,4,2,93,60,0,0
148819,-100,4,2,91,60,0,0
149168,-100,4,2,90,60,0,0
150214,-100,4,2,91,60,0,0
150563,-100,4,2,90,60,0,0
151610,-100,4,2,91,60,0,0
151959,-100,4,2,90,60,0,0
153005,-100,4,2,91,60,0,0
153528,-100,4,2,90,70,0,0
155970,-100,4,2,90,60,0,0
158238,-100,4,2,92,60,0,0
158412,-100,4,2,93,60,0,0
158587,-100,4,2,90,60,0,0
158761,-100,4,2,91,60,0,0
159110,-100,4,2,92,60,0,0
159284,-100,4,2,93,60,0,0
159459,-100,4,2,91,60,0,0
159807,-100,4,2,93,60,0,0
159982,-100,4,2,90,60,0,0
161203,-100,4,2,92,60,0,0
161552,-100,4,2,91,80,0,0
161726,-100,4,2,90,80,0,0
164342,-100,4,2,91,80,0,0
164516,-100,4,2,90,80,0,0
165040,-100,4,2,91,80,0,0
165214,-100,4,2,90,80,0,0
166261,-100,4,2,91,80,0,0
166435,-100,4,2,90,80,0,0
166784,-100,4,2,92,80,0,0
166958,-100,4,2,93,80,0,0
167132,-100,4,2,91,80,0,0
167306,-100,4,2,90,80,0,0
172365,-100,4,2,91,80,0,0
173063,-100,4,2,90,80,0,0
175505,-100,4,2,91,80,0,0
175679,-100,4,2,90,80,0,0
176202,-100,4,2,91,80,0,0
176376,-100,4,2,90,80,0,0
176900,-100,4,2,91,80,0,0
177074,-100,4,2,90,80,0,0
177598,-100,4,2,91,80,0,0
177772,-100,4,2,90,80,0,0
177859,-100,4,2,94,80,0,0
177946,-100,4,2,92,80,0,0
178121,-100,4,2,93,80,0,0
178295,-100,4,2,91,80,0,0
178470,-100,4,2,92,80,0,0
178644,-100,4,2,93,80,0,0
178819,-100,4,2,91,80,0,0
179167,-100,4,2,92,80,0,0
179341,-100,4,2,93,80,0,0
179516,-100,4,2,91,80,0,0
180039,-100,4,2,90,80,0,0
180389,-100,4,2,90,60,0,0
181087,-100,4,2,91,60,0,0
181436,-100,4,2,90,60,0,0
186668,-100,4,2,91,60,0,0
186843,-100,4,2,90,60,0,0
190680,-100,4,2,91,60,0,0
190854,-100,4,2,90,60,0,0
191029,-100,4,2,91,60,0,0
191203,-100,4,2,90,60,0,0
191378,-100,4,2,92,60,0,0
191552,-100,4,2,93,60,0,0
191639,-100,4,2,90,60,0,0
191900,-100,4,2,92,60,0,0
192075,-100,4,2,93,60,0,0
192249,-100,4,2,90,60,0,0
192424,-100,4,2,92,60,0,0
192598,-100,4,2,93,60,0,0
193121,-100,4,2,90,60,0,0
193470,-100,4,2,91,60,0,0
194342,-100,4,2,91,5,0,0

[Colours]
Combo1 : 128,128,128
Combo2 : 223,223,32
Combo3 : 186,186,27
Combo4 : 7,158,109
Combo5 : 0,128,64
Combo6 : 0,102,204
Combo7 : 0,64,128
Combo8 : 192,192,192

[HitObjects]
74,117,6668,6,0,P|145:97|230:117,1,160,6|4,0:0|0:0,0:0:0:0:
263,187,7714,1,12,0:0:0:0:
228,259,8063,2,0,P|155:284|74:263,1,160,4|4,0:0|0:0,0:0:0:0:
207,356,9459,6,0,L|299:357,1,79.9999999999999,4|12,0:0|0:0,0:0:0:0:
354,314,10156,2,0,L|442:315,1,79.9999999999999,4|12,0:0|0:0,0:0:0:0:
498,266,10854,2,0,P|478:188|515:112,1,160,4|4,0:0|0:0,0:0:0:0:
462,52,11900,1,12,0:0:0:0:
394,94,12249,102,0,L|267:93,1,120,6|2,0:0|0:0,0:0:0:0:
158,126,13296,1,12,0:0:0:0:
90,169,13645,2,0,P|100:222|93:260,1,79.9999999999999,4|12,0:0|0:0,0:0:0:0:
101,327,14342,2,0,P|146:317|191:325,1,79.9999999999999,4|12,0:0|0:0,0:0:0:0:
255,296,15040,5,4,0:0:0:0:
350,223,15563,2,0,L|477:224,1,120,2|12,0:0|0:0,0:0:0:0:
474,144,16435,2,0,B|377:147|377:147|327:109|327:109|236:107,1,240,4|0,0:0|0:0,0:0:0:0:
168,89,17831,6,0,P|174:130|76:196,1,160,6|2,0:0|0:0,0:0:0:0:
29,147,18877,1,12,0:0:0:0:
15,226,19226,2,0,P|1:285|77:344,1,160,2|2,0:0|0:0,0:0:0:0:
218,286,20621,6,0,L|388:289,1,160,2|2,0:0|0:0,0:0:0:0:
458,294,21668,1,12,0:0:0:0:
456,213,22017,2,0,P|491:142|452:59,1,160,2|10,0:0|0:0,0:0:0:0:
310,114,23412,102,0,L|150:106,1,160,6|2,0:0|0:0,0:0:0:0:
81,65,24459,1,12,0:0:0:0:
18,114,24807,2,0,L|20:279,1,160,2|2,0:0|0:0,0:0:0:0:
167,337,26203,6,0,P|210:312|312:344,1,160,2|2,0:0|0:0,0:0:0:0:
388,325,27249,1,12,0:0:0:0:
341,259,27598,2,0,L|345:88,1,160,2|8,0:0|0:0,0:0:0:0:
234,214,28993,102,0,P|158:237|76:205,1,160,6|4,0:0|0:0,0:0:0:0:
30,152,30040,1,12,0:0:0:0:
81,90,30389,2,0,L|247:90,1,160,4|4,0:0|0:0,0:0:0:0:
331,221,31784,6,0,B|270:235|270:235|227:212|175:224,1,160,4|4,0:0|0:0,0:0:0:0:
100,252,32831,1,12,0:0:0:0:
110,172,33180,2,0,L|108:3,1,160,4|4,0:0|0:0,0:0:0:0:
201,141,34575,102,0,P|208:173|125:269,1,160,4|4,0:0|0:0,0:0:0:0:
71,312,35621,1,12,0:0:0:0:
136,357,35970,2,0,L|302:358,1,160,4|4,0:0|0:0,0:0:0:0:
363,314,37017,1,12,0:0:0:0:
437,283,37366,6,0,P|403:242|303:261,1,160,4|4,0:0|0:0,0:0:0:0:
238,299,38412,1,12,0:0:0:0:
172,253,38761,2,0,L|171:94,1,160,4|8,0:0|0:0,0:0:0:0:
325,53,40156,38,0,L|423:51,1,79.9999999999999,6|0,0:0|0:0,0:0:0:0:
413,131,40854,2,0,L|318:133,1,79.9999999999999,6|0,0:0|0:0,0:0:0:0:
330,212,41552,2,0,L|410:212,1,79.9999999999999,6|0,0:0|0:0,0:0:0:0:
177,161,42947,54,0,P|161:190|210:298,2,160,0|10|14,0:0|0:0|0:0,0:0:0:0:
177,161,45738,22,0,L|340:162,1,160,6|4,0:0|0:0,0:0:0:0:
416,150,46784,1,12,0:0:0:0:
393,226,47133,2,0,P|403:257|317:336,1,160,6|4,0:0|0:0,0:0:0:0:
248,310,48180,1,12,0:0:0:0:
171,334,48528,6,0,L|83:332,1,79.9999999999999,6|12,0:0|0:0,0:0:0:0:
76,253,49226,2,0,L|172:255,1,79.9999999999999,4|12,0:0|0:0,0:0:0:0:
232,230,49924,2,0,P|246:192|201:81,1,160,6|4,0:0|0:0,0:0:0:0:
239,12,50970,1,12,0:0:0:0:
302,60,51319,102,0,L|395:59,1,79.9999999999999,6|12,0:0|0:0,0:0:0:0:
446,106,52017,1,4,0:0:0:0:
484,176,52366,1,12,0:0:0:0:
440,243,52714,2,0,P|364:265|286:227,1,160,6|4,0:0|0:0,0:0:0:0:
233,179,53761,1,12,0:0:0:0:
158,207,54110,6,0,L|62:206,1,79.9999999999999,6|12,0:0|0:0,0:0:0:0:
29,142,54807,2,0,L|28:57,1,79.9999999999999,4|12,0:0|0:0,0:0:0:0:
96,20,55505,2,0,L|187:19,1,79.9999999999999,6|12,0:0|0:0,0:0:0:0:
235,73,56203,2,0,L|235:155,1,79.9999999999999,0|8,0:0|0:0,0:0:0:0:
159,180,56900,102,0,P|231:231|299:202,1,160,6|4,0:0|0:0,0:0:0:0:
355,159,57947,1,12,0:0:0:0:
421,113,58296,2,0,P|456:169|437:275,1,160,6|4,0:0|0:0,0:0:0:0:
385,310,59342,1,12,0:0:0:0:
320,262,59691,6,0,L|231:262,1,79.9999999999999,6|12,0:0|0:0,0:0:0:0:
163,286,60389,2,0,L|67:286,1,79.9999999999999,4|12,0:0|0:0,0:0:0:0:
38,219,61087,2,0,L|36:124,1,79.9999999999999,6|12,0:0|0:0,0:0:0:0:
101,91,61784,1,4,0:0:0:0:
168,133,62133,102,0,P|250:115|330:135,1,160,12|12,0:0|0:0,0:0:0:0:
397,161,63180,2,0,P|406:204|400:245,1,79.9999999999999,4|12,0:0|0:0,0:0:0:0:
324,220,63877,2,0,P|244:195|176:224,1,160,6|4,0:0|0:0,0:0:0:0:
105,261,64924,1,12,0:0:0:0:
157,321,65273,6,0,L|241:320,1,79.9999999999999,6|12,0:0|0:0,0:0:0:0:
315,335,65970,2,0,L|401:335,1,79.9999999999999,6|12,0:0|0:0,0:0:0:0:
455,282,66668,2,0,P|431:233|461:129,1,160,12|6,0:0|0:0,0:0:0:0:
437,56,67714,1,12,0:0:0:0:
359,76,68063,102,0,L|267:74,1,79.9999999999999,6|12,0:0|0:0,0:0:0:0:
201,96,68761,2,0,L|114:95,1,79.9999999999999,0|8,0:0|0:0,0:0:0:0:
56,143,69459,2,0,P|38:223|67:299,1,160,0|6,0:0|0:0,0:0:0:0:
64,163,76435,54,0,L|193:159,1,120,6|2,0:0|0:0,0:0:0:0:
258,131,77307,1,2,0:0:0:0:
291,204,77656,2,0,P|282:233|340:309,1,120,2|12,0:0|0:0,0:0:0:0:
405,311,78528,2,0,L|492:313,1,79.9999999999999,4|12,0:0|0:0,0:0:0:0:
505,235,79226,6,0,P|485:164|499:73,1,160,4|4,0:0|0:0,0:0:0:0:
443,19,80273,1,12,0:0:0:0:
373,55,80621,2,0,L|288:56,1,79.9999999999999,4|12,0:0|0:0,0:0:0:0:
216,79,81319,2,0,L|129:77,1,79.9999999999999,10|8,0:0|0:0,0:0:0:0:
73,27,82017,6,0,L|58:195,1,160,6|12,0:0|0:0,0:0:0:0:
84,262,83063,1,2,0:0:0:0:
144,314,83412,2,0,P|222:291|299:320,1,160,6|12,0:0|0:0,0:0:0:0:
447,359,84807,6,0,P|424:284|453:206,1,160,6|12,0:0|0:0,0:0:0:0:
451,129,85854,1,6,0:0:0:0:
482,55,86203,2,0,P|409:27|330:58,1,160,6|12,0:0|0:0,0:0:0:0:
232,176,87598,102,0,L|66:175,1,160,6|2,0:0|0:0,0:0:0:0:
8,126,88645,1,12,0:0:0:0:
0,205,88993,2,0,B|14:244|14:244|9:364,1,160,2|2,0:0|0:0,0:0:0:0:
123,250,90389,6,0,P|201:248|244:183,1,160,2|2,0:0|0:0,0:0:0:0:
280,113,91435,1,12,0:0:0:0:
323,45,91784,2,0,L|482:50,1,160,2|8,0:0|0:0,0:0:0:0:
474,130,92831,1,12,0:0:0:0:
491,208,93180,102,0,P|465:282|483:369,1,160,6|4,0:0|0:0,0:0:0:0:
399,369,94226,1,12,0:0:0:0:
323,342,94575,2,0,P|248:320|164:338,1,160,4|4,0:0|0:0,0:0:0:0:
159,256,95621,1,12,0:0:0:0:
204,190,95970,6,0,P|279:215|364:196,1,160,4|4,0:0|0:0,0:0:0:0:
401,133,97017,1,12,0:0:0:0:
359,63,97366,2,0,L|188:59,1,160,4|4,0:0|0:0,0:0:0:0:
121,78,98412,1,12,0:0:0:0:
50,40,98761,102,0,P|61:109|43:198,1,160,4|4,0:0|0:0,0:0:0:0:
23,274,99807,1,12,0:0:0:0:
102,268,100156,2,0,P|177:242|259:267,1,160,4|4,0:0|0:0,0:0:0:0:
318,308,101203,1,12,0:0:0:0:
394,282,101552,6,0,L|392:195,1,79.9999999999999,4|12,0:0|0:0,0:0:0:0:
338,142,102249,2,0,L|337:51,1,79.9999999999999,4|12,0:0|0:0,0:0:0:0:
259,83,102947,2,0,P|182:101|92:75,1,160,4|8,0:0|0:0,0:0:0:0:
18,217,104342,38,0,L|104:217,1,79.9999999999999,6|0,0:0|0:0,0:0:0:0:
98,297,105040,2,0,L|9:298,1,79.9999999999999,6|0,0:0|0:0,0:0:0:0:
20,378,105738,2,0,L|116:376,1,79.9999999999999,6|0,0:0|0:0,0:0:0:0:
287,307,106959,54,0,B|315:266|283:237|283:237|211:264|167:233|167:233|91:259|98:209|3:233,1,360,6|14,0:0|0:0,0:0:0:0:
78,109,109924,22,0,P|103:185|74:275,1,160,6|4,0:0|0:0,0:0:0:0:
37,327,110970,1,12,0:0:0:0:
112,353,111319,2,0,L|277:352,1,160,6|4,0:0|0:0,0:0:0:0:
330,296,112366,1,12,0:0:0:0:
298,222,112714,6,0,L|292:125,1,79.9999999999999,6|12,0:0|0:0,0:0:0:0:
234,87,113412,2,0,L|227:3,1,79.9999999999999,4|12,0:0|0:0,0:0:0:0:
153,37,114110,2,0,L|-11:22,1,160,6|4,0:0|0:0,0:0:0:0:
6,101,115156,1,12,0:0:0:0:
39,173,115505,102,0,P|25:198|77:317,1,160,6|4,0:0|0:0,0:0:0:0:
146,310,116552,1,12,0:0:0:0:
220,281,116900,2,0,L|306:281,1,79.9999999999999,6|12,0:0|0:0,0:0:0:0:
377,258,117598,2,0,L|463:262,1,79.9999999999999,4|12,0:0|0:0,0:0:0:0:
490,188,118296,6,0,P|513:108|479:36,1,160,6|4,0:0|0:0,0:0:0:0:
407,66,119342,1,12,0:0:0:0:
333,98,119691,2,0,L|246:96,1,79.9999999999999,6|12,0:0|0:0,0:0:0:0:
184,137,120389,2,0,L|93:133,1,79.9999999999999,0|8,0:0|0:0,0:0:0:0:
32,169,121087,102,0,P|56:229|32:329,1,160,6|4,0:0|0:0,0:0:0:0:
113,345,122133,1,12,0:0:0:0:
166,285,122482,2,0,L|333:293,1,160,6|0,0:0|0:0,0:0:0:0:
405,301,123528,1,12,0:0:0:0:
392,221,123877,6,0,L|398:138,1,79.9999999999999,6|12,0:0|0:0,0:0:0:0:
346,79,124575,2,0,L|353:-2,1,79.9999999999999,4|12,0:0|0:0,0:0:0:0:
273,13,125273,2,0,P|237:8|147:97,1,160,6|4,0:0|0:0,0:0:0:0:
112,153,126319,1,12,0:0:0:0:
166,212,126668,102,0,L|259:213,1,79.9999999999999,6|12,0:0|0:0,0:0:0:0:
322,237,127366,2,0,L|419:238,1,79.9999999999999,4|12,0:0|0:0,0:0:0:0:
478,212,128063,2,0,P|497:171|495:124,2,79.9999999999999,6|12|4,0:0|0:0|0:0,0:0:0:0:
466,291,129110,1,12,0:0:0:0:
395,328,129459,6,0,L|311:329,1,79.9999999999999,6|12,0:0|0:0,0:0:0:0:
245,289,130156,2,0,L|150:288,1,79.9999999999999,6|12,0:0|0:0,0:0:0:0:
89,261,130854,2,0,P|114:184|80:104,1,160,12|6,0:0|0:0,0:0:0:0:
54,39,131900,1,12,0:0:0:0:
130,14,132249,102,0,L|223:15,1,79.9999999999999,6|12,0:0|0:0,0:0:0:0:
279,55,132947,1,0,0:0:0:0:
321,123,133296,1,8,0:0:0:0:
263,179,133645,2,0,P|284:254|244:338,1,160,0|6,0:0|0:0,0:0:0:0:
254,327,146203,22,0,L|164:323,1,79.9999999999999,6|0,0:0|0:0,0:0:0:0:
182,243,146900,2,0,L|275:249,1,79.9999999999999,6|0,0:0|0:0,0:0:0:0:
270,168,147598,2,0,L|175:165,1,79.9999999999999,6|0,0:0|0:0,0:0:0:0:
256,192,148993,12,14,154575,0:0:0:0:
415,96,155970,22,0,L|288:91,1,120,14|14,0:0|0:0,0:0:0:0:
121,190,157366,2,0,L|250:201,1,120,14|14,0:0|0:0,0:0:0:0:
354,237,158412,1,12,0:0:0:0:
410,294,158761,6,0,P|432:216|375:157,1,160,6|6,0:0|0:0,0:0:0:0:
305,151,159807,1,8,0:0:0:0:
229,177,160156,2,0,L|138:177,1,79.9999999999999,0|0,0:0|0:0,0:0:0:0:
68,182,160854,2,0,P|82:230|72:275,1,79.9999999999999,6|8,0:0|0:0,0:0:0:0:
138,311,161552,102,0,P|217:292|302:318,1,160,6|4,0:0|0:0,0:0:0:0:
368,333,162598,1,12,0:0:0:0:
404,261,162947,2,0,B|423:220|423:220|418:95,1,160,6|4,0:0|0:0,0:0:0:0:
379,35,163993,1,12,0:0:0:0:
305,65,164342,6,0,L|217:65,1,79.9999999999999,6|12,0:0|0:0,0:0:0:0:
153,100,165040,2,0,L|71:98,1,79.9999999999999,4|12,0:0|0:0,0:0:0:0:
28,164,165738,2,0,P|58:236|28:322,1,160,6|0,0:0|0:0,0:0:0:0:
114,326,166784,1,8,0:0:0:0:
180,281,167133,102,0,P|255:258|343:284,1,160,6|4,0:0|0:0,0:0:0:0:
404,312,168180,1,12,0:0:0:0:
450,247,168528,2,0,L|450:159,1,79.9999999999999,6|12,0:0|0:0,0:0:0:0:
398,105,169226,2,0,L|398:18,1,79.9999999999999,4|12,0:0|0:0,0:0:0:0:
319,39,169924,6,0,P|245:64|166:31,1,160,6|4,0:0|0:0,0:0:0:0:
91,38,170970,1,12,0:0:0:0:
23,80,171319,2,0,P|38:123|35:169,1,79.9999999999999,6|12,0:0|0:0,0:0:0:0:
19,235,172017,1,4,0:0:0:0:
88,274,172366,1,12,0:0:0:0:
159,239,172714,102,0,P|236:262|312:237,1,160,6|4,0:0|0:0,0:0:0:0:
375,192,173761,1,12,0:0:0:0:
445,154,174110,2,0,B|469:175|469:175|468:310,1,160,6|4,0:0|0:0,0:0:0:0:
391,326,175156,1,12,0:0:0:0:
324,281,175505,6,0,L|236:278,1,79.9999999999999,6|12,0:0|0:0,0:0:0:0:
165,292,176203,2,0,L|82:289,1,79.9999999999999,6|12,0:0|0:0,0:0:0:0:
58,213,176900,2,0,P|92:141|63:56,1,160,12|6,0:0|0:0,0:0:0:0:
131,13,177947,1,12,0:0:0:0:
207,37,178296,102,0,L|289:37,1,79.9999999999999,6|12,0:0|0:0,0:0:0:0:
363,61,178993,2,0,L|450:61,1,79.9999999999999,0|8,0:0|0:0,0:0:0:0:
491,125,179691,2,0,P|473:159|498:276,1,160,0|6,0:0|0:0,0:0:0:0:
341,317,181087,54,0,L|176:311,1,160,6|4,0:0|0:0,0:0:0:0:
106,281,182133,1,12,0:0:0:0:
158,220,182482,2,0,L|162:49,1,160,4|4,0:0|0:0,0:0:0:0:
318,29,183877,6,0,P|394:60|473:38,1,160,4|4,0:0|0:0,0:0:0:0:
491,118,184924,1,12,0:0:0:0:
438,178,185273,2,0,P|471:248|437:320,1,160,4|4,0:0|0:0,0:0:0:0:
360,335,186319,1,12,0:0:0:0:
289,296,186668,102,0,L|168:288,1,120,6|2,0:0|0:0,0:0:0:0:
60,237,187714,1,12,0:0:0:0:
119,183,188063,2,0,P|126:141|118:99,1,79.9999999999999,4|12,0:0|0:0,0:0:0:0:
163,37,188761,2,0,P|208:49|254:36,1,79.9999999999999,4|12,0:0|0:0,0:0:0:0:
318,58,189459,6,0,L|441:60,1,120,4|2,0:0|0:0,0:0:0:0:
491,167,190505,1,12,0:0:0:0:
501,246,190854,2,0,P|508:290|499:338,1,79.9999999999999,4|12,0:0|0:0,0:0:0:0:
422,325,191552,2,0,P|377:317|334:326,1,79.9999999999999,10|12,0:0|0:0,0:0:0:0:
264,334,192249,102,0,L|272:247,2,79.9999999999999,14|10|0,0:0|0:0|0:0,0:0:0:0:
143,328,193470,2,0,L|159:163,1,160,14|0,0:0|0:0,0:0:0:0:
