osu file format v14

[General]
AudioFilename: audio.mp3
AudioLeadIn: 0
PreviewTime: 44604
Countdown: 0
SampleSet: Soft
StackLeniency: 0.5
Mode: 0
LetterboxInBreaks: 0
WidescreenStoryboard: 0

[Editor]
Bookmarks: 17831,28993,40156,45738,70854,82017,87598,93180,104342,109924,135040,146203,148906,154575,155970,161552
DistanceSpacing: 1.1
BeatDivisor: 4
GridSize: 8
TimelineZoom: 1.4

[Metadata]
Title:Binetsu kara Mystery
TitleUnicode:微熱からMystery
Artist:lily white
ArtistUnicode:lily white
Creator:newton-
Version:Hard
Source:ラブライブ! School idol project
Tags:u's μ's love live! live lovelive lovelive! 園田海未 sonoda umi 三森すずこ mimori suzuko 星空凛 hoshizora rin 飯田里穂 iida riho 東條希 toujou nozomi 楠田亜衣奈 kusuda aina
BeatmapID:1367265
BeatmapSetID:626313

[Difficulty]
HPDrainRate:5
CircleSize:4
OverallDifficulty:6
ApproachRate:7.5
SliderMultiplier:1.5
SliderTickRate:1

[Events]
//Background and Video events
0,0,"background.jpg",0,0
//Break Periods
//Storyboard Layer 0 (Background)
//Storyboard Layer 1 (Fail)
//Storyboard Layer 2 (Pass)
//Storyboard Layer 3 (Foreground)
//Storyboard Sound Samples

[TimingPoints]
1087,348.837209302326,4,2,1,60,1,0
6668,-100,4,2,91,60,0,0
7017,-100,4,2,90,60,0,0
12249,-100,4,2,91,60,0,0
12424,-100,4,2,90,60,0,0
16261,-125,4,2,91,60,0,0
16435,-125,4,2,90,60,0,0
16610,-125,4,2,91,60,0,0
16784,-125,4,2,90,60,0,0
16959,-125,4,2,92,60,0,0
17133,-125,4,2,93,60,0,0
17831,-100,4,2,91,60,0,0
18180,-100,4,2,90,50,0,0
22714,-100,4,2,92,50,0,0
22889,-100,4,2,90,50,0,0
23238,-100,4,2,93,50,0,0
23412,-100,4,2,91,50,0,0
23761,-100,4,2,90,50,0,0
28470,-100,4,2,92,50,0,0
28645,-100,4,2,93,50,0,0
28993,-100,4,2,91,50,0,0
29168,-100,4,2,99,50,0,0
31784,-100,4,2,91,50,0,0
31959,-100,4,2,99,50,0,0
34575,-100,4,2,91,50,0,0
34749,-100,4,2,99,50,0,0
37366,-100,4,2,91,50,0,0
37540,-100,4,2,99,50,0,0
39633,-100,4,2,94,50,0,0
39807,-100,4,2,92,50,0,0
39982,-100,4,2,93,50,0,0
40156,-100,4,2,91,50,0,0
42075,-100,4,2,90,50,0,0
42424,-100,4,2,92,70,0,0
42598,-100,4,2,93,70,0,0
42773,-100,4,2,91,70,0,0
43121,-100,4,2,90,70,0,0
44342,-100,4,2,91,70,0,0
44691,-200,4,2,91,70,0,0
45650,-200,4,2,91,5,0,0
45738,-90.9090909090909,4,2,91,80,0,1
45912,-90.9090909090909,4,2,90,80,0,1
50970,-90.9090909090909,4,2,91,80,0,1
51668,-90.9090909090909,4,2,90,80,0,1
54459,-90.9090909090909,4,2,91,80,0,1
54633,-90.9090909090909,4,2,90,80,0,1
56028,-90.9090909090909,4,2,91,80,0,1
56202,-90.9090909090909,4,2,90,80,0,1
56552,-90.9090909090909,4,2,92,80,0,0
56726,-90.9090909090909,4,2,93,80,0,0
56900,-90.9090909090909,4,2,91,80,0,1
57074,-90.9090909090909,4,2,90,80,0,1
62133,-90.9090909090909,4,2,91,80,0,1
62831,-90.9090909090909,4,2,90,80,0,1
65273,-90.9090909090909,4,2,91,80,0,1
65447,-90.9090909090909,4,2,90,80,0,1
65970,-90.9090909090909,4,2,91,80,0,1
66144,-90.9090909090909,4,2,90,80,0,1
66668,-90.9090909090909,4,2,91,80,0,1
66842,-90.9090909090909,4,2,90,80,0,1
67366,-90.9090909090909,4,2,91,80,0,1
67540,-90.9090909090909,4,2,90,80,0,1
67627,-90.9090909090909,4,2,94,80,0,1
67714,-90.9090909090909,4,2,92,80,0,1
67889,-90.9090909090909,4,2,93,80,0,1
68063,-90.9090909090909,4,2,91,80,0,1
68238,-90.9090909090909,4,2,92,80,0,1
68412,-90.9090909090909,4,2,93,80,0,1
68587,-90.9090909090909,4,2,91,80,0,1
68935,-90.9090909090909,4,2,92,80,0,1
69109,-90.9090909090909,4,2,93,80,0,1
69284,-90.9090909090909,4,2,91,80,0,1
69807,-90.9090909090909,4,2,90,80,0,1
70156,-90.9090909090909,4,2,90,60,0,1
70854,-100,4,2,91,60,0,0
71203,-100,4,2,90,60,0,0
76435,-100,4,2,91,60,0,0
76610,-100,4,2,90,60,0,0
80447,-125,4,2,91,60,0,0
80621,-125,4,2,90,60,0,0
80796,-125,4,2,91,60,0,0
80970,-125,4,2,90,60,0,0
81145,-125,4,2,92,60,0,0
81319,-125,4,2,93,60,0,0
81493,-125,4,2,90,60,0,0
81668,-125,4,2,92,60,0,0
81842,-125,4,2,93,60,0,0
82017,-100,4,2,91,60,0,0
82366,-100,4,2,90,50,0,0
87249,-100,4,2,92,50,0,0
87424,-100,4,2,93,50,0,0
87598,-100,4,2,91,50,0,0
87947,-100,4,2,90,50,0,0
92656,-100,4,2,92,50,0,0
92831,-100,4,2,93,50,0,0
93008,-100,4,2,91,50,0,0
93528,-100,4,2,99,50,0,0
95970,-100,4,2,91,50,0,0
96145,-100,4,2,99,50,0,0
98761,-100,4,2,91,50,0,0
98935,-100,4,2,99,50,0,0
101552,-100,4,2,91,50,0,0
101726,-100,4,2,99,50,0,0
103819,-100,4,2,94,50,0,0
103993,-100,4,2,92,50,0,0
104168,-100,4,2,93,50,0,0
104342,-100,4,2,91,50,0,0
106261,-100,4,2,90,70,0,0
106610,-100,4,2,92,70,0,0
106784,-100,4,2,93,70,0,0
106959,-100,4,2,91,70,0,0
107307,-100,4,2,90,70,0,0
108528,-100,4,2,91,70,0,0
109226,-100,4,2,90,70,0,0
109575,-100,4,2,92,70,0,0
109749,-100,4,2,90,70,0,0
109924,-90.9090909090909,4,2,91,80,0,1
110098,-90.9090909090909,4,2,90,80,0,1
115156,-90.9090909090909,4,2,91,80,0,1
115854,-90.9090909090909,4,2,90,80,0,1
118645,-90.9090909090909,4,2,91,80,0,1
118819,-90.9090909090909,4,2,90,80,0,1
120214,-90.9090909090909,4,2,91,80,0,1
120388,-90.9090909090909,4,2,90,80,0,1
120738,-90.9090909090909,4,2,92,80,0,0
120912,-90.9090909090909,4,2,93,80,0,0
121086,-90.9090909090909,4,2,91,80,0,0
121087,-90.9090909090909,4,2,91,80,0,1
121260,-90.9090909090909,4,2,90,80,0,1
126319,-90.9090909090909,4,2,91,80,0,1
127017,-90.9090909090909,4,2,90,80,0,1
129459,-90.9090909090909,4,2,91,80,0,1
129633,-90.9090909090909,4,2,90,80,0,1
130156,-90.9090909090909,4,2,91,80,0,1
130330,-90.9090909090909,4,2,90,80,0,1
130854,-90.9090909090909,4,2,91,80,0,1
131028,-90.9090909090909,4,2,90,80,0,1
131552,-90.9090909090909,4,2,91,80,0,1
131726,-90.9090909090909,4,2,90,80,0,1
131813,-90.9090909090909,4,2,94,80,0,1
131900,-90.9090909090909,4,2,92,80,0,1
132075,-90.9090909090909,4,2,93,80,0,1
132249,-90.9090909090909,4,2,91,80,0,1
132424,-90.9090909090909,4,2,92,80,0,1
132598,-90.9090909090909,4,2,93,80,0,1
132773,-90.9090909090909,4,2,91,80,0,1
133121,-90.9090909090909,4,2,92,80,0,1
133295,-90.9090909090909,4,2,93,80,0,1
133470,-90.9090909090909,4,2,91,80,0,1
133993,-90.9090909090909,4,2,90,80,0,1
134342,-90.9090909090909,4,2,90,60,0,1
135040,-90.9090909090909,4,2,91,60,0,0
135389,-90.9090909090909,4,2,90,60,0,0
140447,-90.9090909090909,4,2,92,60,0,0
140621,-90.9090909090909,4,2,91,60,0,0
140970,-90.9090909090909,4,2,90,60,0,0
144807,-90.9090909090909,4,2,91,60,0,0
144982,-90.9090909090909,4,2,90,60,0,0
145680,-90.9090909090909,4,2,92,60,0,0
145854,-90.9090909090909,4,2,93,60,0,0
146203,-100,4,2,91,60,0,0
148296,-100,4,2,94,60,0,0
148470,-100,4,2,92,60,0,0
148645,-100,4,2,93,60,0,0
148819,-100,4,2,91,60,0,0
149168,-100,4,2,90,60,0,0
150214,-100,4,2,91,60,0,0
150563,-100,4,2,90,60,0,0
151610,-100,4,2,91,60,0,0
151959,-100,4,2,90,60,0,0
153005,-100,4,2,91,60,0,0
153528,-100,4,2,90,70,0,0
155970,-100,4,2,90,60,0,0
158238,-100,4,2,92,60,0,0
158412,-100,4,2,93,60,0,0
158587,-100,4,2,90,60,0,0
158761,-100,4,2,91,60,0,0
159110,-100,4,2,92,60,0,0
159284,-100,4,2,93,60,0,0
159459,-100,4,2,91,60,0,0
159807,-100,4,2,93,60,0,0
159982,-100,4,2,90,60,0,0
161203,-100,4,2,92,60,0,0
161552,-90.9090909090909,4,2,91,80,0,1
161726,-90.9090909090909,4,2,90,80,0,1
164342,-90.9090909090909,4,2,91,80,0,1
164516,-90.9090909090909,4,2,90,80,0,1
165040,-90.9090909090909,4,2,91,80,0,1
165214,-90.9090909090909,4,2,90,80,0,1
166261,-90.9090909090909,4,2,91,80,0,1
166435,-90.9090909090909,4,2,90,80,0,1
166784,-90.9090909090909,4,2,92,80,0,0
166958,-90.9090909090909,4,2,93,80,0,0
167132,-90.9090909090909,4,2,91,80,0,0
167133,-90.9090909090909,4,2,91,80,0,1
167306,-90.9090909090909,4,2,90,80,0,1
172365,-90.9090909090909,4,2,91,80,0,1
173063,-90.9090909090909,4,2,90,80,0,1
175505,-90.9090909090909,4,2,91,80,0,1
175679,-90.9090909090909,4,2,90,80,0,1
176202,-90.9090909090909,4,2,91,80,0,1
176376,-90.9090909090909,4,2,90,80,0,1
176900,-90.9090909090909,4,2,91,80,0,1
177074,-90.9090909090909,4,2,90,80,0,1
177598,-90.9090909090909,4,2,91,80,0,1
177772,-90.9090909090909,4,2,90,80,0,1
177859,-90.9090909090909,4,2,94,80,0,1
177946,-90.9090909090909,4,2,92,80,0,1
178121,-90.9090909090909,4,2,93,80,0,1
178295,-90.9090909090909,4,2,91,80,0,1
178470,-90.9090909090909,4,2,92,80,0,1
178644,-90.9090909090909,4,2,93,80,0,1
178819,-90.9090909090909,4,2,91,80,0,1
179167,-90.9090909090909,4,2,92,80,0,1
179341,-90.9090909090909,4,2,93,80,0,1
179516,-90.9090909090909,4,2,91,80,0,1
180039,-90.9090909090909,4,2,90,80,0,1
180389,-90.9090909090909,4,2,90,60,0,1
181087,-100,4,2,91,60,0,0
181436,-100,4,2,90,60,0,0
186668,-100,4,2,91,60,0,0
186843,-100,4,2,90,60,0,0
190680,-100,4,2,91,60,0,0
190854,-100,4,2,90,60,0,0
191029,-100,4,2,91,60,0,0
191203,-100,4,2,90,60,0,0
191378,-100,4,2,92,60,0,0
191552,-100,4,2,93,60,0,0
191639,-100,4,2,90,60,0,0
191900,-100,4,2,92,60,0,0
192075,-100,4,2,93,60,0,0
192249,-100,4,2,90,60,0,0
192424,-100,4,2,92,60,0,0
192598,-100,4,2,93,60,0,0
193121,-100,4,2,90,60,0,0
193470,-166.666666666667,4,2,91,60,0,0
194342,-166.666666666667,4,2,91,5,0,0

[Colours]
Combo1 : 128,128,128
Combo2 : 0,102,204
Combo3 : 0,64,128
Combo4 : 96,0,191
Combo5 : 64,0,128
Combo6 : 255,158,62
Combo7 : 234,117,0
Combo8 : 192,192,192

[HitObjects]
118,99,1087,102,0,P|109:161|190:224,1,150,0|0,0:0|0:0,0:0:0:0:
246,201,1610,1,0,0:0:0:0:
259,120,1784,2,0,P|221:121|190:140,1,75,0|0,0:0|0:0,0:0:0:0:
165,220,2133,1,0,0:0:0:0:
223,284,2307,6,0,L|382:297,2,150,0|0|0,0:0|0:0|0:0,0:0:0:0:
139,300,3180,2,0,P|120:333|121:369,1,75,0|0,0:0|0:0,0:0:0:0:
206,353,3528,2,0,P|224:319|223:283,1,75,0|0,0:0|0:0,0:0:0:0:
191,140,3877,102,0,P|260:120|319:164,1,150,0|0,0:0|0:0,0:0:0:0:
246,201,4400,1,0,0:0:0:0:
165,220,4575,2,0,P|122:190|110:164,1,75,0|0,0:0|0:0,0:0:0:0:
191,140,4924,1,0,0:0:0:0:
246,201,5098,6,0,L|233:360,2,150,0|0|0,0:0|0:0|0:0,0:0:0:0:
191,140,5970,2,0,P|195:87|211:64,1,75,0|0,0:0|0:0,0:0:0:0:
271,122,6319,2,0,P|314:152|326:178,1,75,0|0,0:0|0:0,0:0:0:0:
165,220,6668,6,0,B|53:210|53:210|7:238,1,150,6|12,0:0|0:0,0:0:0:0:
72,293,7191,2,0,L|151:299,1,75,2|4,0:0|0:0,0:0:0:0:
225,276,7540,2,0,P|246:229|233:177,1,75,2|12,0:0|0:0,0:0:0:0:
191,140,7889,6,0,P|201:76|302:50,1,150,2|2,0:0|0:0,0:0:0:0:
335,89,8412,2,0,L|414:95,1,75,12|2,0:0|0:0,0:0:0:0:
445,167,8761,1,4,0:0:0:0:
401,236,8935,1,2,0:0:0:0:
437,309,9110,2,0,P|435:346|417:378,1,75,12|2,0:0|0:0,0:0:0:0:
285,320,9459,102,0,L|135:332,1,150,4|12,0:0|0:0,0:0:0:0:
54,347,9982,2,0,P|56:310|74:278,1,75,2|4,0:0|0:0,0:0:0:0:
152,250,10331,2,0,P|170:217|172:180,1,75,2|12,0:0|0:0,0:0:0:0:
115,120,10680,6,0,P|175:96|257:169,1,150,2|2,0:0|0:0,0:0:0:0:
315,179,11203,2,0,L|394:185,1,75,12|2,0:0|0:0,0:0:0:0:
451,242,11552,2,0,P|468:209|471:172,1,75,4|2,0:0|0:0,0:0:0:0:
419,109,11900,2,0,P|421:71|439:39,1,75,12|2,0:0|0:0,0:0:0:0:
390,185,12249,102,0,L|316:180,2,75,6|0|12,0:0|0:0|0:0,0:0:0:0:
372,266,12773,2,0,L|297:260,1,75,2|4,0:0|0:0,0:0:0:0:
236,202,13121,2,0,L|161:207,1,75,2|12,0:0|0:0,0:0:0:0:
141,288,13470,6,0,P|90:248|112:140,1,150,2|2,0:0|0:0,0:0:0:0:
163,134,13993,2,0,P|170:171|161:207,1,75,12|2,0:0|0:0,0:0:0:0:
89,168,14342,1,4,0:0:0:0:
96,85,14517,1,2,0:0:0:0:
171,52,14691,2,0,L|245:57,1,75,12|2,0:0|0:0,0:0:0:0:
89,168,15040,102,0,P|53:155|27:129,2,75,4|0|12,0:0|0:0|0:0,0:0:0:0:
164,134,15563,2,0,L|238:139,1,75,2|4,0:0|0:0,0:0:0:0:
312,104,15912,2,0,L|386:98,1,75,2|12,0:0|0:0,0:0:0:0:
442,159,16261,6,0,B|458:198|448:214|446:222|430:252|452:286,2,120,6|6|10,0:0|0:0|0:0,0:0:0:0:
386,98,17133,1,10,0:0:0:0:
386,98,17831,6,0,L|218:112,1,150,6|12,0:0|0:0,0:0:0:0:
154,118,18354,1,8,0:0:0:0:
120,193,18528,2,0,P|132:227|159:254,1,75,2|4,0:0|0:0,0:0:0:0:
201,184,18877,1,12,0:0:0:0:
154,118,19052,1,4,0:0:0:0:
73,125,19226,6,0,B|41:170|41:170|50:282,1,150,2|12,0:0|0:0,0:0:0:0:
56,346,19749,1,8,0:0:0:0:
130,380,19924,2,0,P|166:386|202:376,1,75,2|4,0:0|0:0,0:0:0:0:
268,326,20273,2,0,P|303:316|340:322,1,75,12|4,0:0|0:0,0:0:0:0:
480,384,20621,102,0,L|466:216,1,150,2|12,0:0|0:0,0:0:0:0:
459,151,21145,1,8,0:0:0:0:
392,200,21319,2,0,P|356:210|319:204,1,75,2|4,0:0|0:0,0:0:0:0:
245,173,21668,2,0,P|209:166|173:176,1,75,12|4,0:0|0:0,0:0:0:0:
214,247,22017,5,2,0:0:0:0:
288,278,22191,1,4,0:0:0:0:
319,204,22366,1,12,0:0:0:0:
245,173,22540,1,2,0:0:0:0:
214,247,22714,2,0,P|207:283|217:319,1,75,10|12,0:0|0:0,0:0:0:0:
289,360,23063,2,0,L|363:366,1,75,12|10,0:0|0:0,0:0:0:0:
435,289,23412,102,0,L|285:276,1,150,6|12,0:0|0:0,0:0:0:0:
217,319,23935,1,8,0:0:0:0:
145,360,24110,2,0,P|134:324|141:287,1,75,2|4,0:0|0:0,0:0:0:0:
206,239,24459,1,12,0:0:0:0:
131,207,24633,1,4,0:0:0:0:
196,158,24807,6,0,L|345:170,1,150,2|12,0:0|0:0,0:0:0:0:
428,177,25331,1,8,0:0:0:0:
474,108,25505,2,0,P|468:71|446:41,1,75,2|4,0:0|0:0,0:0:0:0:
393,103,25854,1,12,0:0:0:0:
428,177,26028,1,4,0:0:0:0:
334,311,26203,102,0,L|260:305,1,75,2|4,0:0|0:0,0:0:0:0:
186,345,26552,2,0,P|175:309|182:272,1,75,12|8,0:0|0:0,0:0:0:0:
247,220,26900,2,0,P|253:183|242:147,1,75,2|4,0:0|0:0,0:0:0:0:
169,190,27249,1,12,0:0:0:0:
168,104,27424,6,0,B|219:68|219:68|336:79,1,150,4|4,0:0|0:0,0:0:0:0:
388,83,27947,2,0,L|462:77,1,75,12|8,0:0|0:0,0:0:0:0:
484,156,28296,2,0,L|410:162,1,75,8|8,0:0|0:0,0:0:0:0:
431,241,28645,2,0,L|505:235,1,75,12|2,0:0|0:0,0:0:0:0:
462,77,28993,102,0,L|388:83,2,75,6|0|12,0:0|0:0|0:0,0:0:0:0:
484,156,29517,2,0,L|301:170,1,150,2|2,0:0|0:0,0:0:0:0:
257,137,30040,2,0,P|251:174|262:210,1,75,12|2,0:0|0:0,0:0:0:0:
333,251,30389,6,0,P|343:286|337:323,2,75,4|2|12,0:0|0:0|0:0,0:0:0:0:
261,208,30912,2,0,L|111:196,1,150,2|2,0:0|0:0,0:0:0:0:
40,238,31435,2,0,P|29:202|35:165,1,75,12|2,0:0|0:0,0:0:0:0:
158,73,31784,102,0,P|132:100|97:113,2,75,4|2|12,0:0|0:0|0:0,0:0:0:0:
88,27,32307,2,0,L|238:39,1,150,2|2,0:0|0:0,0:0:0:0:
302,90,32831,2,0,L|376:84,1,75,12|2,0:0|0:0,0:0:0:0:
453,115,33180,6,0,P|458:78|448:43,2,75,4|2|12,0:0|0:0|0:0,0:0:0:0:
387,165,33703,2,0,B|355:210|355:210|364:322,1,150,2|2,0:0|0:0,0:0:0:0:
445,311,34226,2,0,L|439:237,1,75,12|2,0:0|0:0,0:0:0:0:
274,223,34575,102,0,L|280:297,2,75,4|2|12,0:0|0:0|0:0,0:0:0:0:
296,143,35098,2,0,B|328:98|328:98|319:-14,1,150,2|2,0:0|0:0,0:0:0:0:
237,2,35621,2,0,L|243:76,1,75,12|2,0:0|0:0,0:0:0:0:
159,74,35970,6,0,L|153:0,2,75,4|2|12,0:0|0:0|0:0,0:0:0:0:
199,148,36493,2,0,L|187:298,1,150,2|2,0:0|0:0,0:0:0:0:
116,342,37017,2,0,P|105:306|111:269,1,75,12|2,0:0|0:0,0:0:0:0:
263,324,37366,102,0,L|337:318,1,75,4|0,0:0|0:0,0:0:0:0:
413,350,37714,2,0,P|418:313|407:277,1,75,12|2,0:0|0:0,0:0:0:0:
337,237,38063,1,4,0:0:0:0:
406,196,38238,2,0,L|480:202,1,75,2|12,0:0|0:0,0:0:0:0:
509,124,38587,6,0,L|359:112,1,150,2|2,0:0|0:0,0:0:0:0:
286,150,39110,2,0,L|212:156,1,75,12|2,0:0|0:0,0:0:0:0:
129,165,39459,2,0,L|92:162,2,37.5,8|8|8,0:0|0:0|0:0,0:0:0:0:
179,232,39807,2,0,P|189:267|184:304,1,75,8|8,0:0|0:0,0:0:0:0:
91,161,40156,37,6,0:0:0:0:
91,161,40854,5,6,0:0:0:0:
91,161,41552,101,6,0:0:0:0:
183,304,42075,53,8,0:0:0:0:
257,269,42249,2,0,L|331:275,2,75,8|8|8,0:0|0:0|0:0,0:0:0:0:
241,187,42773,6,0,P|184:231|183:304,1,150,6|10,0:0|0:0,0:0:0:0:
251,350,43296,2,0,L|325:356,1,75,10|10,0:0|0:0,0:0:0:0:
331,275,43645,2,0,L|257:269,1,75,10|10,0:0|0:0,0:0:0:0:
183,304,43993,2,0,P|175:266|197:215,1,75,10|10,0:0|0:0,0:0:0:0:
331,275,44342,101,14,0:0:0:0:
331,275,44691,54,0,L|257:269,2,75,0|0|0,0:0|0:0|0:0,0:0:0:0:
393,103,45738,86,0,L|488:94,2,82.5000025177003,6|6|12,0:0|0:0|0:0,0:0:0:0:
362,188,46261,2,0,L|194:173,1,165.000005035401,2|2,0:0|0:0,0:0:0:0:
119,219,46784,2,0,P|108:160|123:121,1,82.5000025177003,12|2,0:0|0:0,0:0:0:0:
184,82,47133,6,0,P|190:41|178:2,2,82.5000025177003,6|2|12,0:0|0:0|0:0,0:0:0:0:
113,139,47656,2,0,P|107:179|193:262,1,165.000005035401,2|2,0:0|0:0,0:0:0:0:
267,226,48180,2,0,P|270:285|251:322,1,82.5000025177003,12|2,0:0|0:0,0:0:0:0:
197,173,48528,102,0,P|247:139|288:138,1,82.5000025177003,6|2,0:0|0:0,0:0:0:0:
344,180,48877,2,0,L|439:171,1,82.5000025177003,12|2,0:0|0:0,0:0:0:0:
426,84,49226,2,0,L|343:91,1,82.5000025177003,4|2,0:0|0:0,0:0:0:0:
267,136,49575,1,12,0:0:0:0:
344,180,49749,6,0,L|512:165,1,165.000005035401,2|0,0:0|0:0,0:0:0:0:
507,256,50273,2,0,L|424:263,1,82.5000025177003,12|2,0:0|0:0,0:0:0:0:
334,273,50621,2,0,P|297:261|264:227,2,82.5000025177003,4|2|12,0:0|0:0|0:0,0:0:0:0:
267,136,51145,102,0,B|222:137|193:168|193:168|148:143|151:89,1,165.000005035401,2|2,0:0|0:0,0:0:0:0:
145,11,51668,2,0,P|105:21|74:48,1,82.5000025177003,12|2,0:0|0:0,0:0:0:0:
66,142,52017,2,0,L|73:225,2,82.5000025177003,4|2|12,0:0|0:0|0:0,0:0:0:0:
151,102,52540,6,0,L|158:185,1,82.5000025177003,2|6,0:0|0:0,0:0:0:0:
233,236,52889,2,0,P|272:225|303:199,1,82.5000025177003,2|12,0:0|0:0,0:0:0:0:
318,109,53238,2,0,P|385:152|391:231,1,165.000005035401,2|2,0:0|0:0,0:0:0:0:
319,288,53761,2,0,P|350:314|389:324,1,82.5000025177003,12|2,0:0|0:0,0:0:0:0:
303,199,54110,102,0,P|272:225|233:236,1,82.5000025177003,6|2,0:0|0:0,0:0:0:0:
152,193,54459,2,0,P|141:232|148:272,1,82.5000025177003,12|2,0:0|0:0,0:0:0:0:
232,236,54807,1,4,0:0:0:0:
230,146,54982,1,8,0:0:0:0:
230,146,55069,1,8,0:0:0:0:
230,146,55156,1,12,0:0:0:0:
150,103,55331,1,2,0:0:0:0:
228,56,55505,6,0,L|311:63,2,82.5000025177003,6|8|12,0:0|0:0|0:0,0:0:0:0:
230,146,56028,2,0,L|394:160,1,165.000005035401,6|8,0:0|0:0,0:0:0:0:
395,205,56464,1,8,0:0:0:0:
396,250,56552,2,0,L|313:243,1,82.5000025177003,8|8,0:0|0:0,0:0:0:0:
230,146,56900,102,0,L|147:153,2,82.5000025177003,6|2|12,0:0|0:0|0:0,0:0:0:0:
228,56,57424,2,0,L|392:70,1,165.000005035401,2|2,0:0|0:0,0:0:0:0:
474,33,57947,2,0,P|482:73|471:113,1,82.5000025177003,12|2,0:0|0:0,0:0:0:0:
394,160,58296,6,0,P|382:199|390:239,2,82.5000025177003,6|2|12,0:0|0:0|0:0,0:0:0:0:
475,204,58819,2,0,P|459:302|400:332,1,165.000005035401,2|2,0:0|0:0,0:0:0:0:
319,299,59342,2,0,L|236:306,1,82.5000025177003,12|2,0:0|0:0,0:0:0:0:
75,265,59691,102,0,L|158:258,1,82.5000025177003,6|2,0:0|0:0,0:0:0:0:
237,211,60040,2,0,P|249:172|241:132,1,82.5000025177003,12|2,0:0|0:0,0:0:0:0:
160,85,60389,2,0,P|148:124|157:165,2,82.5000025177003,4|2|12,0:0|0:0|0:0,0:0:0:0:
241,38,60912,6,0,L|405:52,1,165.000005035401,2|2,0:0|0:0,0:0:0:0:
489,17,61435,2,0,P|497:57|485:96,1,82.5000025177003,12|2,0:0|0:0,0:0:0:0:
406,142,61784,2,0,L|323:135,2,82.5000025177003,4|2|12,0:0|0:0|0:0,0:0:0:0:
483,275,62307,102,0,L|319:261,1,165.000005035401,2|0,0:0|0:0,0:0:0:0:
243,313,62831,2,0,L|160:320,1,82.5000025177003,12|2,0:0|0:0,0:0:0:0:
80,276,63180,2,0,P|68:315|77:356,2,82.5000025177003,4|2|12,0:0|0:0|0:0,0:0:0:0:
157,227,63703,6,0,P|169:187|160:147,1,82.5000025177003,2|6,0:0|0:0,0:0:0:0:
87,93,64052,2,0,P|117:66|157:56,1,82.5000025177003,2|12,0:0|0:0,0:0:0:0:
238,99,64400,2,0,L|402:85,1,165.000005035401,2|2,0:0|0:0,0:0:0:0:
486,49,64924,2,0,P|494:88|482:127,1,82.5000025177003,12|2,0:0|0:0,0:0:0:0:
405,269,65273,102,0,P|393:308|401:347,2,82.5000025177003,6|0|12,0:0|0:0|0:0,0:0:0:0:
485,222,65796,1,2,0:0:0:0:
405,176,65970,2,0,L|322:183,2,82.5000025177003,6|0|12,0:0|0:0|0:0,0:0:0:0:
482,127,66493,1,0,0:0:0:0:
402,84,66668,6,0,L|319:91,2,82.5000025177003,12|2|12,0:0|0:0|0:0,0:0:0:0:
482,127,67191,1,2,0:0:0:0:
405,176,67366,1,6,0:0:0:0:
363,179,67453,1,0,0:0:0:0:
322,183,67540,1,8,0:0:0:0:
241,139,67714,2,0,L|158:131,1,82.5000025177003,12|8,0:0|0:0,0:0:0:0:
54,241,68063,102,0,P|42:280|50:319,2,82.5000025177003,6|8|12,0:0|0:0|0:0,0:0:0:0:
134,284,68587,2,0,B|179:310|179:310|291:301,1,165.000005035401,6|8,0:0|0:0,0:0:0:0:
381,293,69110,1,8,0:0:0:0:
328,219,69284,6,0,L|342:55,1,165.000005035401,12|2,0:0|0:0,0:0:0:0:
431,46,69807,1,12,0:0:0:0:
253,62,70156,1,6,0:0:0:0:
253,62,70854,38,0,B|141:52|141:52|95:80,1,150,6|12,0:0|0:0,0:0:0:0:
164,133,71377,2,0,P|163:170|145:203,1,75,2|4,0:0|0:0,0:0:0:0:
64,219,71726,2,0,P|64:181|82:148,1,75,2|12,0:0|0:0,0:0:0:0:
145,203,72075,6,0,P|200:249|269:228,1,150,2|2,0:0|0:0,0:0:0:0:
297,150,72598,2,0,P|329:169|349:201,1,75,12|2,0:0|0:0,0:0:0:0:
331,281,72947,1,4,0:0:0:0:
391,337,73121,1,2,0:0:0:0:
468,313,73296,2,0,L|475:229,1,75,12|2,0:0|0:0,0:0:0:0:
432,104,73645,102,0,P|415:174|348:199,1,150,4|12,0:0|0:0,0:0:0:0:
276,154,74168,2,0,P|264:190|269:227,1,75,2|4,0:0|0:0,0:0:0:0:
332,282,74517,2,0,P|335:326|321:359,1,75,2|12,0:0|0:0,0:0:0:0:
251,308,74866,6,0,L|101:296,1,150,2|2,0:0|0:0,0:0:0:0:
23,324,75389,2,0,P|19:287|30:251,1,75,12|2,0:0|0:0,0:0:0:0:
105,212,75738,2,0,P|116:176|112:139,1,75,4|2,0:0|0:0,0:0:0:0:
49,86,76087,2,0,P|79:63|115:56,1,75,12|2,0:0|0:0,0:0:0:0:
187,144,76435,102,0,L|113:139,2,75,6|0|12,0:0|0:0|0:0,0:0:0:0:
251,90,76959,2,0,L|325:85,1,75,2|4,0:0|0:0,0:0:0:0:
403,58,77307,2,0,P|407:94|395:130,1,75,2|12,0:0|0:0,0:0:0:0:
321,166,77656,6,0,B|301:198|301:198|311:310,1,150,2|2,0:0|0:0,0:0:0:0:
396,286,78180,2,0,L|389:207,1,75,12|2,0:0|0:0,0:0:0:0:
395,130,78528,1,4,0:0:0:0:
321,166,78703,1,2,0:0:0:0:
325,84,78877,2,0,P|290:47|240:40,1,75,12|2,0:0|0:0,0:0:0:0:
177,125,79226,102,0,L|251:120,2,75,4|0|12,0:0|0:0|0:0,0:0:0:0:
172,207,79749,2,0,L|246:202,1,75,2|4,0:0|0:0,0:0:0:0:
241,284,80098,2,0,L|167:289,1,75,2|12,0:0|0:0,0:0:0:0:
97,242,80447,6,0,B|75:278|85:313|85:313|62:296|27:300,2,120,6|6|10,0:0|0:0|0:0,0:0:0:0:
173,205,81319,2,0,L|204:202,4,30,10|0|8|8|8,0:0|0:0|0:0|0:0|0:0,0:0:0:0:
173,205,82017,6,0,P|179:118|111:74,1,150,6|4,0:0|0:0,0:0:0:0:
103,158,82540,1,2,0:0:0:0:
173,205,82714,2,0,L|323:193,1,150,12|2,0:0|0:0,0:0:0:0:
392,240,83238,1,0,0:0:0:0:
461,286,83412,6,0,B|477:264|481:229|461:194|461:194|467:121,1,150,6|4,0:0|0:0,0:0:0:0:
472,58,83935,1,2,0:0:0:0:
397,94,84110,2,0,B|364:113|364:113|252:103,1,150,12|4,0:0|0:0,0:0:0:0:
253,103,84807,102,0,P|174:141|170:222,1,150,6|4,0:0|0:0,0:0:0:0:
213,262,85331,1,2,0:0:0:0:
263,326,85505,2,0,L|337:321,1,75,12|0,0:0|0:0,0:0:0:0:
407,364,85854,2,0,P|418:328|414:291,1,75,6|0,0:0|0:0,0:0:0:0:
350,240,86203,5,6,0:0:0:0:
427,210,86377,1,0,0:0:0:0:
362,158,86552,1,4,0:0:0:0:
438,127,86726,1,2,0:0:0:0:
373,75,86900,2,0,P|335:78|303:97,1,75,12|12,0:0|0:0,0:0:0:0:
232,138,87249,2,0,L|158:133,1,75,8|8,0:0|0:0,0:0:0:0:
20,177,87598,102,0,B|13:271|13:271|45:316,1,150,6|12,0:0|0:0,0:0:0:0:
101,378,88121,1,8,0:0:0:0:
163,323,88296,2,0,P|195:304|232:301,1,75,2|4,0:0|0:0,0:0:0:0:
305,340,88645,1,12,0:0:0:0:
374,296,88819,1,4,0:0:0:0:
446,333,88993,6,0,B|478:288|478:288|471:194,1,150,2|12,0:0|0:0,0:0:0:0:
462,112,89517,1,8,0:0:0:0:
396,160,89691,2,0,P|364:179|327:182,1,75,2|4,0:0|0:0,0:0:0:0:
246,202,90040,2,0,P|245:164|261:131,1,75,12|4,0:0|0:0,0:0:0:0:
304,262,90389,102,0,P|305:300|289:333,1,75,2|4,0:0|0:0,0:0:0:0:
223,282,90738,2,0,L|149:277,1,75,12|8,0:0|0:0,0:0:0:0:
81,225,91087,2,0,P|65:258|67:296,2,75,2|4|12,0:0|0:0|0:0,0:0:0:0:
159,193,91610,6,0,B|191:148|191:148|184:54,1,150,4|4,0:0|0:0,0:0:0:0:
266,54,92133,2,0,L|271:128,1,75,12|8,0:0|0:0,0:0:0:0:
353,128,92482,2,0,L|348:54,1,75,8|8,0:0|0:0,0:0:0:0:
428,52,92831,1,12,0:0:0:0:
393,198,93005,1,8,0:0:0:0:
393,198,93092,1,8,0:0:0:0:
393,198,93180,102,0,P|355:208|311:196,2,75,6|0|12,0:0|0:0|0:0,0:0:0:0:
474,199,93703,2,0,B|506:244|506:244|499:338,1,150,2|2,0:0|0:0,0:0:0:0:
421,366,94226,2,0,P|384:372|348:362,1,75,12|2,0:0|0:0,0:0:0:0:
278,319,94575,6,0,L|204:324,2,75,4|2|12,0:0|0:0|0:0,0:0:0:0:
352,280,95098,2,0,B|300:239|300:239|197:247,1,150,2|2,0:0|0:0,0:0:0:0:
142,273,95621,2,0,P|139:226|167:186,1,75,12|2,0:0|0:0,0:0:0:0:
278,319,95970,102,0,L|204:324,2,75,4|2|12,0:0|0:0|0:0,0:0:0:0:
352,280,96493,2,0,P|358:193|290:149,1,150,2|2,0:0|0:0,0:0:0:0:
237,182,97017,2,0,P|233:134|261:94,1,75,12|2,0:0|0:0,0:0:0:0:
317,70,97366,6,0,L|391:75,2,75,4|2|12,0:0|0:0|0:0,0:0:0:0:
246,28,97889,2,0,B|205:27|181:55|181:55|69:48,1,150,2|2,0:0|0:0,0:0:0:0:
81,129,98412,2,0,L|155:134,1,75,12|2,0:0|0:0,0:0:0:0:
315,154,98761,102,0,P|319:202|291:242,2,75,4|2|12,0:0|0:0|0:0,0:0:0:0:
317,70,99284,2,0,L|466:81,1,150,2|2,0:0|0:0,0:0:0:0:
476,163,99807,2,0,L|402:158,1,75,12|2,0:0|0:0,0:0:0:0:
411,239,100156,6,0,L|485:244,2,75,4|2|12,0:0|0:0|0:0,0:0:0:0:
345,287,100680,2,0,L|196:298,1,150,2|2,0:0|0:0,0:0:0:0:
118,327,101203,2,0,P|111:290|125:255,1,75,12|2,0:0|0:0,0:0:0:0:
203,144,101552,102,0,P|209:180|195:215,1,75,4|2,0:0|0:0,0:0:0:0:
125,172,101900,2,0,P|90:159|67:129,1,75,12|2,0:0|0:0,0:0:0:0:
139,90,102249,1,4,0:0:0:0:
203,144,102424,2,0,L|277:149,1,75,2|12,0:0|0:0,0:0:0:0:
317,221,102773,6,0,P|360:164|334:88,1,150,2|2,0:0|0:0,0:0:0:0:
260,67,103296,2,0,P|295:21|320:13,1,75,12|2,0:0|0:0,0:0:0:0:
390,27,103645,2,0,L|427:24,2,37.5,8|8|8,0:0|0:0|0:0,0:0:0:0:
339,93,103993,2,0,P|371:110|408:109,1,75,8|8,0:0|0:0,0:0:0:0:
309,15,104342,37,6,0:0:0:0:
309,15,105040,5,6,0:0:0:0:
309,15,105738,101,6,0:0:0:0:
408,108,106261,53,8,0:0:0:0:
350,167,106435,2,0,L|355:241,2,75,8|8|8,0:0|0:0|0:0,0:0:0:0:
269,146,106959,2,0,B|224:178|224:178|130:171,1,150,6|10,0:0|0:0,0:0:0:0:
58,128,107482,6,0,P|44:162|50:198,1,75,10|10,0:0|0:0,0:0:0:0:
47,281,107831,2,0,P|84:276|113:253,1,75,10|10,0:0|0:0,0:0:0:0:
186,213,108180,2,0,P|163:183|128:170,1,75,10|10,0:0|0:0,0:0:0:0:
183,295,108528,101,14,0:0:0:0:
183,295,108877,53,0,0:0:0:0:
264,186,109226,1,8,0:0:0:0:
347,222,109400,2,0,L|350:261,2,37.5,8|8|8,0:0|0:0|0:0,0:0:0:0:
420,169,109749,1,8,0:0:0:0:
420,169,109837,1,8,0:0:0:0:
420,169,109924,86,0,L|412:81,2,82.5000025177003,6|2|12,0:0|0:0|0:0,0:0:0:0:
489,226,110447,2,0,P|417:259|347:222,1,165.000005035401,2|2,0:0|0:0,0:0:0:0:
264,185,110970,2,0,L|181:192,1,82.5000025177003,12|2,0:0|0:0,0:0:0:0:
96,158,111319,6,0,P|89:198|103:237,2,82.5000025177003,6|2|12,0:0|0:0|0:0,0:0:0:0:
167,100,111842,2,0,L|335:85,1,165.000005035401,2|2,0:0|0:0,0:0:0:0:
411,40,112366,2,0,P|424:78|417:118,1,82.5000025177003,12|2,0:0|0:0,0:0:0:0:
350,254,112714,102,0,P|336:215|343:175,1,82.5000025177003,6|2,0:0|0:0,0:0:0:0:
429,210,113063,2,0,L|511:202,1,82.5000025177003,12|2,0:0|0:0,0:0:0:0:
509,292,113412,2,0,L|427:300,1,82.5000025177003,4|2,0:0|0:0,0:0:0:0:
350,254,113761,1,12,0:0:0:0:
272,207,113935,6,0,L|107:221,1,165.000005035401,2|0,0:0|0:0,0:0:0:0:
29,269,114459,2,0,P|16:230|22:190,1,82.5000025177003,12|2,0:0|0:0,0:0:0:0:
91,131,114807,2,0,L|173:123,2,82.5000025177003,4|2|12,0:0|0:0|0:0,0:0:0:0:
29,269,115331,102,0,B|79:313|79:313|203:302,1,165.000005035401,2|0,0:0|0:0,0:0:0:0:
245,244,115854,2,0,L|327:251,1,82.5000025177003,12|2,0:0|0:0,0:0:0:0:
407,209,116203,2,0,P|420:247|413:287,2,82.5000025177003,4|2|12,0:0|0:0|0:0,0:0:0:0:
330,161,116726,6,0,P|316:122|323:82,1,82.5000025177003,2|6,0:0|0:0,0:0:0:0:
401,39,117075,2,0,P|415:77|408:117,1,82.5000025177003,2|12,0:0|0:0,0:0:0:0:
323,82,117424,2,0,L|158:67,1,165.000005035401,2|2,0:0|0:0,0:0:0:0:
73,35,117947,2,0,P|66:75|80:113,1,82.5000025177003,12|2,0:0|0:0,0:0:0:0:
166,236,118296,102,0,P|172:195|158:157,1,82.5000025177003,6|2,0:0|0:0,0:0:0:0:
81,203,118645,2,0,P|74:243|88:281,1,82.5000025177003,12|2,0:0|0:0,0:0:0:0:
166,327,118993,1,4,0:0:0:0:
244,282,119168,1,8,0:0:0:0:
244,282,119255,1,8,0:0:0:0:
244,282,119342,1,12,0:0:0:0:
321,327,119517,1,2,0:0:0:0:
399,282,119691,6,0,P|411:243|402:203,2,82.5000025177003,6|8|12,0:0|0:0|0:0,0:0:0:0:
322,238,120214,2,0,B|300:198|300:198|310:78,1,165.000005035401,6|8,0:0|0:0,0:0:0:0:
340,43,120650,1,8,0:0:0:0:
383,30,120738,2,0,P|423:33|457:55,1,82.5000025177003,8|8,0:0|0:0,0:0:0:0:
402,203,121087,102,0,B|389:178|389:178|393:119,2,82.5000025177003,6|2|12,0:0|0:0|0:0,0:0:0:0:
486,185,121610,2,0,P|465:261|391:288,1,165.000005035401,2|2,0:0|0:0,0:0:0:0:
322,238,122133,2,0,L|240:245,1,82.5000025177003,12|2,0:0|0:0,0:0:0:0:
178,306,122482,6,0,P|166:345|175:385,2,82.5000025177003,6|2|12,0:0|0:0|0:0,0:0:0:0:
239,245,123005,2,0,P|233:165|167:120,1,165.000005035401,2|2,0:0|0:0,0:0:0:0:
83,157,123528,2,0,P|74:117|86:78,1,82.5000025177003,12|2,0:0|0:0,0:0:0:0:
157,212,123877,102,0,P|126:239|87:248,1,82.5000025177003,6|2,0:0|0:0,0:0:0:0:
9,208,124226,2,0,P|-2:247|5:286,1,82.5000025177003,12|2,0:0|0:0,0:0:0:0:
79,338,124575,2,0,L|161:331,1,82.5000025177003,4|2,0:0|0:0,0:0:0:0:
251,322,124924,1,12,0:0:0:0:
340,313,125098,6,0,B|362:273|362:273|352:153,1,165.000005035401,2|2,0:0|0:0,0:0:0:0:
350,63,125621,2,0,P|310:72|279:98,1,82.5000025177003,12|2,0:0|0:0,0:0:0:0:
268,191,125970,2,0,P|229:177|201:147,2,82.5000025177003,4|2|12,0:0|0:0|0:0,0:0:0:0:
197,54,126493,102,0,B|157:32|157:32|37:42,1,165.000005035401,2|2,0:0|0:0,0:0:0:0:
27,132,127017,2,0,L|109:125,1,82.5000025177003,12|2,0:0|0:0,0:0:0:0:
97,215,127366,2,0,L|15:222,2,82.5000025177003,4|2|12,0:0|0:0|0:0,0:0:0:0:
167,269,127889,6,0,L|249:276,1,82.5000025177003,2|6,0:0|0:0,0:0:0:0:
329,318,128238,2,0,P|340:278|331:239,1,82.5000025177003,2|12,0:0|0:0,0:0:0:0:
259,186,128587,2,0,B|302:148|302:148|442:159,1,165.000005035401,2|2,0:0|0:0,0:0:0:0:
420,68,129110,2,0,L|338:61,1,82.5000025177003,12|2,0:0|0:0,0:0:0:0:
330,238,129459,102,0,L|412:245,2,82.5000025177003,6|0|12,0:0|0:0|0:0,0:0:0:0:
249,276,129982,1,2,0:0:0:0:
175,224,130156,2,0,L|93:217,2,82.5000025177003,6|0|12,0:0|0:0|0:0,0:0:0:0:
256,186,130680,1,0,0:0:0:0:
337,148,130854,6,0,L|419:155,2,82.5000025177003,12|2|12,0:0|0:0|0:0,0:0:0:0:
263,96,131377,1,2,0:0:0:0:
182,135,131552,1,6,0:0:0:0:
182,135,131639,1,0,0:0:0:0:
182,135,131726,1,8,0:0:0:0:
107,82,131900,2,0,L|25:75,1,82.5000025177003,12|8,0:0|0:0,0:0:0:0:
93,217,132249,102,0,L|175:224,2,82.5000025177003,6|8|12,0:0|0:0|0:0,0:0:0:0:
99,308,132773,2,0,B|206:316|206:316|249:278,1,165.000005035401,6|8,0:0|0:0,0:0:0:0:
313,213,133296,1,8,0:0:0:0:
386,266,133470,6,0,P|402:197|339:126,1,165.000005035401,12|2,0:0|0:0,0:0:0:0:
313,213,133993,1,12,0:0:0:0:
459,319,134342,1,6,0:0:0:0:
459,319,135040,38,0,L|377:326,1,82.5000025177003,6|0,0:0|0:0,0:0:0:0:
328,258,135389,1,12,0:0:0:0:
363,182,135563,1,8,0:0:0:0:
314,113,135738,2,0,L|232:120,1,82.5000025177003,2|4,0:0|0:0,0:0:0:0:
197,197,136087,2,0,L|115:204,1,82.5000025177003,12|4,0:0|0:0,0:0:0:0:
80,281,136435,6,0,P|95:320|138:353,1,82.5000025177003,2|4,0:0|0:0,0:0:0:0:
209,343,136784,1,12,0:0:0:0:
294,335,136959,1,8,0:0:0:0:
329,258,137133,2,0,L|411:251,2,82.5000025177003,2|4|12,0:0|0:0|0:0,0:0:0:0:
197,197,137656,1,4,0:0:0:0:
197,197,137743,1,0,0:0:0:0:
197,197,137831,102,0,L|115:204,1,82.5000025177003,2|4,0:0|0:0,0:0:0:0:
66,136,138180,1,12,0:0:0:0:
101,60,138354,1,8,0:0:0:0:
184,51,138528,2,0,L|266:44,1,82.5000025177003,2|4,0:0|0:0,0:0:0:0:
315,112,138877,2,0,L|397:105,1,82.5000025177003,12|4,0:0|0:0,0:0:0:0:
468,61,139226,6,0,P|478:124|463:155,1,82.5000025177003,2|4,0:0|0:0,0:0:0:0:
405,186,139575,2,0,P|397:226|410:264,1,82.5000025177003,12|2,0:0|0:0,0:0:0:0:
479,220,139924,1,2,0:0:0:0:
479,220,140011,1,8,0:0:0:0:
479,220,140098,1,8,0:0:0:0:
405,186,140273,2,0,L|323:193,1,82.5000025177003,12|8,0:0|0:0,0:0:0:0:
178,277,140621,102,0,L|96:284,1,82.5000025177003,6|0,0:0|0:0,0:0:0:0:
47,216,140971,1,12,0:0:0:0:
82,140,141145,1,8,0:0:0:0:
117,64,141319,2,0,L|199:57,1,82.5000025177003,2|4,0:0|0:0,0:0:0:0:
248,125,141668,1,12,0:0:0:0:
330,117,141842,1,4,0:0:0:0:
365,41,142017,6,0,L|447:34,1,82.5000025177003,2|4,0:0|0:0,0:0:0:0:
496,102,142366,1,12,0:0:0:0:
461,178,142540,1,8,0:0:0:0:
425,254,142714,2,0,L|343:261,2,82.5000025177003,2|4|12,0:0|0:0|0:0,0:0:0:0:
412,110,143238,102,0,L|244:124,1,165.000005035401,4|4,0:0|0:0,0:0:0:0:
248,125,143674,1,0,0:0:0:0:
248,125,143761,1,12,0:0:0:0:
199,56,143935,1,8,0:0:0:0:
117,64,144110,2,0,L|35:71,1,82.5000025177003,2|4,0:0|0:0,0:0:0:0:
0,148,144459,2,0,P|-8:188|5:226,1,82.5000025177003,12|4,0:0|0:0,0:0:0:0:
52,296,144807,5,6,0:0:0:0:
137,290,144982,1,8,0:0:0:0:
137,290,145069,1,8,0:0:0:0:
137,290,145156,2,0,L|219:283,1,82.5000025177003,8|12,0:0|0:0,0:0:0:0:
294,318,145505,2,0,P|302:278|289:240,1,82.5000025177003,2|12,0:0|0:0,0:0:0:0:
216,201,145854,2,0,P|242:170|281:157,1,82.5000025177003,12|2,0:0|0:0,0:0:0:0:
219,282,146203,69,6,0:0:0:0:
219,282,146900,5,6,0:0:0:0:
219,282,147598,101,6,0:0:0:0:
281,157,148121,53,2,0:0:0:0:
354,195,148296,2,0,L|428:188,2,75,8|8|8,0:0|0:0|0:0,0:0:0:0:
350,114,148819,6,0,B|451:105|451:105|508:144,1,150,6|6,0:0|0:0,0:0:0:0:
506,214,149342,2,0,P|486:245|455:266,1,75,12|4,0:0|0:0,0:0:0:0:
428,188,149691,2,0,L|354:195,2,75,2|2|14,0:0|0:0|0:0,0:0:0:0:
350,114,150214,102,0,L|200:126,1,150,6|6,0:0|0:0,0:0:0:0:
128,85,150738,2,0,P|117:121|124:161,1,75,12|2,0:0|0:0,0:0:0:0:
200,125,151087,2,0,P|210:89|205:52,2,75,4|2|10,0:0|0:0|0:0,0:0:0:0:
45,189,151610,6,0,B|26:222|26:222|36:334,1,150,6|2,0:0|0:0,0:0:0:0:
117,345,152133,2,0,P|153:334|193:341,1,75,12|0,0:0|0:0,0:0:0:0:
269,358,152482,2,0,P|305:363|341:352,2,75,2|10|10,0:0|0:0|0:0,0:0:0:0:
387,273,153005,102,0,B|421:297|428:333|428:333|465:347|505:323,1,150,6|10,0:0|0:0,0:0:0:0:
479,245,153528,2,0,L|486:171,1,75,10|10,0:0|0:0,0:0:0:0:
509,91,153877,2,0,P|471:88|437:102,1,75,10|10,0:0|0:0,0:0:0:0:
403,178,154226,1,10,0:0:0:0:
354,110,154400,1,10,0:0:0:0:
320,187,154575,1,14,0:0:0:0:
320,187,155970,22,0,L|246:180,2,75,14|14|14,0:0|0:0|0:0,0:0:0:0:
403,178,156493,1,14,0:0:0:0:
403,178,157366,6,0,L|477:185,2,75,14|14|14,0:0|0:0|0:0,0:0:0:0:
354,110,157889,1,14,0:0:0:0:
354,110,158238,1,8,0:0:0:0:
320,187,158412,2,0,P|335:228|375:257,1,75,12|8,0:0|0:0,0:0:0:0:
354,110,158761,102,0,P|311:100|265:119,1,75,6|0,0:0|0:0,0:0:0:0:
234,182,159110,2,0,P|197:190|161:180,1,75,8|8,0:0|0:0,0:0:0:0:
114,112,159459,2,0,P|88:138|76:174,2,75,6|0|8,0:0|0:0|0:0,0:0:0:0:
196,105,159982,5,10,0:0:0:0:
196,105,160331,1,10,0:0:0:0:
196,105,160680,1,10,0:0:0:0:
162,181,160854,2,0,L|169:255,1,75,6|8,0:0|0:0,0:0:0:0:
169,255,161116,1,8,0:0:0:0:
169,255,161203,1,8,0:0:0:0:
216,332,161377,1,8,0:0:0:0:
216,332,161464,1,8,0:0:0:0:
216,332,161552,102,0,B|256:310|256:310|376:320,1,165.000005035401,6|12,0:0|0:0,0:0:0:0:
465,329,162075,1,2,0:0:0:0:
427,246,162249,2,0,L|434:164,2,82.5000025177003,4|2|12,0:0|0:0|0:0,0:0:0:0:
336,236,162773,6,0,L|343:154,1,82.5000025177003,2|6,0:0|0:0,0:0:0:0:
396,79,163121,2,0,P|361:62|293:77,1,82.5000025177003,2|12,0:0|0:0,0:0:0:0:
253,131,163470,2,0,B|213:153|213:153|93:143,1,165.000005035401,2|2,0:0|0:0,0:0:0:0:
10,181,163993,2,0,P|-7:217|-3:258,1,82.5000025177003,12|2,0:0|0:0,0:0:0:0:
167,240,164342,102,0,L|85:233,1,82.5000025177003,6|2,0:0|0:0,0:0:0:0:
64,321,164691,2,0,L|146:328,1,82.5000025177003,12|2,0:0|0:0,0:0:0:0:
233,302,165040,1,4,0:0:0:0:
319,275,165214,1,8,0:0:0:0:
319,275,165302,1,8,0:0:0:0:
319,275,165389,1,12,0:0:0:0:
385,335,165563,1,2,0:0:0:0:
471,308,165738,6,0,P|490:271|490:226,2,82.5000025177003,6|8|12,0:0|0:0|0:0,0:0:0:0:
404,248,166261,2,0,B|382:208|382:208|389:136|389:136|365:84,1,165.000005035401,6|8,0:0|0:0,0:0:0:0:
349,52,166697,1,8,0:0:0:0:
309,29,166784,2,0,P|268:25|231:42,1,82.5000025177003,8|8,0:0|0:0,0:0:0:0:
294,193,167133,102,0,B|300:153|300:153|285:114,2,82.5000025177003,6|2|12,0:0|0:0|0:0,0:0:0:0:
252,274,167656,2,0,P|181:236|109:269,1,165.000005035401,2|2,0:0|0:0,0:0:0:0:
34,321,168180,2,0,P|17:283|21:243,1,82.5000025177003,12|2,0:0|0:0,0:0:0:0:
86,179,168528,6,0,P|90:139|74:102,2,82.5000025177003,6|2|12,0:0|0:0|0:0,0:0:0:0:
0,156,169052,2,0,P|-14:77|38:17,1,165.000005035401,2|0,0:0|0:0,0:0:0:0:
129,29,169575,2,0,L|211:36,1,82.5000025177003,12|2,0:0|0:0,0:0:0:0:
336,109,169924,102,0,L|254:116,1,82.5000025177003,6|2,0:0|0:0,0:0:0:0:
297,195,170273,2,0,L|379:188,1,82.5000025177003,12|2,0:0|0:0,0:0:0:0:
455,138,170621,2,0,P|471:175|467:215,1,82.5000025177003,4|2,0:0|0:0,0:0:0:0:
399,277,170970,1,12,0:0:0:0:
330,339,171145,6,0,B|290:361|290:361|170:351,1,165.000005035401,2|2,0:0|0:0,0:0:0:0:
157,261,171668,2,0,L|239:268,1,82.5000025177003,12|0,0:0|0:0,0:0:0:0:
297,195,172017,2,0,L|379:188,2,82.5000025177003,4|2|12,0:0|0:0|0:0,0:0:0:0:
171,122,172540,102,0,L|336:108,1,165.000005035401,2|2,0:0|0:0,0:0:0:0:
293,29,173063,2,0,L|211:36,1,82.5000025177003,12|2,0:0|0:0,0:0:0:0:
117,45,173412,2,0,P|84:86|80:143,2,82.5000025177003,4|2|12,0:0|0:0|0:0,0:0:0:0:
171,122,173935,6,0,P|159:161|132:191,1,82.5000025177003,2|6,0:0|0:0,0:0:0:0:
38,199,174284,2,0,P|60:253|92:279,1,82.5000025177003,2|12,0:0|0:0,0:0:0:0:
172,278,174633,2,0,B|212:256|212:256|332:266,1,165.000005035401,2|2,0:0|0:0,0:0:0:0:
412,305,175156,2,0,P|420:264|410:225,1,82.5000025177003,12|2,0:0|0:0,0:0:0:0:
333,96,175505,102,0,P|325:136|335:176,2,82.5000025177003,6|0|12,0:0|0:0|0:0,0:0:0:0:
414,135,176028,1,2,0:0:0:0:
408,46,176203,2,0,L|490:53,2,82.5000025177003,6|0|12,0:0|0:0|0:0,0:0:0:0:
327,7,176726,1,0,0:0:0:0:
252,57,176900,6,0,L|170:50,2,82.5000025177003,12|2|12,0:0|0:0|0:0,0:0:0:0:
333,96,177424,1,2,0:0:0:0:
408,46,177598,1,6,0:0:0:0:
408,46,177685,1,0,0:0:0:0:
408,46,177773,1,8,0:0:0:0:
414,135,177947,2,0,P|380:175|347:186,1,82.5000025177003,12|8,0:0|0:0,0:0:0:0:
252,57,178296,102,0,P|276:23|313:6,2,82.5000025177003,6|8|12,0:0|0:0|0:0,0:0:0:0:
272,146,178819,2,0,B|232:155|195:128|195:128|183:169|134:188,1,165.000005035401,6|8,0:0|0:0,0:0:0:0:
50,167,179342,1,8,0:0:0:0:
79,253,179517,6,0,B|119:275|119:275|237:265,1,165.000005035401,12|2,0:0|0:0,0:0:0:0:
291,336,180040,1,12,0:0:0:0:
291,336,180389,1,6,0:0:0:0:
291,336,180738,1,8,0:0:0:0:
382,326,180912,1,8,0:0:0:0:
382,326,180999,1,8,0:0:0:0:
382,326,181087,38,0,B|414:301|416:264|416:264|408:229|408:229|414:168,1,150,6|12,0:0|0:0,0:0:0:0:
485,148,181610,2,0,P|497:183|491:220,1,75,2|4,0:0|0:0,0:0:0:0:
412,188,181959,2,0,L|337:182,1,75,2|12,0:0|0:0,0:0:0:0:
263,218,182307,6,0,B|168:225|168:225|123:193,1,150,2|2,0:0|0:0,0:0:0:0:
192,146,182831,2,0,L|267:141,1,75,12|2,0:0|0:0,0:0:0:0:
341,105,183180,1,4,0:0:0:0:
270,63,183354,1,2,0:0:0:0:
342,23,183528,2,0,L|416:17,1,75,12|2,0:0|0:0,0:0:0:0:
271,63,183877,102,0,L|103:77,1,150,4|12,0:0|0:0,0:0:0:0:
44,44,184400,2,0,P|37:80|48:116,1,75,2|4,0:0|0:0,0:0:0:0:
120,159,184749,2,0,P|130:194|124:231,1,75,2|12,0:0|0:0,0:0:0:0:
57,279,185098,6,0,B|102:311|102:311|196:303,1,150,2|2,0:0|0:0,0:0:0:0:
261,252,185621,2,0,L|335:257,1,75,12|2,0:0|0:0,0:0:0:0:
411,289,185970,2,0,P|417:252|406:216,1,75,4|2,0:0|0:0,0:0:0:0:
337,176,186319,2,0,P|326:140|332:103,1,75,12|2,0:0|0:0,0:0:0:0:
482,129,186668,102,0,L|407:134,2,75,6|0|12,0:0|0:0|0:0,0:0:0:0:
470,48,187191,2,0,L|396:54,1,75,2|4,0:0|0:0,0:0:0:0:
332,103,187540,2,0,L|257:97,1,75,2|12,0:0|0:0,0:0:0:0:
212,27,187889,6,0,P|173:88|196:156,1,150,2|2,0:0|0:0,0:0:0:0:
278,179,188412,2,0,P|300:220|300:262,1,75,12|2,0:0|0:0,0:0:0:0:
217,238,188761,1,4,0:0:0:0:
196,156,188935,1,2,0:0:0:0:
257,97,189110,2,0,L|332:103,1,75,12|2,0:0|0:0,0:0:0:0:
196,156,189459,102,0,L|121:161,2,75,4|0|12,0:0|0:0|0:0,0:0:0:0:
217,238,189982,2,0,L|142:243,1,75,2|4,0:0|0:0,0:0:0:0:
163,325,190331,2,0,L|238:320,1,75,2|12,0:0|0:0,0:0:0:0:
298,261,190680,6,0,B|343:229|343:229|438:236,2,150,6|6|10,0:0|0:0|0:0,0:0:0:0:
238,320,191552,1,10,0:0:0:0:
219,321,191639,1,8,0:0:0:0:
200,322,191726,1,8,0:0:0:0:
181,324,191813,1,8,0:0:0:0:
163,325,191900,2,0,L|88:330,1,75,12|8,0:0|0:0,0:0:0:0:
121,161,192249,102,0,L|196:156,2,75,14|10|10,0:0|0:0|0:0,0:0:0:0:
48,201,192773,2,0,P|37:165|43:128,1,75,6|0,0:0|0:0,0:0:0:0:
109,76,193121,2,0,L|184:71,1,75,14|0,0:0|0:0,0:0:0:0:
262,102,193470,6,0,B|283:67|283:67|321:64|321:64|308:103|326:131|326:131|314:178,1,179.999994506836,14|0,0:0|0:0,0:0:0:0:
