osu file format v14

[General]
AudioFilename: audio.mp3
AudioLeadIn: 0
PreviewTime: 48788
Countdown: 0
SampleSet: Soft
StackLeniency: 0.7
Mode: 0
LetterboxInBreaks: 0
WidescreenStoryboard: 0

[Editor]
DistanceSpacing: 0.9
BeatDivisor: 4
GridSize: 32
TimelineZoom: 1.5

[Metadata]
Title:Binetsu kara Mystery
TitleUnicode:微熱からMystery
Artist:lily white
ArtistUnicode:lily white
Creator:Nevertary
Version:Normal
Source:ラブライブ! School idol project
Tags:Love Live! μ's u's 園田海未 sonoda umi 三森すずこ mimori suzuko 星空凛 hoshizora rin 飯田里穂 iida riho 東條希 toujou nozomi 楠田亜衣奈 kusuda aina
BeatmapID:1940985
BeatmapSetID:929351

[Difficulty]
HPDrainRate:4
CircleSize:3.2
OverallDifficulty:4
ApproachRate:5
SliderMultiplier:1.1
SliderTickRate:1

[Events]
//Background and Video events
0,0,"BG.jpg",0,0
//Break Periods
//Storyboard Layer 0 (Background)
//Storyboard Layer 1 (Fail)
//Storyboard Layer 2 (Pass)
//Storyboard Layer 3 (Foreground)
//Storyboard Sound Samples

[TimingPoints]
1172,348.837209302326,4,2,1,65,1,0
1172,-100,4,2,1,65,0,0
17916,-100,4,2,1,58,0,0
29078,-100,4,2,1,60,0,0
40241,-100,4,2,1,50,0,0
42858,-100,4,2,1,60,0,0
50009,-100,4,2,1,60,0,0
55590,-100,4,2,1,70,0,1
75125,-100,4,2,1,65,0,0

[Colours]
Combo1 : 128,128,192
Combo2 : 0,128,192
Combo3 : 219,122,15
SliderBorder : 216,249,172

[HitObjects]
32,32,6753,6,0,P|39:95|48:154,1,110,6|8,0:0|0:0,0:0:0:0:
27,187,7276,2,0,P|34:250|43:309,1,110,2|2,0:0|0:0,0:0:0:0:
131,253,7974,2,0,P|179:234|244:254,1,110,2|2,0:0|0:0,0:0:0:0:
276,272,8497,1,8,0:0:0:0:
358,327,8846,2,0,P|406:346|471:326,1,110,2|8,0:0|0:0,0:0:0:0:
498,240,9544,6,0,P|506:185|512:130,1,110,2|8,0:0|0:0,0:0:0:0:
481,92,10067,2,0,P|433:111|368:91,1,110,2|2,0:0|0:0,0:0:0:0:
281,122,10765,2,0,P|288:185|297:244,2,110,2|2|2,0:0|0:0|0:0,0:0:0:0:
245,87,11637,2,0,P|197:106|132:86,1,110,2|8,0:0|0:0,0:0:0:0:
43,103,12334,6,0,P|35:166|26:225,1,110,6|8,0:0|0:0,0:0:0:0:
49,257,12858,2,0,P|97:276|162:256,1,110,2|2,0:0|0:0,0:0:0:0:
230,196,13555,2,0,P|238:141|244:86,1,110,2|2,0:0|0:0,0:0:0:0:
254,38,14078,1,8,0:0:0:0:
337,91,14427,2,0,P|385:110|450:90,1,110,2|8,0:0|0:0,0:0:0:0:
500,175,15125,6,0,P|492:238|483:297,1,110,2|8,0:0|0:0,0:0:0:0:
469,331,15648,2,0,P|421:350|356:330,1,110,2|2,0:0|0:0,0:0:0:0:
282,282,16346,2,0,P|218:289|159:298,2,110,6|12|2,0:0|0:0|0:0,0:0:0:0:
321,252,17218,1,2,0:0:0:0:
469,120,17916,6,0,P|421:139|356:119,1,110,6|8,0:0|0:0,0:0:0:0:
322,101,18439,1,8,0:0:0:0:
322,101,18613,2,0,P|274:82|209:102,1,110,2|8,0:0|0:0,0:0:0:0:
139,154,19311,2,0,P|75:161|16:170,2,110,2|8|2,0:0|0:0|0:0,0:0:0:0:
332,198,20706,6,0,P|324:261|315:320,1,110,2|8,0:0|0:0,0:0:0:0:
293,351,21230,1,8,0:0:0:0:
293,351,21404,2,0,P|245:370|180:350,1,110,2|8,0:0|0:0,0:0:0:0:
102,308,22102,2,0,P|93:253|87:199,1,110,2|8,0:0|0:0,0:0:0:0:
108,102,22799,2,0,P|66:107|37:112,2,55,2|8|8,0:0|0:0|0:0,0:0:0:0:
206,127,23497,6,0,P|254:146|319:126,1,110,6|8,0:0|0:0,0:0:0:0:
357,120,24020,1,8,0:0:0:0:
357,120,24195,2,0,P|410:106|461:125,1,110,2|8,0:0|0:0,0:0:0:0:
510,209,24892,2,0,P|503:273|494:332,2,110,2|8|2,0:0|0:0|0:0,0:0:0:0:
366,72,26288,6,0,P|303:64|244:55,1,110,2|8,0:0|0:0,0:0:0:0:
207,54,26811,1,8,0:0:0:0:
207,54,26985,2,0,P|159:73|94:53,1,110,2|8,0:0|0:0,0:0:0:0:
22,116,27683,2,0,P|30:179|39:238,1,110,2|8,0:0|0:0,0:0:0:0:
85,311,28381,2,0,P|90:353|95:382,2,55,8|2|2,0:0|0:0|0:0,0:0:0:0:
128,221,29078,6,0,P|176:202|241:222,1,110,6|8,0:0|0:0,0:0:0:0:
272,243,29602,2,0,P|320:262|385:242,1,110,2|2,0:0|0:0,0:0:0:0:
418,225,30125,1,8,0:0:0:0:
509,263,30474,2,0,P|504:305|499:334,2,55,2|2|8,0:0|0:0|0:0,0:0:0:0:
507,213,30997,2,0,P|498:158|492:104,1,110,2|2,0:0|0:0,0:0:0:0:
482,55,31520,1,8,0:0:0:0:
404,116,31869,6,0,P|356:135|291:115,1,110,2|8,0:0|0:0,0:0:0:0:
267,85,32392,2,0,P|219:66|154:86,1,110,2|2,0:0|0:0,0:0:0:0:
121,105,32916,1,8,0:0:0:0:
25,77,33265,2,0,P|20:49|17:22,2,55,2|2|8,0:0|0:0|0:0,0:0:0:0:
31,126,33788,2,0,P|24:180|16:234,1,110,2|2,0:0|0:0,0:0:0:0:
6,283,34311,1,8,0:0:0:0:
83,344,34660,6,0,P|131:363|196:343,1,110,6|8,0:0|0:0,0:0:0:0:
222,315,35183,2,0,P|230:260|237:206,1,110,2|2,0:0|0:0,0:0:0:0:
241,156,35706,1,8,0:0:0:0:
179,78,36055,2,0,P|151:83|124:86,2,55,2|2|8,0:0|0:0|0:0,0:0:0:0:
221,52,36578,2,0,P|269:33|334:53,1,110,2|2,0:0|0:0,0:0:0:0:
360,80,37102,1,8,0:0:0:0:
402,169,37451,6,0,P|457:177|511:184,2,110,2|8|0,0:0|0:0|0:0,0:0:0:0:
352,169,38323,2,0,P|333:217|353:282,1,110,2|0,0:0|0:0,0:0:0:0:
367,316,38846,2,0,B|212:220|212:382|48:283,1,330,2|2,0:0|0:0,0:0:0:0:
8,199,40241,5,6,0:0:0:0:
129,42,40939,1,6,0:0:0:0:
244,202,41637,2,0,P|299:210|428:225,1,165,6|2,0:0|0:0,0:0:0:0:
457,224,42334,2,0,P|452:252|449:279,2,55,2|0|2,0:0|0:0|0:0,0:0:0:0:
473,176,42858,6,0,P|492:128|472:63,1,110,6|2,0:0|0:0,0:0:0:0:
449,32,43381,1,8,0:0:0:0:
362,80,43730,2,0,P|367:108|370:135,2,55,2|2|8,0:0|0:0|0:0,0:0:0:0:
321,51,44253,2,0,P|266:59|212:66,1,110,6|2,0:0|0:0,0:0:0:0:
163,78,44776,1,8,0:0:0:0:
64,74,45125,2,0,P|59:46|56:19,2,55,2|0|8,0:0|0:0|0:0,0:0:0:0:
60,123,45648,6,0,P|41:171|61:236,1,110,6|2,0:0|0:0,0:0:0:0:
75,271,46172,1,8,0:0:0:0:
164,311,46520,2,0,P|160:338|156:365,2,55,2|2|8,0:0|0:0|0:0,0:0:0:0:
192,269,47044,2,0,B|353:216|339:352|446:368|523:292|519:194|437:143|339:197,1,495,6|8,0:0|0:0,0:0:0:0:
285,116,48962,2,0,P|237:135|172:115,2,110
358,48,50009,6,0,P|362:75|366:102,1,55,8|8,0:0|0:0,0:0:0:0:
401,137,50358,2,0,P|405:164|409:191,1,55,8|8,0:0|0:0,0:0:0:0:
207,48,51404,2,0,P|203:75|199:102,1,55,8|8,0:0|0:0,0:0:0:0:
164,137,51753,2,0,P|160:164|156:191,1,55,8|8,0:0|0:0,0:0:0:0:
335,362,52799,6,0,P|354:314|334:249,1,110,6|2,0:0|0:0,0:0:0:0:
242,242,53497,2,0,P|246:269|250:296,2,55,2|2|2,0:0|0:0|0:0,0:0:0:0:
204,209,54020,2,0,P|149:217|95:224,2,110,8|8|2,0:0|0:0|0:0,0:0:0:0:
224,163,54892,2,0,P|205:115|225:50,1,110,8|8,0:0|0:0,0:0:0:0:
312,30,55590,6,0,P|367:38|421:45,1,110,6|8,0:0|0:0,0:0:0:0:
463,70,56113,1,2,0:0:0:0:
463,70,56288,2,0,P|449:122|468:173,1,110,0|8,0:0|0:0,0:0:0:0:
460,222,56811,2,0,P|479:272|465:325,1,110,0|2,0:0|0:0,0:0:0:0:
368,300,57509,2,0,P|313:292|259:285,1,110,2|2,0:0|0:0,0:0:0:0:
209,281,58032,1,8,0:0:0:0:
113,305,58381,6,0,P|132:255|118:202,1,110,6|8,0:0|0:0,0:0:0:0:
62,120,59078,2,0,P|35:124|8:128,2,55,6|8|8,0:0|0:0|0:0,0:0:0:0:
134,52,59776,2,0,P|184:33|237:47,1,110,6|8,0:0|0:0,0:0:0:0:
278,74,60299,2,0,P|328:93|381:79,1,110,6|8,0:0|0:0,0:0:0:0:
429,65,60823,1,8,0:0:0:0:
457,159,61172,6,0,P|484:155|511:151,2,55,6|0|8,0:0|0:0|0:0,0:0:0:0:
409,174,61695,2,0,P|401:229|394:283,1,110,2|2,0:0|0:0,0:0:0:0:
384,331,62218,1,8,0:0:0:0:
294,289,62567,2,0,P|240:281|186:274,1,110,2|8,0:0|0:0,0:0:0:0:
145,303,63090,2,0,P|94:322|41:308,1,110,2|2,0:0|0:0,0:0:0:0:
0,280,63613,1,8,0:0:0:0:
34,187,63962,6,0,P|85:168|138:182,1,110,6|8,0:0|0:0,0:0:0:0:
227,224,64660,2,0,P|231:251|235:278,2,55,6|2|8,0:0|0:0|0:0,0:0:0:0:
308,167,65358,2,0,P|327:116|313:63,1,110,6|8,0:0|0:0,0:0:0:0:
271,36,65881,1,2,0:0:0:0:
271,36,66055,2,0,P|220:55|167:41,1,110,0|8,0:0|0:0,0:0:0:0:
69,51,66753,6,0,P|61:105|54:159,1,110,6|8,0:0|0:0,0:0:0:0:
28,202,67276,1,2,0:0:0:0:
28,202,67451,2,0,P|35:256|42:310,1,110,0|8,0:0|0:0,0:0:0:0:
74,348,67974,2,0,P|125:367|178:353,1,110,0|2,0:0|0:0,0:0:0:0:
264,305,68672,2,0,P|315:286|368:300,1,110,2|2,0:0|0:0,0:0:0:0:
414,315,69195,1,8,0:0:0:0:
494,257,69544,6,0,P|501:203|508:149,1,110,6|8,0:0|0:0,0:0:0:0:
500,98,70067,1,2,0:0:0:0:
500,98,70241,2,0,P|449:79|396:93,1,110,6|8,0:0|0:0,0:0:0:0:
312,144,70939,2,0,P|258:137|204:130,1,110,12|8,0:0|0:0,0:0:0:0:
153,129,71462,1,2,0:0:0:0:
153,129,71637,2,0,P|172:180|158:233,1,110,12|8,0:0|0:0,0:0:0:0:
70,277,72334,6,0,P|74:304|78:331,2,55,6|8|8,0:0|0:0|0:0,0:0:0:0:
34,241,72858,2,0,P|26:187|19:133,1,110,6|2,0:0|0:0,0:0:0:0:
39,86,73381,1,8,0:0:0:0:
39,86,73555,2,0,P|90:67|143:81,1,110,6|2,0:0|0:0,0:0:0:0:
189,94,74078,2,0,P|243:86|297:79,1,110,8|2,0:0|0:0,0:0:0:0:
386,33,74776,1,8,0:0:0:0:
479,66,75125,6,0,P|498:117|484:170,1,110,6|8,0:0|0:0,0:0:0:0:
460,212,75648,2,0,P|441:263|455:316,1,110,2|2,0:0|0:0,0:0:0:0:
356,299,76346,2,0,P|302:291|248:284,1,110,2|2,0:0|0:0,0:0:0:0:
198,295,76869,1,8,0:0:0:0:
102,321,77218,2,0,P|121:270|107:217,1,110,2|8,0:0|0:0,0:0:0:0:
41,143,77916,6,0,P|22:92|36:39,1,110,2|8,0:0|0:0,0:0:0:0:
84,31,78439,2,0,P|138:39|192:46,1,110,2|2,0:0|0:0,0:0:0:0:
281,90,79137,2,0,P|273:144|266:198,2,110,2|2|2,0:0|0:0|0:0,0:0:0:0:
320,59,80009,2,0,P|371:40|424:54,1,110,2|8,0:0|0:0,0:0:0:0:
492,124,80706,6,0,P|500:178|507:232,1,110,6|8,0:0|0:0,0:0:0:0:
493,281,81230,2,0,P|442:300|389:286,1,110,2|2,0:0|0:0,0:0:0:0:
299,244,81927,2,0,P|248:225|195:239,1,110,2|2,0:0|0:0,0:0:0:0:
152,264,82451,1,8,0:0:0:0:
69,209,82799,2,0,P|61:155|54:101,1,110,2|8,0:0|0:0,0:0:0:0:
130,37,83497,6,0,P|181:56|234:42,1,110,2|8,0:0|0:0,0:0:0:0:
280,27,84020,2,0,P|299:78|285:131,1,110,2|2,0:0|0:0,0:0:0:0:
233,215,84718,2,0,P|179:223|125:230,2,110,2|2|2,0:0|0:0|0:0,0:0:0:0:
274,242,85590,2,0,P|325:261|378:247,1,110,2|2,0:0|0:0,0:0:0:0:
462,196,86288,6,0,P|466:223|470:250,2,55,8|2|2,0:0|0:0|0:0,0:0:0:0:
434,154,86811,2,0,P|415:103|429:50,2,110,8|8|6,0:0|0:0|0:0,0:0:0:0:
