osu file format v14

[General]
AudioFilename: audio.mp3
AudioLeadIn: 0
PreviewTime: 225
Countdown: 0
SampleSet: Soft
StackLeniency: 0.7
Mode: 0
LetterboxInBreaks: 0
WidescreenStoryboard: 1

[Editor]
Bookmarks: 74167
DistanceSpacing: 1.5
BeatDivisor: 4
GridSize: 4
TimelineZoom: 1.5

[Metadata]
Title:Aki no Anata no Sora Toku
TitleUnicode:秋のあなたの空遠く
Artist:lily white
ArtistUnicode:lily white
Creator:MBmasher
Version:Normal
Source:ラブライブ!スクールアイドルフェスティバル
Tags:tooku love live スクフェス school idol festival llsif llsip project anime video game videogame lantis 畑亜貴 hata 増田武史 takeshi masuda 園田海未 sonoda umi 三森すずこ mimori suzuko 星空凛 hoshizora rin 飯田里穂 iida riho 東條希 tojo toujou nozomi 楠田亜衣奈 kusuda aina u's μ's Konoe Kanata jamimc2 cloudchaser wtfgurl japanese jpop j-pop pop
BeatmapID:2750426
BeatmapSetID:1325099

[Difficulty]
HPDrainRate:3.5
CircleSize:3
OverallDifficulty:4.5
ApproachRate:5.5
SliderMultiplier:1
SliderTickRate:1

[Events]
//Background and Video events
0,0,"Lily.White.(Love.Live!).full.2015347.jpg",0,0
//Break Periods
//Storyboard Layer 0 (Background)
//Storyboard Layer 1 (Fail)
//Storyboard Layer 2 (Pass)
//Storyboard Layer 3 (Foreground)
//Storyboard Layer 4 (Overlay)
//Storyboard Sound Samples

[TimingPoints]
-1019,384.615384615385,4,2,1,50,1,0
519,-100,4,2,1,55,0,0
1096,-100,4,2,2,55,0,0
1480,-100,4,2,1,55,0,0
2057,-100,4,2,2,55,0,0
2249,-100,4,2,1,55,0,0
2634,-100,4,2,2,55,0,0
3018,-100,4,2,1,55,0,0
3596,-100,4,2,2,55,0,0
3788,-100,4,2,1,55,0,0
4173,-100,4,2,2,55,0,0
4557,-100,4,2,1,55,0,0
5134,-100,4,2,3,55,0,0
5326,-100,4,2,1,55,0,0
5518,-100,4,2,3,58,0,0
5904,-100,4,2,3,61,0,0
6096,-100,4,2,1,61,0,0
6288,-100,4,2,3,64,0,0
6480,-100,4,2,1,64,0,0
6673,-100,4,2,4,70,0,0
12827,-100,4,2,5,70,0,0
13211,-100,4,2,6,70,0,0
13596,-100,4,2,5,70,0,0
13788,-100,4,2,4,70,0,0
13981,-100,4,2,100,70,0,0
13986,-100,4,2,7,70,0,0
14172,-100,4,2,8,70,0,0
14365,-100,4,2,9,70,0,0
14749,-100,4,2,4,70,0,0
15134,-100,4,2,10,70,0,0
15904,-100,4,2,4,70,0,0
17634,-100,4,2,11,70,0,0
18404,-100,4,2,7,70,0,0
18981,-100,4,2,4,50,0,0
20904,-100,4,2,101,50,0,0
20909,-100,4,2,4,50,0,0
22442,-100,4,2,101,50,0,0
22447,-100,4,2,4,50,0,0
27058,-100,4,2,101,50,0,0
27063,-100,4,2,4,50,0,0
28211,-100,4,2,1,50,0,0
28595,-100,4,2,6,50,0,0
28981,-100,4,2,1,50,0,0
29365,-100,4,2,6,50,0,0
29750,-100,4,2,4,50,0,0
30711,-100,4,2,7,50,0,0
31288,-100,4,2,4,55,0,0
31672,-100,4,2,13,55,0,0
32057,-100,4,2,4,55,0,0
32249,-100,4,2,13,55,0,0
32634,-100,4,2,4,55,0,0
32827,-100,4,2,13,55,0,0
33211,-100,4,2,102,55,0,0
33217,-100,4,2,14,55,0,0
33788,-100,4,2,13,55,0,0
34173,-100,4,2,4,55,0,0
34365,-100,4,2,13,55,0,0
34749,-100,4,2,102,55,0,0
34755,-100,4,2,14,55,0,0
35327,-100,4,2,13,55,0,0
35711,-100,4,2,4,55,0,0
35904,-100,4,2,14,55,0,0
36289,-100,4,2,102,55,0,0
36294,-100,4,2,14,55,0,0
36865,-100,4,2,13,55,0,0
37249,-100,4,2,4,55,0,0
37826,-100,4,2,14,55,0,0
38211,-100,4,2,13,55,0,0
38499,-100,4,2,4,55,0,0
39942,-100,4,2,7,55,0,0
40038,-100,4,2,4,55,0,0
41481,-100,4,2,11,55,0,0
43211,-100,4,2,4,55,0,0
43596,-100,4,2,4,60,0,0
43980,-100,4,2,5,60,0,0
44173,-100,4,2,4,60,0,0
44365,-100,4,2,5,60,0,0
44557,-100,4,2,1,60,0,0
44749,-100,4,2,5,60,0,0
44942,-100,4,2,4,60,0,0
45134,-100,4,2,5,60,0,0
45518,-100,4,2,6,60,0,0
45904,-100,4,2,5,60,0,0
47057,-100,4,2,6,60,0,0
47442,-100,4,2,5,60,0,0
47634,-100,4,2,1,60,0,0
47826,-100,4,2,5,60,0,0
48019,-100,4,2,4,60,0,0
48211,-100,4,2,6,60,0,0
49750,-100,4,2,4,60,0,0
50134,-100,4,2,5,60,0,0
50327,-100,4,2,4,60,0,0
50519,-100,4,2,5,60,0,0
50711,-100,4,2,1,60,0,0
50903,-100,4,2,5,60,0,0
51096,-100,4,2,4,60,0,0
51288,-100,4,2,5,60,0,0
51865,-100,4,2,1,60,0,0
52057,-100,4,2,5,60,0,0
52249,-100,4,2,1,60,0,0
52442,-100,4,2,5,60,0,0
52827,-100,4,2,4,60,0,0
53596,-100,4,2,15,60,0,0
54365,-100,4,2,4,60,0,0
55327,-100,4,1,100,60,0,0
55332,-100,4,2,4,60,0,0
56865,-100,4,2,7,60,0,0
57442,-100,4,2,1,60,0,0
57826,-100,4,2,6,60,0,0
58019,-100,4,2,1,60,0,0
58211,-100,4,2,6,60,0,0
58404,-100,4,2,1,60,0,0
59942,-100,4,2,4,60,0,0
60134,-100,4,2,16,60,0,0
60326,-100,4,2,4,60,0,0
60519,-100,4,2,4,75,0,1
66673,-100,4,2,5,75,0,1
67057,-100,4,2,6,75,0,1
67442,-100,4,2,5,75,0,1
67634,-100,4,2,4,75,0,1
67832,-100,4,2,7,75,0,1
68018,-100,4,2,8,75,0,1
68211,-100,4,2,9,75,0,1
68596,-100,4,2,4,75,0,1
68981,-100,4,2,10,75,0,1
69750,-100,4,2,4,75,0,1
71480,-100,4,2,11,75,0,1
72249,-100,4,2,7,75,0,1
72827,-100,4,2,4,70,0,0
78981,-100,4,2,5,70,0,0
79365,-100,4,2,6,70,0,0
79750,-100,4,2,5,70,0,0
79942,-100,4,2,4,70,0,0
80140,-100,4,2,7,70,0,0
80326,-100,4,2,8,70,0,0
80519,-100,4,2,9,70,0,0
80903,-100,4,2,4,70,0,0
81288,-100,4,2,10,70,0,0
82057,-100,4,2,4,70,0,0
83596,-100,4,2,8,40,0,0
83788,-100,4,2,17,40,0,0
83981,-100,4,2,18,40,0,0
84173,-100,4,2,4,60,0,0
87442,-100,4,2,4,5,0,0

[Colours]
Combo1 : 253,197,140
Combo2 : 209,99,176
Combo3 : 135,53,145
Combo4 : 86,154,211
Combo5 : 28,90,163
Combo6 : 237,101,101
Combo7 : 111,211,86
Combo8 : 245,255,39

[HitObjects]
14,74,327,69,0,2:0:0:0:
14,74,519,2,0,P|61:91|111:78,1,100,6|2,2:0|2:0,2:0:0:0:
159,47,1096,2,0,P|206:35|253:52,1,100,2|2,2:0|2:0,2:0:0:0:
281,158,1865,1,2,2:0:0:0:
281,158,2057,38,0,L|171:169,1,100,2|2,2:0|2:0,2:0:0:0:
128,181,2634,2,0,L|139:291,1,100,2|2,2:0|2:0,2:0:0:0:
228,343,3404,1,2,2:0:0:0:
228,343,3596,70,0,B|278:355|278:355|326:330,1,100,2|2,2:0|2:0,2:0:0:0:
361,301,4173,2,0,L|353:196,1,100,2|2,2:0|2:0,2:0:0:0:
289,118,4942,1,2,2:0:0:0:
289,118,5134,38,0,P|238:111|192:128,1,100,10|10,2:0|2:0,2:0:0:0:
150,163,5711,1,0,0:0:0:0:
150,163,5904,2,0,L|158:218,1,50,10|10,2:0|2:0,2:0:0:0:
192,254,6288,2,0,L|184:309,1,50,10|10,2:0|2:0,2:0:0:0:
224,342,6673,54,0,P|275:353|328:328,1,100,6|8,1:2|2:0,2:0:0:0:
347,230,7442,2,0,L|335:117,1,100,2|8,2:0|2:0,2:0:0:0:
232,94,8211,2,0,L|220:207,1,100,2|8,1:2|2:0,2:0:0:0:
212,253,8788,1,0,1:0:0:0:
212,253,8981,2,0,P|154:266|99:249,1,100,2|8,2:0|2:0,2:0:0:0:
71,224,9557,102,0,L|83:124,1,100,2|0,2:0|2:0,2:0:0:0:
91,70,10134,1,10,2:0:0:0:
198,112,10519,1,2,2:0:0:0:
198,112,10711,2,0,P|250:122|302:103,1,100,2|2,1:2|2:0,2:0:0:0:
334,71,11288,6,0,L|330:14,2,50,0|0|8,1:0|1:0|2:0,2:0:0:0:
386,87,11865,2,0,P|433:73|481:83,1,100,2|0,1:2|1:0,2:0:0:0:
512,121,12442,1,10,2:0:0:0:
501,230,12827,5,10,2:0:0:0:
487,339,13211,1,10,2:0:0:0:
377,327,13596,2,0,L|286:318,2,75,10|2|2,2:0|2:0|2:0,2:0:0:0:
419,292,14365,38,0,P|429:243|410:193,1,100,2|6,2:0|1:2,2:0:0:0:
331,123,15134,2,0,L|254:131,1,75,2|2,2:0|2:0,2:0:0:0:
178,144,15711,1,2,2:0:0:0:
178,144,15904,54,0,L|168:246,1,100,6|8,1:2|2:0,2:0:0:0:
196,290,16481,2,0,P|244:309|298:299,1,100,2|0,1:2|1:0,2:0:0:0:
337,273,17057,1,8,2:0:0:0:
426,208,17442,101,4,1:2:0:0:
426,208,17634,2,0,P|445:157|435:113,1,100,2|2,1:2|1:2,2:0:0:0:
378,25,18404,1,10,2:0:0:0:
378,25,18596,2,0,P|352:18|322:23,1,50,10|8,2:0|2:0,2:0:0:0:
293,62,18981,86,0,L|194:76,1,100,6|10,1:2|2:0,2:0:0:0:
156,117,19557,1,2,2:0:0:0:
156,117,19750,2,0,L|57:103,1,100,2|10,1:2|2:0,2:0:0:0:
14,138,20327,1,2,1:2:0:0:
14,138,20519,6,0,P|-2:198|35:274,1,150,2|0,1:2|1:0,2:0:0:0:
145,266,21481,2,0,L|153:206,2,50,2|10|2,1:2|2:0|2:0,2:0:0:0:
187,302,22057,102,0,B|271:285|240:356|337:341,1,150,2|0,1:2|2:0,2:0:0:0:
413,277,23019,2,0,L|470:268,2,50,2|10|2,1:2|2:0|1:2,2:0:0:0:
367,249,23596,6,0,P|356:204|376:149,1,100,0|8,1:0|2:0,2:0:0:0:
319,57,24365,2,0,L|219:63,1,100,0|8,2:0|2:0,2:0:0:0:
232,172,25134,102,0,L|246:288,1,100,2|10,1:2|2:0,2:0:0:0:
252,325,25711,1,2,2:0:0:0:
252,325,25904,2,0,P|307:336|353:315,1,100,2|10,1:2|2:0,2:0:0:0:
385,280,26481,1,2,1:2:0:0:
385,280,26673,2,0,B|399:181|399:181|350:150,1,150,2|0,1:2|1:0,2:0:0:0:
284,71,27634,2,0,L|278:19,2,50,2|10|2,1:2|2:0|2:0,2:0:0:0:
255,118,28211,6,0,P|210:139|161:129,1,100,2|10,1:3|2:0,2:0:0:0:
75,61,28981,1,2,1:3:0:0:
14,150,29365,1,10,2:0:0:0:
77,240,29750,1,4,1:2:0:0:
77,240,29942,2,0,L|131:249,1,50,8|0,2:0|2:0,2:0:0:0:
171,280,30327,2,0,L|277:267,1,100,12|2,2:0|2:0,2:0:0:0:
325,260,30904,1,2,2:0:0:0:
405,185,31288,102,0,P|413:135|394:89,1,100,6|10,1:2|2:0,2:0:0:0:
295,43,32057,2,0,L|244:49,1,50,2|2,1:2|1:2,2:0:0:0:
191,59,32442,2,0,L|197:110,1,50,10|2,2:0|1:2,2:0:0:0:
204,163,32827,2,0,P|151:193|41:162,1,150,2|2,1:2|1:2,2:0:0:0:
37,74,33788,1,2,1:2:0:0:
37,74,33981,2,0,L|109:62,1,50,10|2,2:0|2:0,2:0:0:0:
129,31,34365,6,0,L|295:39,1,150,2|2,1:2|2:0,2:0:0:0:
353,119,35327,2,0,L|346:185,2,50,2|10|2,1:2|2:0|1:2,2:0:0:0:
394,82,35904,102,0,P|451:83|484:169,1,150,2|2,1:2|1:2,2:0:0:0:
427,251,36865,1,2,1:2:0:0:
427,251,37057,2,0,L|363:247,1,50,10|2,2:0|2:0,2:0:0:0:
329,276,37442,6,0,L|224:285,1,100,6|10,1:2|2:0,2:0:0:0:
120,298,38211,2,0,B|117:323|117:323|125:346|125:346|122:373,2,75,2|2|2,1:2|2:0|1:2,2:0:0:0:
148,250,38981,2,0,L|143:137,1,100,2|12,1:2|2:0,2:0:0:0:
138,40,39750,2,0,B|113:37|113:37|90:45|90:45|63:42,2,75,10|10|10,2:0|2:0|2:0,2:0:0:0:
192,46,40519,101,2,1:2:0:0:
260,131,40904,2,0,P|270:187|256:232,1,100,12|0,2:0|1:0,2:0:0:0:
223,270,41481,1,10,2:0:0:0:
313,331,41865,6,0,L|418:323,1,100,10|8,2:0|2:0,2:0:0:0:
456,289,42442,2,0,P|461:262|456:233,1,50,8|8,2:0|2:0,2:0:0:0:
416,203,42827,1,10,2:0:0:0:
440,95,43211,1,12,1:2:0:0:
346,36,43596,38,0,L|241:30,1,100,6|10,1:2|2:0,2:0:0:0:
202,61,44173,1,2,1:2:0:0:
202,61,44365,2,0,L|97:67,1,100,10|10,2:0|2:0,2:0:0:0:
62,105,44942,1,2,1:2:0:0:
62,105,45134,2,0,P|50:168|68:203,1,100,10|10,2:0|2:0,2:0:0:0:
164,245,45904,1,10,2:0:0:0:
263,198,46288,1,10,2:0:0:0:
351,263,46673,38,0,L|338:374,1,100,10|10,2:0|2:0,2:0:0:0:
233,331,47442,2,0,P|182:317|133:327,1,100,10|10,2:0|2:0,2:0:0:0:
86,348,48019,1,2,1:2:0:0:
86,348,48211,1,10,2:0:0:0:
38,249,48596,1,10,2:0:0:0:
111,167,48981,2,0,L|217:178,1,100,10|10,2:0|2:0,2:0:0:0:
303,119,49750,70,0,L|411:110,1,100,14|10,2:0|2:0,2:0:0:0:
446,134,50327,1,2,1:2:0:0:
446,134,50519,2,0,P|464:187|451:237,1,100,10|10,2:0|2:0,2:0:0:0:
426,277,51096,1,2,1:2:0:0:
426,277,51288,1,10,2:0:0:0:
327,228,51673,2,0,B|279:211|279:211|231:231,2,100,10|10|10,2:0|2:0|2:0,2:0:0:0:
281,328,52827,2,0,B|234:347|234:347|187:330,1,100,2|12,1:2|2:0,2:0:0:0:
109,253,53596,37,2,2:0:0:0:
103,168,53884,2,0,L|98:79,1,75,2|2,2:0|2:0,2:0:0:0:
97,37,54365,6,0,P|143:20|207:36,1,100,6|8,1:2|2:0,2:0:0:0:
234,63,54942,2,0,P|292:77|345:10,1,150,2|8,1:2|2:0,0:0:0:0:
454,9,55904,2,0,L|479:131,1,100,0|8,1:0|2:0,2:0:0:0:
512,143,56481,2,0,L|487:265,1,100,0|2,1:0|2:0,2:0:0:0:
474,292,57057,1,2,2:0:0:0:
375,241,57442,6,0,P|325:225|276:241,1,100,12|10,2:0|2:0,2:0:0:0:
237,272,58019,1,0,1:0:0:0:
237,272,58211,2,0,P|189:284|142:268,1,100,10|8,2:0|2:0,2:0:0:0:
95,238,58788,1,8,2:0:0:0:
138,139,59173,1,10,2:0:0:0:
138,139,59365,2,0,L|197:147,1,50,10|10,2:0|2:0,2:0:0:0:
242,152,59750,1,10,2:0:0:0:
351,161,60134,2,0,P|358:190|354:222,1,50,10|2,2:0|2:0,2:0:0:0:
335,260,60519,70,0,P|325:327|350:371,1,100,6|8,1:2|2:0,2:0:0:0:
385,381,61096,1,0,1:0:0:0:
457,298,61481,1,2,1:2:0:0:
457,298,61673,2,0,L|448:237,1,50,10|2,2:0|2:0,2:0:0:0:
420,201,62057,102,0,L|429:101,1,100,2|8,1:2|2:0,2:0:0:0:
391,61,62634,1,0,1:0:0:0:
391,61,62827,2,0,B|354:51|354:51|321:65,1,75,2|2,2:0|2:0,2:0:0:0:
256,117,63404,1,2,2:0:0:0:
256,117,63596,6,0,P|210:137|150:131,1,100,2|10,1:2|2:0,2:0:0:0:
58,94,64365,1,2,2:0:0:0:
58,94,64557,2,0,L|68:163,1,50,2|8,1:2|2:0,2:0:0:0:
29,185,64942,102,0,P|21:242|46:288,1,100,2|0,2:0|1:0,2:0:0:0:
76,310,65519,1,8,2:0:0:0:
76,310,65711,2,0,L|198:295,1,100,2|0,1:2|1:0,2:0:0:0:
229,290,66288,1,10,2:0:0:0:
294,198,66673,101,10,2:0:0:0:
246,98,67057,1,10,2:0:0:0:
155,161,67442,2,0,L|163:250,2,75,10|2|2,2:0|2:0|2:0,2:0:0:0:
149,106,68211,37,2,2:0:0:0:
213,16,68596,1,6,1:2:0:0:
323,19,68981,2,0,P|375:25|406:44,1,75,2|2,2:0|2:0,2:0:0:0:
440,110,69557,1,2,2:0:0:0:
440,110,69750,54,0,L|455:215,1,100,6|8,1:2|2:0,2:0:0:0:
414,246,70327,2,0,L|399:351,1,100,2|0,1:2|1:0,2:0:0:0:
359,383,70904,1,8,2:0:0:0:
264,327,71288,102,0,P|211:315|150:333,1,100,4|8,1:2|2:0,2:0:0:0:
121,355,71865,2,0,L|126:238,1,100,2|10,1:2|2:0,2:0:0:0:
130,200,72442,1,10,2:0:0:0:
184,104,72827,6,0,B|232:88|232:88|280:100,1,100,6|8,1:2|2:0,2:0:0:0:
339,192,73596,2,0,B|291:208|291:208|243:196,1,100,2|8,2:0|2:0,2:0:0:0:
130,200,74365,2,0,L|138:307,1,100,2|8,1:2|2:0,2:0:0:0:
147,358,74942,1,0,1:0:0:0:
147,358,75134,2,0,P|200:345|263:360,1,100,2|8,2:0|2:0,2:0:0:0:
352,373,75904,101,2,1:2:0:0:
369,264,76288,1,10,2:0:0:0:
306,172,76673,1,2,2:0:0:0:
306,172,76865,2,0,L|196:185,1,100,2|2,1:2|2:0,2:0:0:0:
163,218,77442,6,0,L|169:284,2,50,0|0|8,1:0|1:0|2:0,2:0:0:0:
114,191,78019,2,0,P|99:141|119:93,1,100,2|0,1:2|1:0,2:0:0:0:
155,60,78596,1,10,2:0:0:0:
263,76,78981,5,10,2:0:0:0:
370,96,79365,1,10,2:0:0:0:
404,200,79750,2,0,L|478:191,2,75,10|2|2,2:0|2:0|2:0,2:0:0:0:
363,237,80519,38,0,L|256:226,1,100,2|6,2:0|1:2,2:0:0:0:
163,273,81288,2,0,P|152:232|157:194,1,75,2|2,2:0|2:0,2:0:0:0:
182,124,81865,1,2,2:0:0:0:
182,124,82057,54,0,L|56:110,1,100,6|8,1:2|2:0,2:0:0:0:
27,106,82634,2,0,P|39:172|32:213,1,100,2|0,1:2|1:0,2:0:0:0:
16,256,83211,2,0,L|25:314,1,50,8|0,2:0|1:0,2:0:0:0:
61,345,83596,102,0,P|89:351|116:345,1,50,2|2,2:0|2:0,2:0:0:0:
159,321,83981,1,2,2:0:0:0:
159,321,84173,1,6,1:2:0:0:
256,192,84365,12,0,87442,2:0:0:0:
