osu file format v14

[General]
AudioFilename: audio.mp3
AudioLeadIn: 0
PreviewTime: 57979
Countdown: 0
SampleSet: Soft
StackLeniency: 0.7
Mode: 2
LetterboxInBreaks: 0
WidescreenStoryboard: 0

[Editor]
DistanceSpacing: 0.5
BeatDivisor: 4
GridSize: 8
TimelineZoom: 1

[Metadata]
Title:balenciaga socks
TitleUnicode:balenciaga socks
Artist:lil soda boi
ArtistUnicode:lil soda boi
Creator:MBomb
Version:alone
Source:
Tags:magic bomb english hip-hop mumble rap deliverthecrush
BeatmapID:1947001
BeatmapSetID:932532

[Difficulty]
HPDrainRate:6
CircleSize:4.4
OverallDifficulty:8.3
ApproachRate:8.3
SliderMultiplier:3
SliderTickRate:1

[Events]
//Background and Video events
0,0,"rsz_sad_boi_2.jpg",0,0
//Break Periods
//Storyboard Layer 0 (Background)
//Storyboard Layer 1 (Fail)
//Storyboard Layer 2 (Pass)
//Storyboard Layer 3 (Foreground)
//Storyboard Sound Samples

[TimingPoints]
148,722.89156626506,4,2,1,51,1,0
57979,-100,4,2,1,51,0,1
69534,714.285714285714,4,2,1,51,1,0
72391,722.89156626506,4,2,1,51,1,0
75282,731.707317073171,4,2,1,51,1,0
78208,722.89156626506,4,2,1,51,1,0
81099,-100,4,2,1,41,0,0

[Colours]
Combo1 : 255,102,102
Combo2 : 255,128,64
Combo3 : 128,64,0
Combo4 : 202,101,0

[HitObjects]
80,192,10991,5,2,0:0:0:0:
16,192,11172,1,0,0:0:0:0:
80,192,11352,1,0,0:0:0:0:
496,192,11714,5,4,0:0:0:0:
256,192,12075,2,0,L|200:192,2,37.5
416,192,12437,2,0,L|496:192,1,75,8|0,0:1|0:0,0:0:0:0:
424,192,12798,1,0,0:0:0:0:
336,192,12979,1,0,0:0:0:0:
160,192,13160,2,0,L|80:192,1,75
264,192,13521,2,0,L|352:192,1,75
96,192,13882,1,8,0:1:0:0:
256,192,14244,2,0,L|344:192,1,75,2|0,0:0|0:0,0:0:0:0:
88,192,14605,5,8,0:3:0:0:
256,192,14967,1,0,0:0:0:0:
218,192,15057,1,0,0:0:0:0:
181,192,15147,1,0,0:0:0:0:
16,192,15328,2,0,L|96:192,2,75,8|0|0,0:1|0:0|0:0,0:0:0:0:
320,192,16051,2,0,L|400:192,2,75
240,192,16593,1,0,0:0:0:0:
480,192,16774,1,8,0:1:0:0:
320,192,17135,2,0,L|240:192,1,75
488,192,17497,6,0,P|448:120|384:120,1,150,8|0,0:3|0:0,0:0:0:0:
304,192,18039,1,0,0:0:0:0:
144,192,18220,2,0,L|69:192,3,75,8|0|0|0,0:1|0:0|0:0|0:0,0:0:0:0:
240,192,18943,2,0,L|328:192,1,75
240,192,19304,2,0,L|165:192,1,75
432,192,19666,1,8,0:1:0:0:
320,192,20027,2,0,L|408:192,1,75,2|0,0:0|0:0,0:0:0:0:
144,192,20388,5,8,0:3:0:0:
395,192,20750,2,0,L|443:192,2,37.5
224,192,21111,2,0,L|144:192,1,75,8|0,0:1|0:0,0:0:0:0:
149,192,21473,2,0,L|224:192,1,75
64,192,21834,1,0,0:0:0:0:
20,141,22014,1,0,0:0:0:0:
74,102,22195,1,0,0:0:0:0:
160,192,22376,1,0,0:0:0:0:
328,192,22557,2,0,L|328:112,1,75,8|0,0:1|0:0,0:0:0:0:
184,192,22919,1,0,0:0:0:0:
328,192,23099,1,0,0:0:0:0:
80,192,23280,5,4,0:0:0:0:
328,192,23641,2,0,L|384:192,2,37.5
168,192,24003,2,0,L|248:192,1,75,8|0,0:1|0:0,0:0:0:0:
318,192,24364,2,0,L|238:192,1,75
80,192,24726,2,0,L|80:112,1,75
243,192,25087,2,0,L|163:192,1,75
416,192,25449,1,8,0:1:0:0:
243,192,25810,2,0,L|163:192,1,75,2|0,0:0|0:0,0:0:0:0:
419,192,26172,5,8,0:3:0:0:
256,192,26533,2,0,L|208:192,2,37.5
419,192,26894,2,0,L|496:192,2,75,8|0|0,0:1|0:0|0:0,0:0:0:0:
168,192,27617,2,0,L|80:192,2,75
256,192,28160,1,0,0:0:0:0:
16,192,28340,1,8,0:1:0:0:
168,192,28702,2,0,L|72:192,1,75
328,192,29063,6,0,P|384:152|320:120,1,150,4|0,0:3|0:0,0:0:0:0:
256,192,29605,1,0,0:0:0:0:
416,192,29786,2,0,L|496:192,1,75,8|0,0:1|0:0,0:0:0:0:
491,192,30147,2,0,L|416:192,1,75
256,192,30509,2,0,L|336:192,3,75
96,192,31232,1,8,0:0:0:0:
240,192,31593,2,0,L|152:192,1,75,2|0,0:0|0:0,0:0:0:0:
408,192,31955,5,8,0:3:0:0:
160,192,32316,2,0,L|120:192,2,37.5
328,192,32678,2,0,L|408:192,1,75,8|0,0:1|0:0,0:0:0:0:
328,192,33039,2,0,L|232:192,1,75
80,192,33401,2,0,P|32:183|16:152,2,75
168,192,33943,1,0,0:0:0:0:
336,192,34123,2,0,L|424:192,1,75,8|0,0:1|0:0,0:0:0:0:
248,192,34485,1,0,0:0:0:0:
104,192,34666,1,0,0:0:0:0:
344,192,34846,5,4,0:0:0:0:
96,192,35208,2,0,L|96:104,1,75
256,192,35569,2,0,L|176:192,1,75,8|0,0:1|0:0,0:0:0:0:
106,192,35931,2,0,L|186:192,1,75
352,192,36292,1,0,0:0:0:0:
423,177,36472,1,0,0:0:0:0:
455,112,36653,1,0,0:0:0:0:
368,192,36834,1,0,0:0:0:0:
120,192,37015,1,8,0:1:0:0:
360,192,37376,1,2,0:0:0:0:
48,192,37738,5,8,0:3:0:0:
216,192,38099,2,0,L|320:192,1,75
123,192,38461,2,0,L|43:192,3,75,8|0|0|0,0:1|0:0|0:0|0:0,0:0:0:0:
256,192,39184,2,0,L|331:192,1,75
256,192,39545,2,0,L|181:192,1,75
421,192,39907,1,8,0:1:0:0:
181,192,40268,1,0,0:0:0:0:
493,192,40630,5,8,0:3:0:0:
256,192,40991,2,0,L|176:192,1,75
352,192,41352,2,0,L|392:128,1,75,8|0,0:1|0:0,0:0:0:0:
320,192,41714,2,0,L|272:128,1,75
352,192,42075,2,0,L|272:192,1,75
200,192,42437,2,0,L|120:192,1,75
365,192,42798,1,8,0:1:0:0:
125,192,43159,1,2,0:0:0:0:
437,192,43521,5,8,0:3:0:0:
192,192,43882,2,0,L|288:192,1,75
432,192,44244,2,0,L|496:152,1,75,8|0,0:1|0:0,0:0:0:0:
496,152,44605,2,0,L|432:192,1,75
336,192,44967,2,0,L|248:192,1,75
261,192,45328,2,0,L|336:192,1,75
96,192,45690,1,10,0:2:0:0:
336,192,46051,1,0,0:0:0:0:
24,192,46413,5,4,0:0:0:0:
272,192,46774,2,0,L|328:192,2,37.5
32,192,47135,2,0,P|16:128|88:104,1,150,8|0,0:1|0:0,0:0:0:0:
176,192,47678,1,0,0:0:0:0:
344,192,47858,2,0,L|344:112,1,75
269,192,48220,2,0,L|349:192,1,75
176,192,48581,2,0,L|88:192,1,75,8|0,0:1|0:0,0:0:0:0:
264,192,48943,1,2,0:0:0:0:
101,192,49123,1,0,0:0:0:0:
344,192,49304,5,8,0:3:0:0:
176,192,49666,2,0,L|256:192,1,75
416,192,50027,2,0,L|496:192,2,75,8|0|0,0:1|0:0|0:0,0:0:0:0:
144,192,50750,1,0,0:0:0:0:
219,192,50930,1,0,0:0:0:0:
294,192,51111,1,0,0:0:0:0:
24,192,51473,2,0,L|104:192,1,75,8|0,0:1|0:0,0:0:0:0:
99,192,51834,2,0,L|24:192,1,75
280,192,52196,5,4,0:3:0:0:
128,192,52557,1,0,0:0:0:0:
384,192,52919,1,8,0:1:0:0:
96,192,53280,1,0,0:0:0:0:
408,192,53641,1,0,0:0:0:0:
328,192,53822,1,0,0:0:0:0:
248,192,54003,2,0,L|248:112,1,75
416,192,54364,2,0,L|496:192,1,75,8|0,0:1|0:0,0:0:0:0:
328,192,54726,1,2,0:0:0:0:
491,192,54907,1,0,0:0:0:0:
240,192,55087,5,8,0:3:0:0:
491,192,55449,1,0,0:0:0:0:
453,192,55539,1,0,0:0:0:0:
416,192,55629,1,0,0:0:0:0:
248,192,55810,2,0,P|152:160|136:96,1,150,8|0,0:1|0:0,0:0:0:0:
400,192,56533,1,0,0:0:0:0:
312,192,56714,1,0,0:0:0:0:
136,192,56894,2,0,L|232:192,1,75
376,192,57256,2,0,L|272:192,1,75,8|0,0:1|0:0,0:0:0:0:
136,192,57617,1,0,0:0:0:0:
301,192,57798,1,0,0:0:0:0:
56,192,57979,5,4,0:0:0:0:
240,192,58340,2,0,L|288:192,2,37.5
80,192,58702,2,0,L|176:192,3,75,8|0|0|0,0:1|0:0|0:0|0:0,0:0:0:0:
320,192,59425,2,0,L|400:192,1,75
230,192,59786,2,0,L|150:192,1,75
395,192,60147,1,8,0:1:0:0:
248,192,60509,2,0,L|352:192,1,75,2|0,0:0|0:0,0:0:0:0:
80,192,60870,5,8,0:3:0:0:
224,192,61232,1,0,0:0:0:0:
186,192,61322,1,0,0:0:0:0:
149,192,61412,1,0,0:0:0:0:
320,192,61593,2,0,L|408:192,1,75,8|0,0:1|0:0,0:0:0:0:
224,192,61955,2,0,L|168:136,1,75
336,192,62316,2,0,L|416:192,2,75
256,192,62858,1,0,0:0:0:0:
496,192,63039,1,8,0:1:0:0:
352,192,63401,2,0,L|432:192,1,75
184,192,63762,6,0,P|96:160|80:104,1,150,8|0,0:3|0:0,0:0:0:0:
168,192,64304,1,0,0:0:0:0:
336,192,64485,2,0,L|416:192,3,75,8|0|0|0,0:1|0:0|0:0|0:0,0:0:0:0:
240,192,65208,2,0,L|160:192,1,75
240,192,65569,2,0,L|320:192,1,75
72,192,65931,1,8,0:1:0:0:
320,192,66292,2,0,L|224:192,1,75,2|0,0:0|0:0,0:0:0:0:
488,192,66654,5,8,0:3:0:0:
245,192,67015,2,0,L|205:192,2,37.5
413,192,67376,2,0,L|493:192,1,75,8|0,0:1|0:0,0:0:0:0:
320,192,67738,2,0,L|240:192,1,75
413,192,68099,1,0,0:0:0:0:
410,123,68279,1,0,0:0:0:0:
341,115,68460,1,0,0:0:0:0:
256,192,68641,1,0,0:0:0:0:
112,192,68822,1,8,0:1:0:0:
248,192,69003,1,0,0:0:0:0:
96,192,69184,1,0,0:0:0:0:
272,192,69364,1,0,0:0:0:0:
32,192,69534,5,4,0:0:0:0:
288,192,69891,1,0,0:0:0:0:
32,192,70248,2,0,L|106:192,1,75
107,192,70605,2,0,L|33:192,1,75
200,192,70962,2,0,L|274:192,1,75
200,192,71319,2,0,L|120:192,1,75
368,192,71676,1,0,0:0:0:0:
216,192,72034,2,0,L|216:112,1,75
384,192,72391,5,8,0:3:0:0:
232,192,72752,2,0,L|232:112,1,75
400,192,73113,2,0,L|480:192,2,75
144,192,73836,2,0,P|120:120|176:96,1,150
256,192,74378,1,0,0:0:0:0:
16,192,74559,1,0,0:0:0:0:
176,192,74921,2,0,L|272:192,1,75
16,192,75282,6,0,P|48:120|128:104,1,150,8|0,0:3|0:0,0:0:0:0:
192,192,75830,1,0,0:0:0:0:
360,192,76013,2,0,L|440:192,1,75
360,192,76379,2,0,L|285:192,1,75
120,192,76745,2,0,L|40:192,1,75
45,192,77111,2,0,L|120:192,1,75
360,192,77477,1,0,0:0:0:0:
195,192,77842,2,0,L|115:192,1,75
360,192,78208,5,8,0:3:0:0:
200,192,78569,2,0,L|288:192,1,75
448,192,78930,2,0,L|352:192,1,75
296,192,79292,2,0,L|200:192,1,75
416,192,79653,2,0,P|472:152|416:120,1,150
336,192,80195,1,0,0:0:0:0:
96,192,80376,2,0,L|16:192,2,75,2|0|0,0:0|0:0|0:0,0:0:0:0:
256,192,80918,1,0,0:0:0:0:
21,192,81099,5,4,0:0:0:0:
