osu file format v14

[General]
AudioFilename: audio.mp3
AudioLeadIn: 0
PreviewTime: 67869
Countdown: 0
SampleSet: Soft
StackLeniency: 0.5
Mode: 0
LetterboxInBreaks: 0
WidescreenStoryboard: 0

[Editor]
DistanceSpacing: 2
BeatDivisor: 4
GridSize: 4
TimelineZoom: 1

[Metadata]
Title:walk away as the door slams w/ lil tracy (prod. yung cortex)
TitleUnicode:walk away as the door slams w/ lil tracy (prod. yung cortex)
Artist:lil peep
ArtistUnicode:lil peep
Creator:- titan
Version:hellboy
Source:
Tags:hellboy rap hip hop hiphop gothboiclique gbc yung bruh emo goth yung cortex
BeatmapID:1676173
BeatmapSetID:798171

[Difficulty]
HPDrainRate:7
CircleSize:3
OverallDifficulty:7
ApproachRate:8
SliderMultiplier:1.6
SliderTickRate:1

[Events]
//Background and Video events
0,0,"slamm.jpg",0,0
//Break Periods
2,57402,67119
//Storyboard Layer 0 (Background)
//Storyboard Layer 1 (Fail)
//Storyboard Layer 2 (Pass)
//Storyboard Layer 3 (Foreground)
//Storyboard Sound Samples

[TimingPoints]
14536,444.444444444444,4,2,0,70,1,0
42980,-100,4,2,0,80,0,1
54535,-100,4,2,0,40,0,0
57202,-100,4,2,0,70,0,0
67869,-100,4,2,0,20,0,0
70535,-100,4,2,0,70,0,0
71424,-100,4,2,0,80,0,1
83869,-100,4,2,0,40,0,0
85647,-100,4,2,0,80,0,1
90535,-100,4,2,0,40,0,0
92758,-100,4,2,0,80,0,1
98313,-100,4,2,0,80,0,0
99869,-166.666666666667,4,2,0,60,0,0
114091,-100,4,2,0,80,0,1
125424,-100,4,2,0,80,0,0
128313,-166.666666666667,4,2,0,60,0,0
142535,-250.000000000001,4,2,0,40,0,0

[Colours]
Combo1 : 211,211,150
Combo2 : 181,150,211

[HitObjects]
152,360,28758,6,0,P|136:280|180:212,1,160,4|0,1:2|0:0,0:0:0:0:
228,128,29424,1,0,0:0:0:0:
164,44,29647,2,0,P|122:45|80:40,1,80,8|0,0:0|0:0,0:0:0:0:
12,116,30091,2,0,B|-8:224|36:160|16:280,1,160
108,328,30758,5,8,0:0:0:0:
172,248,30980,2,0,L|252:252,1,80,0|0,1:0|0:0,0:0:0:0:
316,168,31424,2,0,P|304:92|356:20,1,160,8|0,0:0|0:0,0:0:0:0:
404,112,32091,1,0,0:0:0:0:
404,216,32313,6,0,B|384:324|428:260|408:380,1,160,0|0,1:0|0:0,0:0:0:0:
316,328,32980,1,0,1:0:0:0:
220,368,33202,2,0,P|144:380|72:328,1,160,8|0,0:0|0:0,0:0:0:0:
124,144,34091,5,0,0:0:0:0:
32,100,34313,2,0,P|28:136|28:184,1,80,0|0,1:0|1:0,0:0:0:0:
196,300,34980,2,0,L|276:296,1,80,8|0,0:0|0:0,0:0:0:0:
364,244,35424,1,0,1:0:0:0:
420,156,35647,1,8,1:2:0:0:
364,68,35869,6,0,P|431:107|508:90,1,160,0|0,1:0|0:0,0:0:0:0:
420,156,36535,1,0,0:0:0:0:
336,216,36758,2,0,P|294:215|252:220,1,80,8|0,0:0|0:0,0:0:0:0:
160,180,37202,2,0,B|140:288|184:224|164:344,1,160
68,300,37869,5,8,0:0:0:0:
4,216,38091,2,0,L|8:136,1,80,0|0,1:0|0:0,0:0:0:0:
92,76,38535,2,0,P|157:119|234:107,1,160,8|0,0:0|0:0,0:0:0:0:
328,64,39202,1,0,0:0:0:0:
392,144,39424,6,0,B|372:252|416:188|396:308,1,160,0|0,1:0|0:0,0:0:0:0:
300,260,40091,2,0,L|220:264,1,80,0|8,1:0|0:0,0:0:0:0:
220,263,41424,5,0,1:0:0:0:
172,280,41535,1,0,1:0:0:0:
136,316,41646,2,0,L|56:320,1,80,0|0,1:0|0:0,0:0:0:0:
0,232,42091,2,0,P|-12:156|40:84,1,160,8|0,0:0|0:0,0:0:0:0:
232,28,42980,5,4,1:2:0:0:
276,56,43091,1,0,0:0:0:0:
328,60,43202,1,0,0:0:0:0:
376,44,43313,1,0,0:0:0:0:
428,32,43424,1,0,0:0:0:0:
476,52,43535,1,0,0:0:0:0:
496,100,43647,1,0,0:0:0:0:
476,148,43758,1,0,0:0:0:0:
428,172,43869,5,8,0:0:0:0:
384,196,43980,1,0,0:0:0:0:
360,244,44091,1,0,0:0:0:0:
276,308,44313,2,0,L|196:304,1,80
136,220,44758,5,0,0:0:0:0:
132,168,44869,1,0,0:0:0:0:
128,116,44980,2,0,P|88:116|44:112,1,80,8|0,0:0|1:0,0:0:0:0:
88,16,45424,1,0,0:0:0:0:
192,36,45647,5,8,0:0:0:0:
244,24,45758,1,0,0:0:0:0:
292,44,45869,1,0,0:0:0:0:
320,88,45980,1,0,0:0:0:0:
312,140,46091,1,0,0:0:0:0:
332,188,46202,1,0,0:0:0:0:
376,216,46313,1,8,0:0:0:0:
428,220,46424,1,8,0:0:0:0:
476,196,46535,5,0,1:0:0:0:
468,248,46647,1,0,0:0:0:0:
444,296,46758,1,8,0:0:0:0:
400,320,46869,1,0,0:0:0:0:
348,308,46980,1,0,0:0:0:0:
296,320,47091,1,0,0:0:0:0:
256,352,47202,1,0,1:0:0:0:
160,316,47424,6,0,P|84:328|12:276,1,160,8|0,0:0|0:0,0:0:0:0:
104,228,48091,1,0,0:0:0:0:
132,184,48202,1,0,0:0:0:0:
148,136,48313,1,0,0:0:0:0:
104,36,48535,5,0,1:2:0:0:
156,28,48647,1,0,0:0:0:0:
204,44,48758,1,0,1:0:0:0:
244,80,48869,1,0,0:0:0:0:
284,48,48980,1,0,0:0:0:0:
348,132,49202,2,0,B|464:160|392:112|512:132,1,160,8|0,0:0|1:0,0:0:0:0:
472,228,49869,1,8,1:2:0:0:
468,280,49980,1,8,0:0:0:0:
464,332,50091,5,4,1:2:0:0:
420,308,50202,1,0,0:0:0:0:
368,304,50313,1,0,0:0:0:0:
316,312,50424,1,0,0:0:0:0:
264,328,50535,1,0,0:0:0:0:
212,320,50647,1,0,0:0:0:0:
172,288,50758,1,0,0:0:0:0:
156,240,50869,1,0,0:0:0:0:
176,192,50980,5,8,0:0:0:0:
132,168,51091,1,0,0:0:0:0:
124,116,51202,1,0,0:0:0:0:
160,76,51313,1,0,0:0:0:0:
212,68,51424,1,0,0:0:0:0:
260,84,51535,1,0,0:0:0:0:
312,80,51647,1,0,0:0:0:0:
356,56,51758,1,0,0:0:0:0:
380,8,51869,5,0,0:0:0:0:
396,56,51980,1,0,0:0:0:0:
428,96,52091,1,8,0:0:0:0:
468,132,52202,1,0,0:0:0:0:
484,180,52313,1,0,1:0:0:0:
472,232,52424,1,0,0:0:0:0:
436,268,52535,1,0,0:0:0:0:
384,272,52647,1,0,0:0:0:0:
348,236,52758,5,8,0:0:0:0:
328,284,52869,1,0,0:0:0:0:
284,312,52980,1,0,0:0:0:0:
232,300,53091,1,0,0:0:0:0:
204,256,53202,1,0,0:0:0:0:
208,204,53313,1,0,0:0:0:0:
228,156,53424,1,8,0:0:0:0:
208,108,53535,1,8,0:0:0:0:
164,80,53647,5,0,1:0:0:0:
216,68,53758,1,0,0:0:0:0:
260,36,53869,1,0,0:0:0:0:
308,16,53980,1,0,0:0:0:0:
360,20,54091,1,0,0:0:0:0:
400,52,54202,1,0,0:0:0:0:
416,100,54313,1,8,1:2:0:0:
396,148,54424,1,8,0:0:0:0:
348,168,54535,5,8,0:0:0:0:
348,168,57202,5,4,1:2:0:0:
256,192,67869,12,8,70535,0:0:0:0:
64,248,71202,5,0,0:0:0:0:
136,320,71424,6,0,P|176:316|216:316,1,80,4|0,1:2|0:0,0:0:0:0:
304,260,71869,2,0,P|344:264|384:264,1,80
448,180,72313,2,0,B|472:80|420:124|444:16,1,160,8|0,0:0|0:0,0:0:0:0:
236,32,73202,5,0,0:0:0:0:
256,132,73424,1,8,0:0:0:0:
192,216,73647,2,0,L|196:304,1,80,0|0,1:0|0:0,0:0:0:0:
284,348,74091,2,0,P|336:292|432:304,1,160,8|0,0:0|0:0,0:0:0:0:
468,92,74980,5,0,1:0:0:0:
364,108,75202,1,0,0:0:0:0:
284,44,75424,1,0,0:0:0:0:
180,60,75646,1,0,1:0:0:0:
140,156,75869,2,0,B|160:208|160:208|152:256|112:308,1,160,8|0,0:0|0:0,0:0:0:0:
20,260,76535,5,0,0:0:0:0:
36,156,76758,1,0,0:0:0:0:
4,56,76980,1,0,1:0:0:0:
108,72,77202,2,0,L|188:68,1,80,0|0,1:0|0:0,0:0:0:0:
288,44,77647,2,0,P|292:124|320:212,1,160,8|0,0:0|1:0,0:0:0:0:
404,256,78313,1,8,1:2:0:0:
368,352,78535,6,0,P|328:352|284:356,1,80,4|0,1:2|0:0,0:0:0:0:
196,304,78980,2,0,P|156:304|112:300,1,80
52,220,79424,2,0,B|32:168|32:168|40:120|80:68,1,160,8|0,0:0|0:0,0:0:0:0:
276,20,80313,5,0,0:0:0:0:
328,112,80535,1,8,0:0:0:0:
424,76,80758,2,0,L|504:80,1,80,0|0,1:0|0:0,0:0:0:0:
460,176,81202,2,0,B|436:276|488:232|464:340,1,160,8|0,0:0|0:0,0:0:0:0:
364,300,81869,1,0,0:0:0:0:
268,336,82091,6,0,P|228:336|184:340,1,80,0|0,1:0|0:0,0:0:0:0:
108,276,82536,2,0,P|108:236|104:192,1,80,0|0,0:0|1:0,0:0:0:0:
20,136,82980,2,0,B|72:156|72:156|120:148|172:108,1,160,8|0,0:0|0:0,0:0:0:0:
372,80,83869,5,0,0:0:0:0:
372,80,85647,5,4,1:2:0:0:
384,132,85758,1,0,0:0:0:0:
364,180,85869,1,0,0:0:0:0:
320,212,85980,1,0,0:0:0:0:
272,192,86091,1,0,0:0:0:0:
220,192,86202,1,0,0:0:0:0:
172,208,86313,1,0,0:0:0:0:
140,248,86424,1,0,0:0:0:0:
136,300,86535,6,0,B|176:304|176:304|216:296|216:296|248:308|296:304,1,160,8|0,0:0|0:0,0:0:0:0:
384,252,87202,1,0,0:0:0:0:
388,200,87313,1,0,0:0:0:0:
392,148,87424,6,0,P|352:144|312:144,1,80,0|8,0:0|0:0,0:0:0:0:
220,192,87869,1,0,1:0:0:0:
168,104,88091,1,0,0:0:0:0:
260,52,88313,2,0,B|300:48|300:48|336:64|336:64|376:48|436:56,1,160,8|0,0:0|0:0,0:0:0:0:
472,140,88980,1,8,0:0:0:0:
468,192,89091,1,8,0:0:0:0:
464,244,89202,6,0,P|424:244|380:248,1,80,0|8,1:2|0:0,0:0:0:0:
304,312,89647,1,0,0:0:0:0:
204,284,89869,1,0,1:0:0:0:
116,336,90091,2,0,P|104:268|152:192,1,160,8|0,0:0|0:0,0:0:0:0:
149,193,92758,5,4,1:2:0:0:
188,228,92869,1,0,0:0:0:0:
240,236,92980,1,0,0:0:0:0:
292,228,93091,1,0,0:0:0:0:
336,204,93202,1,0,0:0:0:0:
372,168,93313,1,0,0:0:0:0:
392,120,93424,1,0,0:0:0:0:
348,92,93535,1,0,0:0:0:0:
328,140,93647,5,8,0:0:0:0:
372,168,93758,1,0,0:0:0:0:
400,212,93869,1,0,0:0:0:0:
412,264,93980,1,0,0:0:0:0:
400,316,94091,1,0,0:0:0:0:
360,348,94202,1,0,0:0:0:0:
308,340,94313,1,0,0:0:0:0:
284,296,94424,1,0,0:0:0:0:
296,244,94535,5,0,0:0:0:0:
244,256,94647,1,0,0:0:0:0:
200,228,94758,2,0,L|196:144,1,80,8|0,0:0|1:0,0:0:0:0:
256,64,95202,1,0,0:0:0:0:
356,40,95424,5,8,0:0:0:0:
408,44,95535,1,0,0:0:0:0:
460,32,95647,1,0,0:0:0:0:
504,4,95758,1,0,0:0:0:0:
484,52,95869,1,0,0:0:0:0:
484,104,95980,1,0,0:0:0:0:
492,156,96091,1,8,0:0:0:0:
468,204,96202,1,8,0:0:0:0:
424,228,96313,6,0,P|344:236|280:292,1,160,0|0,1:0|0:0,0:0:0:0:
196,344,96980,1,8,1:2:0:0:
144,340,97091,1,8,0:0:0:0:
92,336,97202,2,0,P|92:296|88:256,1,80,8|0,0:0|0:0,0:0:0:0:
36,168,97647,1,0,0:0:0:0:
76,72,97869,1,0,0:0:0:0:
180,52,98091,1,0,0:0:0:0:
256,124,98313,5,8,1:2:0:0:
352,84,98535,1,0,1:0:0:0:
352,84,99869,6,0,P|400:84|456:80,1,95.9999970703126,4|0,0:0|0:0,0:0:0:0:
384,188,100758,2,0,P|336:188|280:192,1,95.9999970703126
180,256,101647,5,0,0:0:0:0:
112,152,102091,2,0,P|42:109|26:189,1,191.999994140625,0|0,1:0|0:0,0:0:0:0:
112,280,103424,6,0,L|212:284,1,95.9999970703126,0|0,1:0|0:0,0:0:0:0:
256,324,104091,2,0,P|244:264|384:216,1,239.999992675781,0|0,1:0|0:0,0:0:0:0:
440,192,105424,5,0,1:0:0:0:
440,192,105647,1,0,1:0:0:0:
440,192,106980,6,0,P|392:192|336:188,1,95.9999970703126,4|0,0:0|0:0,0:0:0:0:
244,264,107869,2,0,P|196:264|140:268,1,95.9999970703126
96,232,108535,1,0,0:0:0:0:
96,232,108758,6,0,L|92:136,1,95.9999970703126,0|0,0:0|1:0,0:0:0:0:
180,48,109647,2,0,P|252:52|332:52,1,143.999995605469
372,92,110535,6,0,B|348:184|392:140|368:236,2,143.999995605469,0|0|0,1:0|1:0|0:0,0:0:0:0:
492,136,112313,5,0,0:0:0:0:
492,136,112535,1,0,1:0:0:0:
492,136,112758,1,0,1:0:0:0:
492,136,114091,5,4,1:2:0:0:
444,116,114202,1,0,0:0:0:0:
392,120,114313,1,0,0:0:0:0:
348,148,114424,1,0,0:0:0:0:
320,192,114535,1,0,0:0:0:0:
288,152,114647,1,0,0:0:0:0:
240,132,114758,1,0,0:0:0:0:
188,132,114869,1,0,0:0:0:0:
144,156,114980,5,8,0:0:0:0:
164,204,115091,1,0,0:0:0:0:
156,256,115202,1,0,0:0:0:0:
112,284,115313,1,0,0:0:0:0:
60,280,115424,1,0,0:0:0:0:
24,240,115535,1,0,0:0:0:0:
24,188,115647,1,0,0:0:0:0:
52,144,115758,1,0,0:0:0:0:
100,128,115869,5,0,0:0:0:0:
144,100,115980,1,0,0:0:0:0:
176,56,116091,1,8,0:0:0:0:
212,20,116202,1,0,0:0:0:0:
260,4,116313,1,0,1:0:0:0:
312,16,116424,1,0,0:0:0:0:
332,64,116535,1,0,0:0:0:0:
304,108,116647,1,0,0:0:0:0:
260,136,116758,5,8,0:0:0:0:
292,176,116869,1,0,0:0:0:0:
308,224,116980,1,0,0:0:0:0:
296,276,117091,1,0,0:0:0:0:
264,316,117202,1,0,0:0:0:0:
316,316,117313,1,0,0:0:0:0:
368,328,117424,1,8,0:0:0:0:
416,340,117535,1,8,0:0:0:0:
468,332,117647,5,0,1:0:0:0:
444,232,117869,1,8,0:0:0:0:
456,180,117980,1,0,0:0:0:0:
468,128,118091,1,0,0:0:0:0:
456,76,118202,1,0,0:0:0:0:
416,44,118313,1,0,1:0:0:0:
364,44,118424,1,0,0:0:0:0:
324,76,118535,5,8,0:0:0:0:
276,96,118647,1,0,0:0:0:0:
224,104,118758,1,0,0:0:0:0:
172,92,118869,1,0,0:0:0:0:
128,64,118980,1,0,0:0:0:0:
76,60,119091,1,0,0:0:0:0:
28,84,119202,1,0,0:0:0:0:
16,136,119313,1,0,0:0:0:0:
48,180,119424,5,0,0:0:0:0:
12,280,119647,1,0,1:0:0:0:
96,344,119869,2,0,L|176:348,1,80,0|0,1:0|0:0,0:0:0:0:
256,284,120313,2,0,P|232:208|284:128,1,160,8|0,0:0|1:0,0:0:0:0:
340,216,120980,1,8,1:2:0:0:
392,220,121091,1,8,0:0:0:0:
444,224,121202,5,4,1:2:0:0:
484,192,121313,1,0,0:0:0:0:
496,140,121424,1,0,0:0:0:0:
480,92,121535,1,0,0:0:0:0:
440,60,121647,1,0,0:0:0:0:
388,52,121758,1,0,0:0:0:0:
340,72,121869,1,0,0:0:0:0:
288,76,121980,1,0,0:0:0:0:
244,48,122091,5,8,0:0:0:0:
232,100,122202,1,0,0:0:0:0:
188,128,122313,1,0,0:0:0:0:
136,128,122424,1,0,0:0:0:0:
92,104,122535,1,0,0:0:0:0:
40,112,122647,1,0,0:0:0:0:
8,152,122758,1,0,0:0:0:0:
16,204,122869,1,0,0:0:0:0:
60,232,122980,5,0,0:0:0:0:
84,280,123091,1,0,0:0:0:0:
88,332,123202,1,8,0:0:0:0:
136,312,123313,1,0,0:0:0:0:
188,312,123424,1,0,1:0:0:0:
236,292,123535,1,0,0:0:0:0:
280,260,123647,1,0,0:0:0:0:
300,212,123758,1,0,0:0:0:0:
296,160,123869,5,8,0:0:0:0:
344,180,123980,1,0,0:0:0:0:
396,172,124091,1,0,0:0:0:0:
440,144,124202,1,0,0:0:0:0:
468,100,124313,1,0,0:0:0:0:
480,152,124424,1,0,0:0:0:0:
480,204,124535,1,8,0:0:0:0:
444,244,124647,1,8,0:0:0:0:
396,260,124758,6,0,B|344:260|296:288|296:288|264:348,1,160,0|0,1:0|0:0,0:0:0:0:
176,296,125424,1,8,1:2:0:0:
176,296,128313,6,0,P|128:296|80:292,1,95.9999970703126,4|0,0:0|0:0,0:0:0:0:
128,176,129202,2,0,P|175:172|223:172,1,95.9999970703126
300,272,130091,1,0,0:0:0:0:
396,192,130535,1,0,0:0:0:0:
476,288,130980,2,0,L|472:384,1,95.9999970703126
376,220,131869,6,0,P|352:140|424:64,1,191.999994140625
304,116,133202,1,0,0:0:0:0:
240,224,133647,2,0,P|192:224|144:220,1,95.9999970703126
192,336,134535,2,0,P|239:332|287:332,1,95.9999970703126
444,304,135424,6,0,B|480:176|412:252|444:112,1,191.999994140625
400,0,136758,1,0,0:0:0:0:
288,56,137202,2,0,L|192:52,1,95.9999970703126
92,124,138091,2,0,L|96:220,1,95.9999970703126
164,324,138980,5,0,0:0:0:0:
280,276,139424,2,0,P|352:292|424:280,1,143.999995605469
420,281,142535,6,0,P|368:340|332:148,1,448
436,80,146091,6,0,B|164:188|276:16|0:124,1,448
64,236,149647,6,0,B|72:292|36:340|36:340|140:304|260:312|376:368,1,448
444,260,153202,6,0,B|452:188|428:136|428:136|432:68|464:8|464:8|388:76|280:56,1,448
