osu file format v14

[General]
AudioFilename: audio.mp3
AudioLeadIn: 0
PreviewTime: -1
Countdown: 0
SampleSet: None
StackLeniency: 0.7
Mode: 0
LetterboxInBreaks: 0
WidescreenStoryboard: 0

[Editor]
DistanceSpacing: 1.4
BeatDivisor: 4
GridSize: 4
TimelineZoom: 1

[Metadata]
Title:absolute in doubt w/ wicca phase springs eternal
TitleUnicode:absolute in doubt w/ wicca phase springs eternal
Artist:lil peep
ArtistUnicode:lil peep
Creator:- titan
Version:hard
Source:
Tags:gothboiblique gbc crybaby rap hiphop
BeatmapID:1653165
BeatmapSetID:787682

[Difficulty]
HPDrainRate:5
CircleSize:3
OverallDifficulty:5
ApproachRate:7
SliderMultiplier:1.3
SliderTickRate:2

[Events]
//Background and Video events
//Break Periods
//Storyboard Layer 0 (Background)
//Storyboard Layer 1 (Fail)
//Storyboard Layer 2 (Pass)
//Storyboard Layer 3 (Foreground)
//Storyboard Sound Samples

[TimingPoints]
28010,434.782608695652,4,2,0,40,1,0
69749,-90.9090909090909,4,2,0,50,0,0

[HitObjects]
80,312,41705,5,0,1:0:0:0:
80,312,41923,2,0,P|144:308|216:308,1,130,0|0,1:0|0:0,0:0:0:0:
276,244,42575,1,0,0:0:0:0:
244,160,42792,6,0,P|240:128|240:96,1,65,8|0,0:0|0:0,0:0:0:0:
328,112,43227,2,0,P|332:144|331:176,2,65
380,36,43879,5,0,1:0:0:0:
380,36,44097,2,0,P|444:40|516:40,1,130,0|8,1:0|0:0,0:0:0:0:
440,100,44749,2,0,B|428:188|460:136|444:232,1,130,0|0,1:0|1:0,0:0:0:0:
360,268,45401,6,0,P|252:240|180:356,1,260,0|8,1:0|0:0,0:0:0:0:
92,380,46488,1,0,0:0:0:0:
44,304,46705,2,0,P|44:276|40:240,1,65
88,160,47140,5,0,0:0:0:0:
172,192,47357,1,0,1:0:0:0:
224,116,47575,2,0,L|288:112,1,65,0|0,1:0|0:0,0:0:0:0:
368,68,48010,1,8,0:0:0:0:
416,144,48227,2,0,B|404:232|436:180|420:276,1,130,0|0,1:0|1:0,0:0:0:0:
348,328,48879,6,0,P|288:312|212:320,1,130,0|0,1:0|0:0,0:0:0:0:
56,248,49749,2,0,P|32:160|152:200,1,260,8|0,0:0|0:0,0:0:0:0:
232,228,50836,5,0,1:0:0:0:
292,160,51053,2,0,P|292:96|296:28,1,130,0|8,1:0|0:0,0:0:0:0:
384,60,51705,2,0,P|387:124|387:189,1,130,0|0,1:0|1:0,0:0:0:0:
444,260,52357,6,0,P|384:244|308:252,1,130,0|0,1:0|0:0,0:0:0:0:
156,340,53227,2,0,P|68:364|108:244,1,260,8|0,0:0|0:0,0:0:0:0:
164,192,54314,5,0,1:0:0:0:
252,212,54531,2,0,P|316:212|384:208,1,130,0|8,1:0|0:0,0:0:0:0:
412,120,55183,2,0,P|348:117|283:117,1,130,0|0,1:0|1:0,0:0:0:0:
192,136,55836,6,0,P|136:108|108:48,1,130,0|0,1:0|0:0,0:0:0:0:
48,220,56705,2,0,B|12:248|-24:252|-24:252|24:260|56:284|56:284|48:332|76:376,1,260,2|0,0:0|0:0,0:0:0:0:
148,320,57792,5,0,1:0:0:0:
236,348,58009,2,0,P|300:352|372:352,1,130,0|10,1:0|0:0,0:0:0:0:
424,284,58661,2,0,B|412:196|444:248|428:152,1,130,0|0,1:0|1:0,0:0:0:0:
344,192,59314,6,0,L|208:188,1,130,0|0,1:0|0:0,0:0:0:0:
56,96,60183,2,0,P|56:68|60:32,1,65,10|0,0:0|0:0,0:0:0:0:
148,52,60618,2,0,P|151:84|152:116,1,65
88,180,61053,6,0,L|92:248,2,65,0|0|0,0:0|1:0|1:0,0:0:0:0:
256,112,61923,1,10,0:0:0:0:
344,140,62140,2,0,B|356:228|324:176|340:272,1,130,0|0,1:0|1:0,0:0:0:0:
420,308,62792,6,0,P|476:280|504:220,1,130,0|0,1:0|0:0,0:0:0:0:
384,84,63662,2,0,L|380:20,1,65,10|0,0:0|0:0,0:0:0:0:
288,20,64096,2,0,L|284:84,1,65
216,144,64531,1,0,0:0:0:0:
132,108,64749,5,0,1:0:0:0:
76,180,64966,2,0,P|79:247|80:312,1,130,0|8,1:0|0:0,0:0:0:0:
148,372,65618,2,0,B|236:384|184:352|280:368,1,130,0|0,1:0|1:0,0:0:0:0:
352,316,66270,6,0,L|356:216,1,97.5,0|0,1:0|0:0,0:0:0:0:
332,180,66705,2,0,P|300:180|268:176,1,65
308,92,67140,5,0,0:0:0:0:
396,116,67357,1,0,0:0:0:0:
476,72,67575,2,0,L|480:8,1,65
472,164,68009,5,0,0:0:0:0:
396,212,68227,1,0,1:0:0:0:
396,212,68336,1,0,1:0:0:0:
396,212,68444,2,0,P|360:212|328:216,1,65,0|0,1:0|0:0,0:0:0:0:
252,352,68879,6,0,L|256:288,1,65,8|0,0:0|1:0,0:0:0:0:
376,312,69314,5,8,0:0:0:0:
376,312,69531,1,8,0:0:0:0:
304,180,69749,6,0,P|304:148|308:108,1,71.5000021820069,4|0,1:0|0:0,0:0:0:0:
404,136,70183,2,0,P|407:171|407:207,1,71.5000021820069
332,272,70618,1,8,0:0:0:0:
232,256,70836,1,0,0:0:0:0:
156,320,71053,1,0,0:0:0:0:
56,304,71271,1,0,0:0:0:0:
124,200,71488,6,0,L|120:128,1,71.5000021820069,0|0,0:0|1:0,0:0:0:0:
192,60,71923,2,0,P|252:96|336:84,1,143.000004364014,0|8,1:0|0:0,0:0:0:0:
404,152,72575,2,0,B|428:192|428:192|432:240|396:280,1,143.000004364014,0|0,1:0|1:0,0:0:0:0:
