osu file format v14

[General]
AudioFilename: audio.mp3
AudioLeadIn: 0
PreviewTime: 15
Countdown: 0
SampleSet: Soft
StackLeniency: 0.7
Mode: 0
LetterboxInBreaks: 0
WidescreenStoryboard: 1

[Editor]
Bookmarks: 324,10119,19915,29741,39547,49303,59159
DistanceSpacing: 1.85
BeatDivisor: 4
GridSize: 16
TimelineZoom: 1

[Metadata]
Title:smile
TitleUnicode:smile
Artist:lieu
ArtistUnicode:lieu
Creator:Mimari
Version:hard
Source:
Tags:english folk acoustic guitar rab
BeatmapID:3325953
BeatmapSetID:1628529

[Difficulty]
HPDrainRate:3
CircleSize:4
OverallDifficulty:5
ApproachRate:6
SliderMultiplier:1.6
SliderTickRate:1

[Events]
//Background and Video events
0,0,"im going to # im just waiting for the right time.jpg",0,0
//Break Periods
//Storyboard Layer 0 (Background)
//Storyboard Layer 1 (Fail)
//Storyboard Layer 2 (Pass)
//Storyboard Layer 3 (Foreground)
//Storyboard Layer 4 (Overlay)
//Storyboard Sound Samples

[TimingPoints]
324,612.557427258806,4,2,2,40,1,0
848,-100,4,2,2,40,0,0
925,-100,4,2,2,40,0,0
3297,-100,4,2,2,40,0,0
3374,-100,4,2,2,40,0,0
5746,-100,4,2,2,40,0,0
5823,-100,4,2,2,40,0,0
7277,-100,4,2,2,40,0,0
7353,-100,4,2,2,40,0,0
8195,-100,4,2,2,40,0,0
8272,-100,4,2,2,40,0,0
10644,-100,4,2,2,40,0,0
10721,-100,4,2,2,40,0,0
13093,-100,4,2,2,40,0,0
13170,-100,4,2,2,40,0,0
14412,-100,4,2,2,55,0,0
14471,-100,4,2,2,55,0,0
14565,-100,4,2,2,40,0,0
15006,-100,4,2,2,40,0,0
15542,-100,4,2,2,40,0,0
15619,-100,4,2,2,40,0,0
17991,-100,4,2,2,40,0,0
18068,-100,4,2,2,40,0,0
20440,-100,4,2,2,40,0,0
20497,-100,4,2,2,40,0,0
21951,-100,4,2,2,40,0,0
22027,-100,4,2,2,40,0,0
22869,-100,4,2,2,40,0,0
22946,-100,4,2,2,40,0,0
25318,-100,4,2,2,40,0,0
25395,-100,4,2,2,40,0,0
26696,-100,4,2,2,40,0,0
27231,-100,4,2,2,40,0,0
27767,-100,4,2,2,40,0,0
27844,-100,4,2,2,40,0,0
30247,-100,4,2,2,40,0,0
30323,-100,4,2,2,40,0,0
32698,-100,4,2,2,40,0,0
32775,-100,4,2,2,40,0,0
34014,-100,4,2,2,55,0,0
34077,-100,4,2,2,55,0,0
34167,-100,4,2,2,40,0,0
34613,-100,4,2,2,40,0,0
35149,-100,4,2,2,40,0,0
35226,-100,4,2,2,40,0,0
37601,-100,4,2,2,40,0,0
37690,-100,4,2,2,40,0,0
38978,-100,4,2,2,40,0,0
39514,-100,4,2,2,40,0,0
40050,-100,4,2,2,40,0,0
40127,-100,4,2,2,40,0,0
42502,-100,4,2,2,40,0,0
42579,-100,4,2,2,40,0,0
44034,-100,4,2,2,40,0,0
44111,-100,4,2,2,40,0,0
44953,-100,4,2,2,40,0,0
45030,-100,4,2,2,40,0,0
46332,-100,4,2,2,40,0,0
46869,-100,4,2,2,40,0,0
47405,-100,4,2,2,40,0,0
47482,-100,4,2,2,40,0,0
49856,-100,4,2,2,40,0,0
49933,-100,4,2,2,40,0,0
52308,-100,4,2,2,40,0,0
52384,-100,4,2,2,40,0,0
53616,-100,4,2,2,55,0,0
53687,-100,4,2,2,55,0,0
53769,-100,4,2,2,40,0,0
54223,-100,4,2,2,40,0,0
54759,-100,4,2,2,40,0,0
54836,-100,4,2,2,40,0,0
57211,-100,4,2,2,40,0,0
57287,-100,4,2,2,40,0,0
59049,-100,4,2,2,40,0,0
59126,-100,4,2,2,40,0,0

[Colours]
Combo1 : 165,204,164
Combo2 : 204,217,236

[HitObjects]
426,360,324,6,0,L|434:225,1,120,2|0,3:0|0:0,0:0:0:0:
378,190,936,2,0,P|362:159|382:102,1,80,2|2,3:0|0:0,0:0:0:0:
420,62,1395,1,2,3:0:0:0:
285,10,1702,5,2,3:0:0:0:
285,10,1855,2,0,L|215:18,1,40,2|2,3:0|0:0,0:0:0:0:
216,82,2161,1,2,3:0:0:0:
0,210,2774,6,0,B|68:195|52:252|140:230,1,120,2|0,3:0|0:0,0:0:0:0:
152,297,3386,2,0,P|136:328|156:385,1,80,2|2,3:0|0:0,0:0:0:0:
218,375,3846,2,0,P|234:344|214:287,1,80,2|2,3:0|3:0,0:0:0:0:
192,235,4305,1,2,3:0:0:0:
336,266,4611,1,2,3:0:0:0:
512,110,5224,6,0,L|377:118,1,120,2|0,3:0|0:0,0:0:0:0:
339,168,5836,2,0,P|308:184|251:164,1,80,2|2,3:0|0:0,0:0:0:0:
211,126,6295,1,2,3:0:0:0:
114,239,6602,5,2,3:0:0:0:
114,239,6755,2,0,L|122:309,1,40,2|0,3:0|0:0,0:0:0:0:
171,329,7061,1,2,3:0:0:0:
30,376,7368,1,2,0:0:0:0:
2,230,7674,6,0,L|23:98,1,120,2|2,3:0|0:0,0:0:0:0:
64,50,8287,2,0,B|102:43|102:43|106:45|106:45|162:33,1,80,2|2,3:0|0:0,0:0:0:0:
211,61,8746,1,2,3:0:0:0:
166,204,9053,5,2,3:0:0:0:
166,204,9206,2,0,B|181:314,1,80,2|2,3:0|3:0,0:0:0:0:
469,324,10124,6,0,B|401:309|417:366|329:344,1,120,2|0,3:0|0:0,0:0:0:0:
315,286,10736,2,0,P|299:255|319:198,1,80,2|2,3:0|0:0,0:0:0:0:
361,162,11195,1,2,3:0:0:0:
492,91,11502,5,2,3:0:0:0:
492,91,11655,2,0,L|422:83,1,40,2|0,3:0|0:0,0:0:0:0:
423,19,11961,1,2,3:0:0:0:
255,120,12575,6,0,B|209:77|209:77|136:117,1,120,2|0,3:0|0:0,0:0:0:0:
103,153,13187,2,0,L|117:241,1,80,2|2,3:0|0:0,0:0:0:0:
186,253,13647,2,0,L|197:196,1,40,2|2,3:0|0:0,0:0:0:0:
268,198,13953,1,2,3:0:0:0:
268,198,14105,1,2,3:0:0:0:
287,344,14411,1,2,3:0:0:0:
58,362,15025,6,0,P|21:318|41:263,1,120,2|0,3:0|0:0,0:0:0:0:
79,201,15637,2,0,B|41:218|41:218|0:196,1,80,2|2,3:0|0:0,0:0:0:0:
10,124,16097,2,0,B|48:107|48:107|88:128,1,80,2|2,3:0|3:0,0:0:0:0:
144,164,16556,1,2,3:0:0:0:
180,21,16863,1,2,3:0:0:0:
372,125,17475,6,0,L|351:257,1,120,2|2,3:0|0:0,0:0:0:0:
310,305,18087,2,0,B|272:312|272:312|268:310|268:310|212:322,1,80,2|2,3:0|0:0,0:0:0:0:
163,294,18547,1,2,3:0:0:0:
208,151,18853,5,2,3:0:0:0:
208,151,19007,2,0,B|193:41,1,80,2|2,3:0|3:0,0:0:0:0:
400,7,19925,6,0,B|366:29|366:29|391:126,1,120,2|0,3:0|0:0,0:0:0:0:
445,149,20538,2,0,P|454:182|424:234,1,80,2|2,3:0|0:0,0:0:0:0:
379,267,20997,1,2,3:0:0:0:
280,378,21304,5,2,3:0:0:0:
280,378,21457,2,0,L|210:370,1,40,2|2,3:0|0:0,0:0:0:0:
167,360,21763,1,2,3:0:0:0:
0,206,22375,6,0,B|68:191|52:248|140:226,1,120,2|2,3:0|0:0,0:0:0:0:
174,188,22987,2,0,L|184:108,1,80,2|2,3:0|0:0,0:0:0:0:
232,51,23448,1,2,3:0:0:0:
95,7,23754,1,2,3:0:0:0:
95,7,23906,1,2,3:0:0:0:
2,116,24212,1,2,3:0:0:0:
61,305,24825,6,0,B|114:274|114:274|180:297,1,120,2|0,3:0|0:0,0:0:0:0:
215,351,25438,1,2,3:0:0:0:
323,249,25745,2,0,L|380:257,1,40,2|2,0:0|3:0,0:0:0:0:
416,204,26051,2,0,L|438:240,1,40,2|2,0:0|3:0,0:0:0:0:
498,278,26357,1,2,3:0:0:0:
379,365,26662,1,2,3:0:0:0:
236,211,27276,6,0,P|230:158|243:86,1,120,2|2,3:0|0:0,0:0:0:0:
285,33,27888,2,0,B|323:40|323:40|327:38|327:38|383:50,1,80,2|2,3:0|0:0,0:0:0:0:
410,102,28347,1,2,3:0:0:0:
497,227,28654,5,2,3:0:0:0:
497,227,28807,2,0,B|387:242,1,80,2|2,3:0|3:0,0:0:0:0:
236,337,29726,6,0,B|168:322|184:379|96:357,1,120,2|0,3:0|0:0,0:0:0:0:
59,321,30339,2,0,P|43:290|63:233,1,80,2|2,3:0|0:0,0:0:0:0:
105,197,30798,1,2,3:0:0:0:
17,83,31105,5,2,3:0:0:0:
17,83,31258,2,0,L|87:75,1,40,2|0,3:0|0:0,0:0:0:0:
86,13,31564,1,2,3:0:0:0:
262,80,32176,6,0,B|254:137|254:137|257:142|257:142|247:222,1,120,2|0,3:0|0:0,0:0:0:0:
221,267,32789,2,0,B|184:274|184:274|180:272|180:272|142:279,1,80,2|2,3:0|0:0,0:0:0:0:
86,327,33248,1,2,3:0:0:0:
228,382,33555,1,2,3:0:0:0:
228,382,33708,1,2,3:0:0:0:
350,298,34014,1,2,3:0:0:0:
494,151,34627,6,0,L|362:131,1,120,2|0,3:0|0:0,0:0:0:0:
313,172,35239,2,0,B|275:155|275:155|234:176,2,80,2|2|2,3:0|0:0|0:0,0:0:0:0:
364,234,36005,1,2,3:0:0:0:
364,234,36158,1,2,3:0:0:0:
228,294,36464,1,2,3:0:0:0:
47,201,37077,6,0,L|26:69,1,120,2|2,3:0|0:0,0:0:0:0:
78,28,37690,2,0,B|114:35|114:35|118:33|118:33|156:40,1,80,2|0,3:0|0:0,0:0:0:0:
201,98,38149,1,2,3:0:0:0:
139,234,38455,5,2,3:0:0:0:
139,234,38608,2,0,B|154:344,1,80,2|2,3:0|3:0,0:0:0:0:
380,365,39527,6,0,P|407:312|362:246,1,120,2|0,3:0|0:0,0:0:0:0:
332,207,40140,2,0,L|343:121,1,80,2|0,3:0|0:0,0:0:0:0:
397,78,40599,1,2,3:0:0:0:
271,8,40905,5,2,3:0:0:0:
271,8,41059,2,0,L|201:16,1,40,2|2,3:0|0:0,0:0:0:0:
202,80,41365,1,2,3:0:0:0:
0,4,41977,6,0,L|23:154,1,120,2|0,3:0|0:0,0:0:0:0:
72,172,42590,2,0,L|56:263,1,80,2|2,3:0|0:0,0:0:0:0:
101,311,43049,2,0,P|147:311|178:269,1,80,2|2,3:0|3:0,0:0:0:0:
190,218,43509,1,2,3:0:0:0:
325,277,43815,1,2,3:0:0:0:
271,63,44428,6,0,L|287:195,1,120,2|0,3:0|0:0,0:0:0:0:
356,201,45040,2,0,B|394:189|394:189|439:216,1,80,2|2,3:0|0:0,0:0:0:0:
494,177,45500,1,2,3:0:0:0:
467,35,45806,5,2,3:0:0:0:
467,35,45958,2,0,L|371:21,1,80,2|2,3:0|3:0,0:0:0:0:
254,89,46572,1,2,0:0:0:0:
123,20,46877,6,0,P|89:73|114:134,1,120,2|0,3:0|0:0,0:0:0:0:
99,198,47490,2,0,B|137:191|137:191|141:193|141:193|197:181,1,80,2|2,3:0|0:0,0:0:0:0:
245,212,47949,1,2,3:0:0:0:
362,310,48256,5,2,3:0:0:0:
362,310,48409,2,0,B|377:200,1,80,2|2,3:0|3:0,0:0:0:0:
208,327,49328,6,0,B|140:312|156:369|68:347,1,120,2|0,3:0|0:0,0:0:0:0:
36,304,49941,2,0,B|17:266|17:266|40:216,1,80,2|2,3:0|0:0,0:0:0:0:
90,186,50400,1,2,3:0:0:0:
215,105,50706,5,2,3:0:0:0:
215,105,50859,2,0,L|207:35,1,40,2|0,3:0|0:0,0:0:0:0:
151,20,51166,1,2,3:0:0:0:
203,191,51778,6,0,P|280:202|334:232,1,120,2|0,3:0|0:0,0:0:0:0:
371,271,52391,2,0,L|385:361,1,80,2|2,3:0|0:0,0:0:0:0:
455,366,52850,2,0,L|466:309,1,40,2|0,3:0|0:0,0:0:0:0:
506,268,53157,1,2,3:0:0:0:
506,268,53310,1,2,3:0:0:0:
428,142,53616,1,2,3:0:0:0:
285,256,54229,6,0,B|245:283|245:283|162:254,1,120,2|0,3:0|0:0,0:0:0:0:
106,279,54841,2,0,L|93:189,1,80,2|2,3:0|0:0,0:0:0:0:
141,140,55301,1,2,3:0:0:0:
64,19,55607,1,2,3:0:0:0:
64,19,55760,1,2,3:0:0:0:
6,154,56066,1,2,3:0:0:0:
180,38,56679,6,0,L|312:59,1,120,2|0,3:0|0:0,0:0:0:0:
347,113,57291,2,0,P|325:142|328:205,1,80,2|2,3:0|0:0,0:0:0:0:
362,244,57751,1,2,3:0:0:0:
263,354,58057,5,2,3:0:0:0:
263,354,58210,2,0,B|248:244,1,80,2|2,3:0|3:0,0:0:0:0:
216,14,59129,5,2,3:0:0:0:
