osu file format v14

[General]
AudioFilename: audio.mp3
AudioLeadIn: 0
PreviewTime: 25
Countdown: 0
SampleSet: Normal
StackLeniency: 0
Mode: 1
LetterboxInBreaks: 0
WidescreenStoryboard: 0

[Editor]
DistanceSpacing: 1.25
BeatDivisor: 4
GridSize: 32
TimelineZoom: 1.9

[Metadata]
Title:smile
TitleUnicode:smile
Artist:lieu
ArtistUnicode:lieu
Creator:Froskya
Version:muzukashii
Source:
Tags::) =) guitar strumming acoustic male vocal vocalist english folk mumble rap lo-fi lofi lo fi rab revialink
BeatmapID:3474205
BeatmapSetID:1700300

[Difficulty]
HPDrainRate:7
CircleSize:2
OverallDifficulty:5
ApproachRate:10
SliderMultiplier:2.4
SliderTickRate:1

[Events]
//Background and Video events
0,0,"we.jpg",0,0
//Break Periods
//Storyboard Layer 0 (Background)
//Storyboard Layer 1 (Fail)
//Storyboard Layer 2 (Pass)
//Storyboard Layer 3 (Foreground)
//Storyboard Layer 4 (Overlay)
//Storyboard Sound Samples

[TimingPoints]
332,612.401122735392,4,1,0,55,1,0
14417,-100,4,1,0,70,0,0
14570,-100,4,1,0,55,0,0
34014,-100,4,1,0,70,0,0
34167,-100,4,1,0,55,0,0
53610,-100,4,1,0,70,0,0
53763,-100,4,1,0,55,0,0

[HitObjects]
256,192,332,5,0,0:0:0:0:
256,192,944,5,8,0:0:0:0:
256,192,1403,1,0,0:0:0:0:
256,192,1556,1,8,0:0:0:0:
256,192,1709,1,8,0:0:0:0:
256,192,1863,1,0,0:0:0:0:
256,192,2169,1,8,0:0:0:0:
256,192,2475,1,8,0:0:0:0:
256,192,2628,1,8,0:0:0:0:
256,192,2781,1,0,0:0:0:0:
256,192,3394,5,8,0:0:0:0:
256,192,3700,1,0,0:0:0:0:
256,192,4006,1,8,0:0:0:0:
256,192,4159,1,8,0:0:0:0:
256,192,4312,1,8,0:0:0:0:
256,192,4618,1,0,0:0:0:0:
256,192,5231,5,0,0:0:0:0:
256,192,5843,5,8,0:0:0:0:
256,192,6149,1,0,0:0:0:0:
256,192,6302,1,8,0:0:0:0:
256,192,6456,1,8,0:0:0:0:
256,192,6762,1,0,0:0:0:0:
256,192,7068,1,8,0:0:0:0:
256,192,7374,1,0,0:0:0:0:
256,192,7680,1,8,0:0:0:0:
256,192,7987,1,8,0:0:0:0:
256,192,8140,1,8,0:0:0:0:
256,192,8293,1,0,0:0:0:0:
256,192,8599,1,0,0:0:0:0:
256,192,8905,1,8,0:0:0:0:
256,192,9058,1,0,0:0:0:0:
256,192,9211,1,0,0:0:0:0:
256,192,9518,1,8,0:0:0:0:
256,192,10130,5,0,0:0:0:0:
256,192,10742,5,8,0:0:0:0:
256,192,11049,1,8,0:0:0:0:
256,192,11202,1,8,0:0:0:0:
256,192,11355,1,0,0:0:0:0:
256,192,11508,1,8,0:0:0:0:
256,192,11814,1,8,0:0:0:0:
256,192,11967,1,0,0:0:0:0:
256,192,12273,1,8,0:0:0:0:
256,192,12580,1,0,0:0:0:0:
256,192,13192,5,8,0:0:0:0:
256,192,13498,1,0,0:0:0:0:
256,192,13651,1,0,0:0:0:0:
256,192,13804,1,8,0:0:0:0:
256,192,13957,1,8,0:0:0:0:
256,192,14264,1,8,0:0:0:0:
256,192,14417,1,0,0:0:0:0:
256,192,14723,1,8,0:0:0:0:
256,192,15029,1,0,0:0:0:0:
256,192,15642,5,8,0:0:0:0:
256,192,15948,1,0,0:0:0:0:
256,192,16254,1,8,0:0:0:0:
256,192,16407,1,8,0:0:0:0:
256,192,16560,1,0,0:0:0:0:
256,192,16866,1,8,0:0:0:0:
256,192,17173,1,0,0:0:0:0:
256,192,17479,1,8,0:0:0:0:
256,192,17785,1,0,0:0:0:0:
256,192,17938,1,0,0:0:0:0:
256,192,18091,1,8,0:0:0:0:
256,192,18397,1,0,0:0:0:0:
256,192,18550,1,0,0:0:0:0:
256,192,18704,1,8,0:0:0:0:
256,192,18857,1,8,0:0:0:0:
256,192,19010,1,0,0:0:0:0:
256,192,19316,1,8,0:0:0:0:
256,192,19928,5,0,0:0:0:0:
256,192,20541,5,8,0:0:0:0:
256,192,20847,1,8,0:0:0:0:
256,192,21153,1,8,0:0:0:0:
256,192,21306,1,0,0:0:0:0:
256,192,21459,1,8,0:0:0:0:
256,192,21766,1,0,0:0:0:0:
256,192,22072,1,8,0:0:0:0:
256,192,22378,1,0,0:0:0:0:
256,192,22684,1,0,0:0:0:0:
256,192,22837,1,0,0:0:0:0:
256,192,22990,1,8,0:0:0:0:
256,192,23297,1,0,0:0:0:0:
256,192,23603,1,8,0:0:0:0:
256,192,23909,1,8,0:0:0:0:
256,192,24062,1,8,0:0:0:0:
256,192,24215,1,0,0:0:0:0:
256,192,24521,1,8,0:0:0:0:
256,192,24828,1,0,0:0:0:0:
256,192,25440,5,8,0:0:0:0:
256,192,25746,1,0,0:0:0:0:
256,192,25899,1,0,0:0:0:0:
256,192,26052,1,8,0:0:0:0:
256,192,26359,1,8,0:0:0:0:
256,192,26512,1,8,0:0:0:0:
256,192,26665,1,0,0:0:0:0:
256,192,27277,5,8,0:0:0:0:
256,192,27583,1,0,0:0:0:0:
256,192,27736,1,0,0:0:0:0:
256,192,27890,1,8,0:0:0:0:
256,192,28196,1,0,0:0:0:0:
256,192,28349,1,0,0:0:0:0:
256,192,28502,1,8,0:0:0:0:
256,192,28655,1,8,0:0:0:0:
256,192,28808,1,0,0:0:0:0:
256,192,29114,1,8,0:0:0:0:
256,192,29727,5,0,0:0:0:0:
256,192,30339,5,8,0:0:0:0:
256,192,30645,1,8,0:0:0:0:
256,192,30798,1,0,0:0:0:0:
256,192,31105,1,0,0:0:0:0:
256,192,31258,1,8,0:0:0:0:
256,192,31564,1,0,0:0:0:0:
256,192,32176,5,8,0:0:0:0:
256,192,32483,1,8,0:0:0:0:
256,192,32789,1,0,0:0:0:0:
256,192,33248,1,8,0:0:0:0:
256,192,33554,1,8,0:0:0:0:
256,192,33707,1,0,0:0:0:0:
256,192,34014,1,0,0:0:0:0:
256,192,34626,5,0,0:0:0:0:
256,192,34932,1,8,0:0:0:0:
256,192,35238,1,8,0:0:0:0:
256,192,35698,1,0,0:0:0:0:
256,192,35851,1,8,0:0:0:0:
256,192,36004,1,8,0:0:0:0:
256,192,36157,1,0,0:0:0:0:
256,192,36463,1,8,0:0:0:0:
256,192,36769,1,0,0:0:0:0:
256,192,37076,1,8,0:0:0:0:
256,192,37229,1,0,0:0:0:0:
256,192,37535,1,8,0:0:0:0:
256,192,37841,1,0,0:0:0:0:
256,192,38147,1,8,0:0:0:0:
256,192,38453,1,8,0:0:0:0:
256,192,38760,1,8,0:0:0:0:
256,192,38913,1,0,0:0:0:0:
256,192,39066,1,8,0:0:0:0:
256,192,39372,1,8,0:0:0:0:
256,192,39525,1,0,0:0:0:0:
256,192,40138,5,8,0:0:0:0:
256,192,40750,5,8,0:0:0:0:
256,192,41056,1,8,0:0:0:0:
256,192,41209,1,8,0:0:0:0:
256,192,41362,1,0,0:0:0:0:
256,192,41669,1,8,0:0:0:0:
256,192,41975,1,0,0:0:0:0:
256,192,42281,1,0,0:0:0:0:
256,192,42587,1,8,0:0:0:0:
256,192,42893,1,8,0:0:0:0:
256,192,43812,5,0,0:0:0:0:
256,192,44118,1,0,0:0:0:0:
256,192,44424,1,8,0:0:0:0:
256,192,44731,1,8,0:0:0:0:
256,192,45037,1,0,0:0:0:0:
256,192,45343,1,8,0:0:0:0:
256,192,45496,1,0,0:0:0:0:
256,192,45802,1,0,0:0:0:0:
256,192,45955,1,8,0:0:0:0:
256,192,46262,1,8,0:0:0:0:
256,192,46874,5,8,0:0:0:0:
256,192,47180,1,0,0:0:0:0:
256,192,47486,1,8,0:0:0:0:
256,192,47793,1,8,0:0:0:0:
256,192,47946,1,0,0:0:0:0:
256,192,48252,1,0,0:0:0:0:
256,192,48405,1,8,0:0:0:0:
256,192,48711,1,8,0:0:0:0:
256,192,49324,5,8,0:0:0:0:
256,192,49630,1,0,0:0:0:0:
256,192,49936,1,8,0:0:0:0:
256,192,50242,1,0,0:0:0:0:
256,192,50395,1,8,0:0:0:0:
256,192,50701,1,8,0:0:0:0:
256,192,50855,1,0,0:0:0:0:
256,192,51161,1,0,0:0:0:0:
256,192,51467,1,8,0:0:0:0:
256,192,51773,1,0,0:0:0:0:
256,192,52079,1,0,0:0:0:0:
256,192,52386,1,8,0:0:0:0:
256,192,52692,1,8,0:0:0:0:
256,192,52845,1,0,0:0:0:0:
256,192,53151,1,0,0:0:0:0:
256,192,53304,1,8,0:0:0:0:
256,192,53610,1,0,0:0:0:0:
256,192,54223,5,0,0:0:0:0:
256,192,54529,1,0,0:0:0:0:
256,192,54835,1,8,0:0:0:0:
256,192,55141,1,8,0:0:0:0:
256,192,55295,1,0,0:0:0:0:
256,192,55601,1,0,0:0:0:0:
256,192,55754,1,8,0:0:0:0:
256,192,56060,1,8,0:0:0:0:
256,192,56366,1,0,0:0:0:0:
256,192,56672,1,8,0:0:0:0:
256,192,56979,1,0,0:0:0:0:
256,192,57285,1,8,0:0:0:0:
256,192,57591,1,8,0:0:0:0:
256,192,57744,1,0,0:0:0:0:
256,192,58050,1,0,0:0:0:0:
256,192,58203,1,8,0:0:0:0:
256,192,58510,1,0,0:0:0:0:
256,192,58816,1,8,0:0:0:0:
256,192,58969,1,8,0:0:0:0:
256,192,59122,1,0,0:0:0:0:
256,192,59734,5,8,0:0:0:0:
256,192,60194,1,0,0:0:0:0:
256,192,60500,1,8,0:0:0:0:
256,192,60653,1,0,0:0:0:0:
256,192,60959,1,8,0:0:0:0:
256,192,61572,5,0,0:0:0:0:
256,192,62184,1,8,0:0:0:0:
256,192,62643,1,0,0:0:0:0:
256,192,62950,1,8,0:0:0:0:
256,192,63103,1,0,0:0:0:0:
256,192,63409,1,8,0:0:0:0:
256,192,63715,1,8,0:0:0:0:
256,192,63868,1,8,0:0:0:0:
256,192,64021,1,0,0:0:0:0:
256,192,64634,5,8,0:0:0:0:
256,192,64940,1,0,0:0:0:0:
256,192,65093,1,8,0:0:0:0:
256,192,65399,1,8,0:0:0:0:
256,192,65552,1,0,0:0:0:0:
256,192,65858,1,8,0:0:0:0:
256,192,66165,1,8,0:0:0:0:
256,192,66471,1,0,0:0:0:0:
256,192,66777,1,8,0:0:0:0:
256,192,67083,1,8,0:0:0:0:
256,192,67696,5,8,0:0:0:0:
256,192,67849,1,0,0:0:0:0:
256,192,68002,1,8,0:0:0:0:
256,192,68155,1,0,0:0:0:0:
256,192,68308,1,8,0:0:0:0:
256,192,68614,1,0,0:0:0:0:
256,192,68767,1,8,0:0:0:0:
