osu file format v14

[General]
AudioFilename: audio.mp3
AudioLeadIn: 0
PreviewTime: 58657
Countdown: 0
SampleSet: Normal
StackLeniency: 0
Mode: 3
LetterboxInBreaks: 0
SpecialStyle: 0
WidescreenStoryboard: 1

[Editor]
Bookmarks: 10172,29566,48960,58657,68354,78051,90172
DistanceSpacing: 1.6
BeatDivisor: 6
GridSize: 32
TimelineZoom: 2.4

[Metadata]
Title:theyfriend
TitleUnicode:theyfriend
Artist:leroy
ArtistUnicode:leroy
Creator:guden
Version:them
Source:
Tags:hana hna dariacore electronic english experimental breakcore digicore hyperpop dltzk pop S1 E6 big time rush boyfriend fetty wap 679 remy boyz instrumental c0ncernn
BeatmapID:3312073
BeatmapSetID:1622189

[Difficulty]
HPDrainRate:8
CircleSize:4
OverallDifficulty:8
ApproachRate:0
SliderMultiplier:1.4
SliderTickRate:1

[Events]
//Background and Video events
0,0,"19671066_p0.jpg",0,0
//Break Periods
//Storyboard Layer 0 (Background)
//Storyboard Layer 1 (Fail)
//Storyboard Layer 2 (Pass)
//Storyboard Layer 3 (Foreground)
//Storyboard Layer 4 (Overlay)
//Storyboard Sound Samples

[TimingPoints]
476,303.030303030303,4,1,1,50,1,0
9566,-100,4,1,1,60,0,0
10172,-100,4,1,1,50,0,0
29869,-100,4,1,1,55,0,0
48960,-100,4,1,1,45,0,0
58657,-100,4,1,1,50,0,0
68354,-100,4,1,1,55,0,0
78051,-100,4,1,1,50,0,0
90172,-100,4,1,1,55,0,0

[HitObjects]
448,192,4415,5,0,0:0:0:0:
448,192,5172,1,0,0:0:0:0:
448,192,5627,1,0,0:0:0:0:
448,192,6233,1,0,0:0:0:0:
192,192,6536,1,0,0:0:0:0:
320,192,6688,1,0,0:0:0:0:
448,192,6839,1,0,0:0:0:0:
320,192,7142,1,0,0:0:0:0:
192,192,7294,1,0,0:0:0:0:
448,192,7597,1,0,0:0:0:0:
192,192,7748,1,0,0:0:0:0:
192,192,7900,1,0,0:0:0:0:
448,192,8051,1,0,0:0:0:0:
64,192,8051,1,0,0:0:0:0:
320,192,8203,1,0,0:0:0:0:
192,192,8279,1,0,0:0:0:0:
192,192,8430,1,0,0:0:0:0:
320,192,8506,1,0,0:0:0:0:
192,192,8582,1,0,0:0:0:0:
64,192,8657,1,0,0:0:0:0:
448,192,8657,1,0,0:0:0:0:
320,192,8809,1,0,0:0:0:0:
192,192,8960,1,0,0:0:0:0:
192,192,9112,1,0,0:0:0:0:
64,192,9263,1,0,0:0:0:0:
448,192,9263,1,0,0:0:0:0:
320,192,9415,1,0,0:0:0:0:
64,192,9566,1,0,0:0:0:0:
448,192,9566,1,0,0:0:0:0:
192,192,9585,1,0,0:0:0:0:
192,192,10172,5,0,0:0:0:0:
64,192,10223,1,0,0:0:0:0:
192,192,10273,1,0,0:0:0:0:
448,192,10324,1,0,0:0:0:0:
192,192,10475,1,0,0:0:0:0:
64,192,10475,1,0,0:0:0:0:
320,192,10551,1,0,0:0:0:0:
448,192,10589,1,0,0:0:0:0:
64,192,10627,1,0,0:0:0:0:
192,192,10779,1,0,0:0:0:0:
448,192,10779,1,0,0:0:0:0:
320,192,10854,1,0,0:0:0:0:
448,192,10892,1,0,0:0:0:0:
64,192,10930,1,0,0:0:0:0:
192,192,11082,1,0,0:0:0:0:
64,192,11082,1,0,0:0:0:0:
320,192,11157,1,0,0:0:0:0:
448,192,11195,1,0,0:0:0:0:
64,192,11233,1,0,0:0:0:0:
320,192,11385,1,0,0:0:0:0:
448,192,11385,1,0,0:0:0:0:
64,192,11460,1,0,0:0:0:0:
192,192,11536,1,0,0:0:0:0:
320,192,11688,1,0,0:0:0:0:
64,192,11763,1,0,0:0:0:0:
192,192,11801,1,0,0:0:0:0:
448,192,11839,1,0,0:0:0:0:
64,192,11991,1,0,0:0:0:0:
320,192,11991,1,0,0:0:0:0:
192,192,12142,1,0,0:0:0:0:
320,192,12193,1,0,0:0:0:0:
192,192,12243,1,0,0:0:0:0:
64,192,12294,1,0,0:0:0:0:
448,192,12294,1,0,0:0:0:0:
192,192,12369,1,0,0:0:0:0:
448,192,12445,1,0,0:0:0:0:
320,192,12521,1,0,0:0:0:0:
192,192,12597,1,0,0:0:0:0:
64,192,12748,1,0,0:0:0:0:
192,192,12824,1,0,0:0:0:0:
320,192,12900,1,0,0:0:0:0:
448,192,12900,1,0,0:0:0:0:
192,192,12975,1,0,0:0:0:0:
64,192,13013,1,0,0:0:0:0:
448,192,13051,1,0,0:0:0:0:
320,192,13203,1,0,0:0:0:0:
64,192,13203,1,0,0:0:0:0:
192,192,13279,1,0,0:0:0:0:
64,192,13316,1,0,0:0:0:0:
448,192,13354,1,0,0:0:0:0:
320,192,13506,1,0,0:0:0:0:
448,192,13506,1,0,0:0:0:0:
192,192,13582,1,0,0:0:0:0:
64,192,13619,1,0,0:0:0:0:
320,192,13657,1,0,0:0:0:0:
192,192,13809,1,0,0:0:0:0:
64,192,13809,1,0,0:0:0:0:
448,192,13885,1,0,0:0:0:0:
320,192,13960,1,0,0:0:0:0:
192,192,14112,1,0,0:0:0:0:
448,192,14188,1,0,0:0:0:0:
320,192,14225,1,0,0:0:0:0:
64,192,14263,1,0,0:0:0:0:
448,192,14415,1,0,0:0:0:0:
192,192,14415,1,0,0:0:0:0:
320,192,14566,128,0,14642:0:0:0:0:
192,192,14718,1,0,0:0:0:0:
64,192,14718,1,0,0:0:0:0:
448,192,14794,1,0,0:0:0:0:
64,192,14869,1,0,0:0:0:0:
192,192,14945,1,0,0:0:0:0:
320,192,15021,1,0,0:0:0:0:
448,192,15071,1,0,0:0:0:0:
64,192,15122,1,0,0:0:0:0:
448,192,15172,1,0,0:0:0:0:
64,192,15223,1,0,0:0:0:0:
448,192,15273,1,0,0:0:0:0:
192,192,15324,1,0,0:0:0:0:
64,192,15324,1,0,0:0:0:0:
320,192,15400,1,0,0:0:0:0:
448,192,15438,1,0,0:0:0:0:
64,192,15475,1,0,0:0:0:0:
192,192,15627,1,0,0:0:0:0:
448,192,15627,1,0,0:0:0:0:
320,192,15703,1,0,0:0:0:0:
448,192,15741,1,0,0:0:0:0:
64,192,15779,1,0,0:0:0:0:
192,192,15930,1,0,0:0:0:0:
64,192,15930,1,0,0:0:0:0:
320,192,16006,1,0,0:0:0:0:
448,192,16044,1,0,0:0:0:0:
64,192,16082,1,0,0:0:0:0:
320,192,16233,1,0,0:0:0:0:
448,192,16233,1,0,0:0:0:0:
64,192,16309,1,0,0:0:0:0:
192,192,16385,1,0,0:0:0:0:
320,192,16536,1,0,0:0:0:0:
64,192,16612,1,0,0:0:0:0:
192,192,16650,1,0,0:0:0:0:
448,192,16688,1,0,0:0:0:0:
64,192,16839,1,0,0:0:0:0:
320,192,16839,1,0,0:0:0:0:
192,192,16991,1,0,0:0:0:0:
320,192,17041,1,0,0:0:0:0:
192,192,17092,1,0,0:0:0:0:
64,192,17142,1,0,0:0:0:0:
448,192,17142,1,0,0:0:0:0:
192,192,17218,1,0,0:0:0:0:
448,192,17294,1,0,0:0:0:0:
320,192,17369,1,0,0:0:0:0:
192,192,17445,1,0,0:0:0:0:
192,192,17521,1,0,0:0:0:0:
448,192,17597,1,0,0:0:0:0:
320,192,17635,1,0,0:0:0:0:
64,192,17672,1,0,0:0:0:0:
192,192,17710,1,0,0:0:0:0:
320,192,17748,1,0,0:0:0:0:
448,192,17748,1,0,0:0:0:0:
192,192,17824,1,0,0:0:0:0:
64,192,17862,1,0,0:0:0:0:
448,192,17900,1,0,0:0:0:0:
320,192,18051,1,0,0:0:0:0:
64,192,18051,1,0,0:0:0:0:
192,192,18127,1,0,0:0:0:0:
64,192,18165,1,0,0:0:0:0:
448,192,18203,1,0,0:0:0:0:
320,192,18354,1,0,0:0:0:0:
448,192,18354,1,0,0:0:0:0:
192,192,18430,1,0,0:0:0:0:
64,192,18468,1,0,0:0:0:0:
320,192,18506,1,0,0:0:0:0:
192,192,18657,1,0,0:0:0:0:
64,192,18657,1,0,0:0:0:0:
448,192,18733,1,0,0:0:0:0:
320,192,18809,1,0,0:0:0:0:
192,192,18960,1,0,0:0:0:0:
448,192,19036,1,0,0:0:0:0:
320,192,19074,1,0,0:0:0:0:
64,192,19112,1,0,0:0:0:0:
448,192,19263,1,0,0:0:0:0:
192,192,19263,1,0,0:0:0:0:
320,192,19415,128,0,19491:0:0:0:0:
192,192,19566,1,0,0:0:0:0:
64,192,19566,1,0,0:0:0:0:
448,192,19642,1,0,0:0:0:0:
320,192,19718,1,0,0:0:0:0:
64,192,19768,1,0,0:0:0:0:
192,192,19819,1,0,0:0:0:0:
448,192,19869,1,0,0:0:0:0:
64,192,19920,1,0,0:0:0:0:
448,192,19970,1,0,0:0:0:0:
320,192,20021,128,0,20097:0:0:0:0:
64,192,20172,1,0,0:0:0:0:
192,192,20172,1,0,0:0:0:0:
448,192,20210,1,0,0:0:0:0:
320,192,20248,1,0,0:0:0:0:
64,192,20286,1,0,0:0:0:0:
192,192,20324,1,0,0:0:0:0:
448,192,20476,1,0,0:0:0:0:
64,192,20476,1,0,0:0:0:0:
320,192,20513,1,0,0:0:0:0:
192,192,20551,1,0,0:0:0:0:
448,192,20589,1,0,0:0:0:0:
64,192,20627,1,0,0:0:0:0:
64,192,20779,1,0,0:0:0:0:
192,192,20779,1,0,0:0:0:0:
448,192,20816,1,0,0:0:0:0:
320,192,20854,1,0,0:0:0:0:
64,192,20892,1,0,0:0:0:0:
192,192,20930,1,0,0:0:0:0:
448,192,21082,1,0,0:0:0:0:
320,192,21082,1,0,0:0:0:0:
64,192,21157,1,0,0:0:0:0:
192,192,21233,1,0,0:0:0:0:
320,192,21385,1,0,0:0:0:0:
64,192,21460,1,0,0:0:0:0:
192,192,21498,1,0,0:0:0:0:
448,192,21536,1,0,0:0:0:0:
320,192,21688,1,0,0:0:0:0:
64,192,21688,1,0,0:0:0:0:
192,192,21839,1,0,0:0:0:0:
320,192,21890,1,0,0:0:0:0:
192,192,21940,1,0,0:0:0:0:
448,192,21991,1,0,0:0:0:0:
64,192,21991,1,0,0:0:0:0:
192,192,22066,1,0,0:0:0:0:
448,192,22142,1,0,0:0:0:0:
320,192,22218,1,0,0:0:0:0:
192,192,22294,1,0,0:0:0:0:
64,192,22445,1,0,0:0:0:0:
64,192,22521,1,0,0:0:0:0:
448,192,22597,1,0,0:0:0:0:
320,192,22597,1,0,0:0:0:0:
192,192,22635,1,0,0:0:0:0:
64,192,22672,1,0,0:0:0:0:
320,192,22710,1,0,0:0:0:0:
448,192,22748,1,0,0:0:0:0:
64,192,22900,1,0,0:0:0:0:
320,192,22900,1,0,0:0:0:0:
192,192,22976,1,0,0:0:0:0:
64,192,23013,1,0,0:0:0:0:
448,192,23051,1,0,0:0:0:0:
448,192,23203,1,0,0:0:0:0:
320,192,23203,1,0,0:0:0:0:
192,192,23279,1,0,0:0:0:0:
64,192,23316,1,0,0:0:0:0:
320,192,23354,1,0,0:0:0:0:
64,192,23506,1,0,0:0:0:0:
192,192,23506,1,0,0:0:0:0:
448,192,23582,1,0,0:0:0:0:
320,192,23657,1,0,0:0:0:0:
192,192,23809,1,0,0:0:0:0:
448,192,23885,1,0,0:0:0:0:
320,192,23922,1,0,0:0:0:0:
64,192,23960,1,0,0:0:0:0:
192,192,24112,1,0,0:0:0:0:
448,192,24112,1,0,0:0:0:0:
320,192,24263,128,0,24339:0:0:0:0:
64,192,24415,1,0,0:0:0:0:
192,192,24415,1,0,0:0:0:0:
448,192,24491,1,0,0:0:0:0:
64,192,24566,1,0,0:0:0:0:
192,192,24642,1,0,0:0:0:0:
64,192,24718,1,0,0:0:0:0:
448,192,24794,1,0,0:0:0:0:
448,192,24869,1,0,0:0:0:0:
448,192,24945,1,0,0:0:0:0:
64,192,25021,1,0,0:0:0:0:
192,192,25021,1,0,0:0:0:0:
320,192,25059,1,0,0:0:0:0:
448,192,25097,1,0,0:0:0:0:
192,192,25135,1,0,0:0:0:0:
64,192,25172,1,0,0:0:0:0:
448,192,25324,1,0,0:0:0:0:
192,192,25324,1,0,0:0:0:0:
320,192,25400,1,0,0:0:0:0:
448,192,25438,1,0,0:0:0:0:
64,192,25476,1,0,0:0:0:0:
64,192,25627,1,0,0:0:0:0:
192,192,25627,1,0,0:0:0:0:
320,192,25703,1,0,0:0:0:0:
448,192,25741,1,0,0:0:0:0:
64,192,25779,1,0,0:0:0:0:
448,192,25930,1,0,0:0:0:0:
320,192,25930,1,0,0:0:0:0:
64,192,26006,1,0,0:0:0:0:
192,192,26082,1,0,0:0:0:0:
320,192,26233,1,0,0:0:0:0:
64,192,26309,1,0,0:0:0:0:
192,192,26347,1,0,0:0:0:0:
448,192,26385,1,0,0:0:0:0:
320,192,26536,1,0,0:0:0:0:
64,192,26536,1,0,0:0:0:0:
192,192,26688,1,0,0:0:0:0:
320,192,26738,1,0,0:0:0:0:
192,192,26789,1,0,0:0:0:0:
448,192,26839,1,0,0:0:0:0:
64,192,26839,1,0,0:0:0:0:
192,192,26915,1,0,0:0:0:0:
448,192,26991,1,0,0:0:0:0:
320,192,27066,1,0,0:0:0:0:
192,192,27142,1,0,0:0:0:0:
192,192,27218,1,0,0:0:0:0:
448,192,27294,1,0,0:0:0:0:
320,192,27332,1,0,0:0:0:0:
64,192,27369,1,0,0:0:0:0:
192,192,27407,1,0,0:0:0:0:
448,192,27445,1,0,0:0:0:0:
320,192,27445,1,0,0:0:0:0:
192,192,27521,1,0,0:0:0:0:
64,192,27559,1,0,0:0:0:0:
448,192,27597,1,0,0:0:0:0:
64,192,27748,1,0,0:0:0:0:
320,192,27748,1,0,0:0:0:0:
192,192,27824,1,0,0:0:0:0:
64,192,27862,1,0,0:0:0:0:
448,192,27900,1,0,0:0:0:0:
448,192,28051,1,0,0:0:0:0:
320,192,28051,1,0,0:0:0:0:
192,192,28127,1,0,0:0:0:0:
64,192,28165,1,0,0:0:0:0:
320,192,28203,1,0,0:0:0:0:
64,192,28354,1,0,0:0:0:0:
192,192,28354,1,0,0:0:0:0:
448,192,28430,1,0,0:0:0:0:
320,192,28506,1,0,0:0:0:0:
192,192,28657,1,0,0:0:0:0:
448,192,28733,1,0,0:0:0:0:
320,192,28771,1,0,0:0:0:0:
64,192,28809,1,0,0:0:0:0:
448,192,28960,1,0,0:0:0:0:
192,192,28960,1,0,0:0:0:0:
320,192,29036,1,0,0:0:0:0:
192,192,29112,128,0,29188:0:0:0:0:
64,192,29263,1,0,0:0:0:0:
448,192,29263,1,0,0:0:0:0:
64,192,29415,1,0,0:0:0:0:
448,192,29491,1,0,0:0:0:0:
192,192,29566,1,0,0:0:0:0:
192,192,29869,1,0,0:0:0:0:
64,192,29869,1,0,0:0:0:0:
448,192,29920,1,0,0:0:0:0:
320,192,29970,1,0,0:0:0:0:
192,192,30021,1,0,0:0:0:0:
320,192,30097,1,0,0:0:0:0:
64,192,30172,1,0,0:0:0:0:
448,192,30172,1,0,0:0:0:0:
192,192,30223,1,0,0:0:0:0:
320,192,30273,1,0,0:0:0:0:
64,192,30324,1,0,0:0:0:0:
192,192,30374,1,0,0:0:0:0:
448,192,30425,1,0,0:0:0:0:
320,192,30475,1,0,0:0:0:0:
64,192,30526,1,0,0:0:0:0:
448,192,30577,1,0,0:0:0:0:
192,192,30627,1,0,0:0:0:0:
320,192,30703,1,0,0:0:0:0:
192,192,30779,1,0,0:0:0:0:
64,192,30779,1,0,0:0:0:0:
448,192,30829,1,0,0:0:0:0:
320,192,30880,1,0,0:0:0:0:
64,192,30930,1,0,0:0:0:0:
448,192,30981,1,0,0:0:0:0:
192,192,31031,1,0,0:0:0:0:
64,192,31082,1,0,0:0:0:0:
320,192,31132,1,0,0:0:0:0:
448,192,31183,1,0,0:0:0:0:
192,192,31233,1,0,0:0:0:0:
320,192,31309,1,0,0:0:0:0:
64,192,31385,1,0,0:0:0:0:
448,192,31385,1,0,0:0:0:0:
192,192,31435,1,0,0:0:0:0:
320,192,31486,1,0,0:0:0:0:
64,192,31536,1,0,0:0:0:0:
448,192,31587,1,0,0:0:0:0:
320,192,31688,1,0,0:0:0:0:
192,192,31738,1,0,0:0:0:0:
64,192,31789,1,0,0:0:0:0:
448,192,31839,1,0,0:0:0:0:
192,192,31890,1,0,0:0:0:0:
320,192,31991,1,0,0:0:0:0:
448,192,31991,1,0,0:0:0:0:
320,192,32142,1,0,0:0:0:0:
320,192,32294,1,0,0:0:0:0:
192,192,32344,1,0,0:0:0:0:
448,192,32395,1,0,0:0:0:0:
64,192,32445,1,0,0:0:0:0:
320,192,32496,1,0,0:0:0:0:
448,192,32597,1,0,0:0:0:0:
64,192,32597,1,0,0:0:0:0:
192,192,32647,1,0,0:0:0:0:
320,192,32698,1,0,0:0:0:0:
64,192,32748,1,0,0:0:0:0:
192,192,32799,1,0,0:0:0:0:
448,192,32849,1,0,0:0:0:0:
320,192,32900,1,0,0:0:0:0:
64,192,32950,1,0,0:0:0:0:
448,192,33001,1,0,0:0:0:0:
192,192,33051,1,0,0:0:0:0:
320,192,33127,1,0,0:0:0:0:
64,192,33203,1,0,0:0:0:0:
192,192,33203,1,0,0:0:0:0:
448,192,33253,1,0,0:0:0:0:
320,192,33304,1,0,0:0:0:0:
64,192,33354,1,0,0:0:0:0:
448,192,33405,1,0,0:0:0:0:
192,192,33455,1,0,0:0:0:0:
64,192,33506,1,0,0:0:0:0:
320,192,33556,1,0,0:0:0:0:
448,192,33607,1,0,0:0:0:0:
192,192,33657,1,0,0:0:0:0:
320,192,33733,1,0,0:0:0:0:
448,192,33809,1,0,0:0:0:0:
192,192,33809,1,0,0:0:0:0:
64,192,33852,1,0,0:0:0:0:
448,192,33895,1,0,0:0:0:0:
64,192,33960,1,0,0:0:0:0:
448,192,34011,1,0,0:0:0:0:
64,192,34061,1,0,0:0:0:0:
192,192,34112,1,0,0:0:0:0:
320,192,34162,1,0,0:0:0:0:
192,192,34213,1,0,0:0:0:0:
448,192,34263,1,0,0:0:0:0:
64,192,34314,1,0,0:0:0:0:
320,192,34415,1,0,0:0:0:0:
448,192,34415,1,0,0:0:0:0:
192,192,34465,1,0,0:0:0:0:
320,192,34516,1,0,0:0:0:0:
64,192,34566,1,0,0:0:0:0:
192,192,34617,1,0,0:0:0:0:
448,192,34667,1,0,0:0:0:0:
320,192,34718,1,0,0:0:0:0:
192,192,34794,1,0,0:0:0:0:
64,192,34832,1,0,0:0:0:0:
320,192,34869,1,0,0:0:0:0:
192,192,34945,1,0,0:0:0:0:
64,192,35021,1,0,0:0:0:0:
448,192,35021,1,0,0:0:0:0:
192,192,35097,1,0,0:0:0:0:
320,192,35135,1,0,0:0:0:0:
64,192,35172,1,0,0:0:0:0:
192,192,35223,1,0,0:0:0:0:
448,192,35273,1,0,0:0:0:0:
320,192,35324,1,0,0:0:0:0:
64,192,35374,1,0,0:0:0:0:
448,192,35425,1,0,0:0:0:0:
192,192,35475,1,0,0:0:0:0:
320,192,35551,1,0,0:0:0:0:
192,192,35627,1,0,0:0:0:0:
64,192,35627,1,0,0:0:0:0:
448,192,35703,1,0,0:0:0:0:
320,192,35741,1,0,0:0:0:0:
64,192,35779,1,0,0:0:0:0:
448,192,35829,1,0,0:0:0:0:
192,192,35880,1,0,0:0:0:0:
64,192,35930,1,0,0:0:0:0:
320,192,36006,1,0,0:0:0:0:
448,192,36044,1,0,0:0:0:0:
192,192,36082,1,0,0:0:0:0:
320,192,36157,1,0,0:0:0:0:
64,192,36233,1,0,0:0:0:0:
448,192,36233,1,0,0:0:0:0:
192,192,36309,1,0,0:0:0:0:
320,192,36347,1,0,0:0:0:0:
64,192,36385,1,0,0:0:0:0:
448,192,36435,1,0,0:0:0:0:
320,192,36536,1,0,0:0:0:0:
192,192,36587,1,0,0:0:0:0:
64,192,36637,1,0,0:0:0:0:
448,192,36688,1,0,0:0:0:0:
192,192,36738,1,0,0:0:0:0:
320,192,36839,1,0,0:0:0:0:
448,192,36839,1,0,0:0:0:0:
320,192,36991,1,0,0:0:0:0:
320,192,37142,1,0,0:0:0:0:
448,192,37218,1,0,0:0:0:0:
192,192,37256,1,0,0:0:0:0:
64,192,37294,1,0,0:0:0:0:
320,192,37344,1,0,0:0:0:0:
448,192,37445,1,0,0:0:0:0:
64,192,37445,1,0,0:0:0:0:
192,192,37521,1,0,0:0:0:0:
320,192,37559,1,0,0:0:0:0:
64,192,37597,1,0,0:0:0:0:
192,192,37647,1,0,0:0:0:0:
448,192,37698,1,0,0:0:0:0:
320,192,37748,1,0,0:0:0:0:
64,192,37799,1,0,0:0:0:0:
448,192,37849,1,0,0:0:0:0:
192,192,37900,1,0,0:0:0:0:
320,192,37975,1,0,0:0:0:0:
64,192,38051,1,0,0:0:0:0:
192,192,38051,1,0,0:0:0:0:
448,192,38127,1,0,0:0:0:0:
320,192,38165,1,0,0:0:0:0:
64,192,38203,1,0,0:0:0:0:
448,192,38253,1,0,0:0:0:0:
192,192,38304,1,0,0:0:0:0:
64,192,38354,1,0,0:0:0:0:
320,192,38430,1,0,0:0:0:0:
448,192,38468,1,0,0:0:0:0:
192,192,38506,1,0,0:0:0:0:
320,192,38582,1,0,0:0:0:0:
64,192,38657,1,0,0:0:0:0:
448,192,38657,1,0,0:0:0:0:
320,192,38733,1,0,0:0:0:0:
192,192,38771,1,0,0:0:0:0:
448,192,38809,1,0,0:0:0:0:
320,192,38960,128,0,39263:0:0:0:0:
192,192,39263,5,0,0:0:0:0:
320,192,39415,128,0,39491:0:0:0:0:
192,192,39566,1,0,0:0:0:0:
64,192,39566,1,0,0:0:0:0:
320,192,39642,1,0,0:0:0:0:
448,192,39680,1,0,0:0:0:0:
64,192,39718,1,0,0:0:0:0:
192,192,39869,1,0,0:0:0:0:
448,192,39869,1,0,0:0:0:0:
320,192,39945,1,0,0:0:0:0:
448,192,39983,1,0,0:0:0:0:
64,192,40021,1,0,0:0:0:0:
192,192,40172,1,0,0:0:0:0:
320,192,40248,1,0,0:0:0:0:
448,192,40286,1,0,0:0:0:0:
64,192,40324,1,0,0:0:0:0:
320,192,40475,1,0,0:0:0:0:
448,192,40475,1,0,0:0:0:0:
64,192,40551,1,0,0:0:0:0:
192,192,40627,1,0,0:0:0:0:
320,192,40779,1,0,0:0:0:0:
64,192,40854,1,0,0:0:0:0:
192,192,40892,1,0,0:0:0:0:
448,192,40930,1,0,0:0:0:0:
64,192,41082,1,0,0:0:0:0:
320,192,41082,1,0,0:0:0:0:
192,192,41233,1,0,0:0:0:0:
320,192,41284,1,0,0:0:0:0:
192,192,41334,1,0,0:0:0:0:
64,192,41385,1,0,0:0:0:0:
320,192,41460,1,0,0:0:0:0:
448,192,41536,1,0,0:0:0:0:
320,192,41612,1,0,0:0:0:0:
192,192,41688,1,0,0:0:0:0:
192,192,41839,1,0,0:0:0:0:
192,192,41915,1,0,0:0:0:0:
320,192,41991,1,0,0:0:0:0:
192,192,42066,1,0,0:0:0:0:
64,192,42104,1,0,0:0:0:0:
448,192,42142,1,0,0:0:0:0:
320,192,42294,1,0,0:0:0:0:
64,192,42294,1,0,0:0:0:0:
192,192,42369,1,0,0:0:0:0:
64,192,42407,1,0,0:0:0:0:
448,192,42445,1,0,0:0:0:0:
320,192,42597,1,0,0:0:0:0:
192,192,42672,1,0,0:0:0:0:
64,192,42710,1,0,0:0:0:0:
448,192,42748,1,0,0:0:0:0:
192,192,42900,1,0,0:0:0:0:
64,192,42900,1,0,0:0:0:0:
448,192,42975,1,0,0:0:0:0:
320,192,43051,1,0,0:0:0:0:
192,192,43203,1,0,0:0:0:0:
448,192,43279,1,0,0:0:0:0:
320,192,43316,1,0,0:0:0:0:
64,192,43354,1,0,0:0:0:0:
448,192,43506,1,0,0:0:0:0:
192,192,43506,1,0,0:0:0:0:
448,192,43582,1,0,0:0:0:0:
320,192,43657,1,0,0:0:0:0:
320,192,43733,1,0,0:0:0:0:
192,192,43809,1,0,0:0:0:0:
64,192,43809,1,0,0:0:0:0:
448,192,43885,1,0,0:0:0:0:
64,192,43960,1,0,0:0:0:0:
192,192,44036,1,0,0:0:0:0:
320,192,44112,1,0,0:0:0:0:
448,192,44112,1,0,0:0:0:0:
320,192,44263,128,0,44339:0:0:0:0:
192,192,44415,1,0,0:0:0:0:
320,192,44491,1,0,0:0:0:0:
448,192,44529,1,0,0:0:0:0:
64,192,44566,1,0,0:0:0:0:
192,192,44718,1,0,0:0:0:0:
448,192,44718,1,0,0:0:0:0:
320,192,44794,1,0,0:0:0:0:
448,192,44832,1,0,0:0:0:0:
64,192,44869,1,0,0:0:0:0:
192,192,45021,1,0,0:0:0:0:
320,192,45097,1,0,0:0:0:0:
448,192,45135,1,0,0:0:0:0:
64,192,45172,1,0,0:0:0:0:
320,192,45324,1,0,0:0:0:0:
448,192,45324,1,0,0:0:0:0:
64,192,45400,1,0,0:0:0:0:
192,192,45475,1,0,0:0:0:0:
320,192,45627,1,0,0:0:0:0:
64,192,45703,1,0,0:0:0:0:
192,192,45741,1,0,0:0:0:0:
448,192,45779,1,0,0:0:0:0:
64,192,45930,1,0,0:0:0:0:
320,192,45930,1,0,0:0:0:0:
192,192,46082,1,0,0:0:0:0:
320,192,46132,1,0,0:0:0:0:
192,192,46183,1,0,0:0:0:0:
64,192,46233,1,0,0:0:0:0:
320,192,46309,1,0,0:0:0:0:
448,192,46385,1,0,0:0:0:0:
320,192,46460,1,0,0:0:0:0:
192,192,46536,1,0,0:0:0:0:
64,192,46536,1,0,0:0:0:0:
192,192,46612,1,0,0:0:0:0:
448,192,46688,1,0,0:0:0:0:
320,192,46725,1,0,0:0:0:0:
64,192,46763,1,0,0:0:0:0:
192,192,46801,1,0,0:0:0:0:
320,192,46839,1,0,0:0:0:0:
192,192,46915,1,0,0:0:0:0:
64,192,46953,1,0,0:0:0:0:
448,192,46991,1,0,0:0:0:0:
320,192,47142,1,0,0:0:0:0:
64,192,47142,1,0,0:0:0:0:
192,192,47218,1,0,0:0:0:0:
64,192,47256,1,0,0:0:0:0:
448,192,47294,1,0,0:0:0:0:
320,192,47445,1,0,0:0:0:0:
192,192,47521,1,0,0:0:0:0:
64,192,47559,1,0,0:0:0:0:
448,192,47597,1,0,0:0:0:0:
192,192,47748,1,0,0:0:0:0:
64,192,47748,1,0,0:0:0:0:
448,192,47824,1,0,0:0:0:0:
320,192,47900,1,0,0:0:0:0:
192,192,48051,1,0,0:0:0:0:
448,192,48127,1,0,0:0:0:0:
320,192,48165,1,0,0:0:0:0:
64,192,48203,1,0,0:0:0:0:
448,192,48354,1,0,0:0:0:0:
192,192,48354,1,0,0:0:0:0:
320,192,48506,128,0,48582:0:0:0:0:
192,192,48657,1,0,0:0:0:0:
448,192,48733,1,0,0:0:0:0:
64,192,48809,1,0,0:0:0:0:
320,192,48847,1,0,0:0:0:0:
192,192,48885,1,0,0:0:0:0:
64,192,48960,1,0,0:0:0:0:
448,192,49011,1,0,0:0:0:0:
64,192,49061,1,0,0:0:0:0:
192,192,49112,1,0,0:0:0:0:
192,192,49263,1,0,0:0:0:0:
448,192,49263,1,0,0:0:0:0:
320,192,49415,1,0,0:0:0:0:
448,192,49491,1,0,0:0:0:0:
64,192,49566,1,0,0:0:0:0:
448,192,49642,1,0,0:0:0:0:
192,192,49718,1,0,0:0:0:0:
320,192,49794,1,0,0:0:0:0:
192,192,49869,1,0,0:0:0:0:
448,192,49869,1,0,0:0:0:0:
64,192,50021,1,0,0:0:0:0:
448,192,50097,1,0,0:0:0:0:
192,192,50172,1,0,0:0:0:0:
192,192,50324,1,0,0:0:0:0:
192,192,50475,1,0,0:0:0:0:
448,192,50475,1,0,0:0:0:0:
320,192,50627,1,0,0:0:0:0:
448,192,50703,1,0,0:0:0:0:
192,192,50779,1,0,0:0:0:0:
448,192,50854,1,0,0:0:0:0:
64,192,50854,1,0,0:0:0:0:
320,192,50930,1,0,0:0:0:0:
192,192,50981,1,0,0:0:0:0:
320,192,51031,1,0,0:0:0:0:
64,192,51082,1,0,0:0:0:0:
64,192,51233,1,0,0:0:0:0:
448,192,51233,1,0,0:0:0:0:
192,192,51385,1,0,0:0:0:0:
192,192,51536,1,0,0:0:0:0:
192,192,51688,1,0,0:0:0:0:
448,192,51688,1,0,0:0:0:0:
320,192,51839,1,0,0:0:0:0:
448,192,51915,1,0,0:0:0:0:
64,192,51991,1,0,0:0:0:0:
448,192,52066,1,0,0:0:0:0:
192,192,52142,1,0,0:0:0:0:
320,192,52218,1,0,0:0:0:0:
192,192,52294,1,0,0:0:0:0:
448,192,52294,1,0,0:0:0:0:
64,192,52445,1,0,0:0:0:0:
448,192,52521,1,0,0:0:0:0:
192,192,52597,1,0,0:0:0:0:
320,192,52672,1,0,0:0:0:0:
192,192,52748,1,0,0:0:0:0:
192,192,52900,1,0,0:0:0:0:
448,192,52900,1,0,0:0:0:0:
64,192,52975,1,0,0:0:0:0:
448,192,53013,1,0,0:0:0:0:
320,192,53051,1,0,0:0:0:0:
64,192,53127,1,0,0:0:0:0:
192,192,53203,1,0,0:0:0:0:
448,192,53279,1,0,0:0:0:0:
320,192,53354,1,0,0:0:0:0:
192,192,53506,1,0,0:0:0:0:
64,192,53657,1,0,0:0:0:0:
448,192,53657,1,0,0:0:0:0:
320,192,53809,1,0,0:0:0:0:
320,192,53960,1,0,0:0:0:0:
64,192,54112,1,0,0:0:0:0:
320,192,54112,1,0,0:0:0:0:
192,192,54263,1,0,0:0:0:0:
64,192,54339,1,0,0:0:0:0:
448,192,54415,1,0,0:0:0:0:
64,192,54491,1,0,0:0:0:0:
320,192,54566,1,0,0:0:0:0:
192,192,54642,1,0,0:0:0:0:
64,192,54718,1,0,0:0:0:0:
320,192,54718,1,0,0:0:0:0:
448,192,54869,1,0,0:0:0:0:
64,192,54945,1,0,0:0:0:0:
320,192,55021,1,0,0:0:0:0:
320,192,55172,1,0,0:0:0:0:
320,192,55324,1,0,0:0:0:0:
64,192,55324,1,0,0:0:0:0:
192,192,55475,1,0,0:0:0:0:
64,192,55551,1,0,0:0:0:0:
320,192,55627,1,0,0:0:0:0:
64,192,55703,1,0,0:0:0:0:
320,192,55779,1,0,0:0:0:0:
192,192,55829,1,0,0:0:0:0:
320,192,55880,1,0,0:0:0:0:
64,192,55930,1,0,0:0:0:0:
448,192,56082,1,0,0:0:0:0:
64,192,56082,1,0,0:0:0:0:
192,192,56233,1,0,0:0:0:0:
192,192,56385,1,0,0:0:0:0:
448,192,56422,1,0,0:0:0:0:
320,192,56460,1,0,0:0:0:0:
64,192,56498,1,0,0:0:0:0:
448,192,56536,1,0,0:0:0:0:
192,192,56536,1,0,0:0:0:0:
320,192,56688,1,0,0:0:0:0:
448,192,56763,1,0,0:0:0:0:
64,192,56839,1,0,0:0:0:0:
448,192,56915,5,0,0:0:0:0:
192,192,56991,1,0,0:0:0:0:
320,192,57066,1,0,0:0:0:0:
448,192,57142,1,0,0:0:0:0:
192,192,57142,1,0,0:0:0:0:
64,192,57294,1,0,0:0:0:0:
448,192,57369,1,0,0:0:0:0:
192,192,57445,1,0,0:0:0:0:
320,192,57521,1,0,0:0:0:0:
192,192,57597,1,0,0:0:0:0:
448,192,57748,1,0,0:0:0:0:
192,192,57748,1,0,0:0:0:0:
64,192,57824,1,0,0:0:0:0:
448,192,57862,1,0,0:0:0:0:
320,192,57900,1,0,0:0:0:0:
192,192,58657,5,0,0:0:0:0:
320,192,58809,128,0,58885:0:0:0:0:
192,192,58960,1,0,0:0:0:0:
64,192,58960,1,0,0:0:0:0:
320,192,59036,1,0,0:0:0:0:
448,192,59074,1,0,0:0:0:0:
64,192,59112,1,0,0:0:0:0:
192,192,59263,1,0,0:0:0:0:
448,192,59263,1,0,0:0:0:0:
320,192,59339,1,0,0:0:0:0:
448,192,59377,1,0,0:0:0:0:
64,192,59415,1,0,0:0:0:0:
192,192,59566,1,0,0:0:0:0:
64,192,59566,1,0,0:0:0:0:
320,192,59642,1,0,0:0:0:0:
448,192,59680,1,0,0:0:0:0:
64,192,59718,1,0,0:0:0:0:
320,192,59869,1,0,0:0:0:0:
448,192,59869,1,0,0:0:0:0:
64,192,59945,1,0,0:0:0:0:
192,192,60021,1,0,0:0:0:0:
320,192,60172,1,0,0:0:0:0:
64,192,60248,1,0,0:0:0:0:
192,192,60286,1,0,0:0:0:0:
448,192,60324,1,0,0:0:0:0:
64,192,60475,1,0,0:0:0:0:
320,192,60475,1,0,0:0:0:0:
192,192,60627,1,0,0:0:0:0:
320,192,60678,1,0,0:0:0:0:
192,192,60728,1,0,0:0:0:0:
64,192,60779,1,0,0:0:0:0:
448,192,60779,1,0,0:0:0:0:
192,192,60854,1,0,0:0:0:0:
448,192,60930,1,0,0:0:0:0:
320,192,61006,1,0,0:0:0:0:
192,192,61082,1,0,0:0:0:0:
64,192,61233,1,0,0:0:0:0:
192,192,61309,1,0,0:0:0:0:
320,192,61385,1,0,0:0:0:0:
448,192,61385,1,0,0:0:0:0:
192,192,61460,1,0,0:0:0:0:
64,192,61498,1,0,0:0:0:0:
448,192,61536,1,0,0:0:0:0:
320,192,61688,1,0,0:0:0:0:
64,192,61688,1,0,0:0:0:0:
192,192,61763,1,0,0:0:0:0:
64,192,61801,1,0,0:0:0:0:
448,192,61839,1,0,0:0:0:0:
320,192,61991,1,0,0:0:0:0:
448,192,61991,1,0,0:0:0:0:
192,192,62066,1,0,0:0:0:0:
64,192,62104,1,0,0:0:0:0:
320,192,62142,1,0,0:0:0:0:
192,192,62294,1,0,0:0:0:0:
64,192,62294,1,0,0:0:0:0:
448,192,62369,1,0,0:0:0:0:
320,192,62445,1,0,0:0:0:0:
192,192,62597,1,0,0:0:0:0:
448,192,62672,1,0,0:0:0:0:
320,192,62710,1,0,0:0:0:0:
64,192,62748,1,0,0:0:0:0:
448,192,62900,1,0,0:0:0:0:
192,192,62900,1,0,0:0:0:0:
320,192,63051,128,0,63127:0:0:0:0:
192,192,63203,1,0,0:0:0:0:
64,192,63203,1,0,0:0:0:0:
448,192,63279,1,0,0:0:0:0:
64,192,63354,1,0,0:0:0:0:
192,192,63430,1,0,0:0:0:0:
320,192,63506,1,0,0:0:0:0:
448,192,63556,1,0,0:0:0:0:
64,192,63607,1,0,0:0:0:0:
448,192,63657,1,0,0:0:0:0:
64,192,63708,1,0,0:0:0:0:
448,192,63758,1,0,0:0:0:0:
192,192,63809,1,0,0:0:0:0:
64,192,63809,1,0,0:0:0:0:
320,192,63885,1,0,0:0:0:0:
448,192,63922,1,0,0:0:0:0:
64,192,63960,1,0,0:0:0:0:
192,192,64112,1,0,0:0:0:0:
448,192,64112,1,0,0:0:0:0:
320,192,64188,1,0,0:0:0:0:
448,192,64225,1,0,0:0:0:0:
64,192,64263,1,0,0:0:0:0:
192,192,64415,1,0,0:0:0:0:
64,192,64415,1,0,0:0:0:0:
320,192,64491,1,0,0:0:0:0:
448,192,64529,1,0,0:0:0:0:
64,192,64566,1,0,0:0:0:0:
320,192,64718,1,0,0:0:0:0:
448,192,64718,1,0,0:0:0:0:
64,192,64794,1,0,0:0:0:0:
192,192,64869,1,0,0:0:0:0:
320,192,65021,1,0,0:0:0:0:
64,192,65097,1,0,0:0:0:0:
192,192,65135,1,0,0:0:0:0:
448,192,65172,1,0,0:0:0:0:
64,192,65324,1,0,0:0:0:0:
320,192,65324,1,0,0:0:0:0:
192,192,65475,1,0,0:0:0:0:
320,192,65526,1,0,0:0:0:0:
192,192,65577,1,0,0:0:0:0:
64,192,65627,1,0,0:0:0:0:
448,192,65627,1,0,0:0:0:0:
192,192,65703,1,0,0:0:0:0:
448,192,65779,1,0,0:0:0:0:
320,192,65854,1,0,0:0:0:0:
192,192,65930,1,0,0:0:0:0:
192,192,66006,1,0,0:0:0:0:
320,192,66082,1,0,0:0:0:0:
448,192,66132,1,0,0:0:0:0:
192,192,66183,1,0,0:0:0:0:
320,192,66233,1,0,0:0:0:0:
448,192,66233,1,0,0:0:0:0:
192,192,66309,1,0,0:0:0:0:
64,192,66347,1,0,0:0:0:0:
448,192,66385,1,0,0:0:0:0:
320,192,66536,1,0,0:0:0:0:
64,192,66536,1,0,0:0:0:0:
192,192,66612,5,0,0:0:0:0:
64,192,66650,1,0,0:0:0:0:
448,192,66688,1,0,0:0:0:0:
320,192,66839,1,0,0:0:0:0:
448,192,66839,1,0,0:0:0:0:
192,192,66915,1,0,0:0:0:0:
64,192,66953,1,0,0:0:0:0:
320,192,66991,1,0,0:0:0:0:
192,192,67142,1,0,0:0:0:0:
64,192,67142,1,0,0:0:0:0:
448,192,67218,1,0,0:0:0:0:
320,192,67294,1,0,0:0:0:0:
192,192,67445,1,0,0:0:0:0:
448,192,67521,1,0,0:0:0:0:
320,192,67559,1,0,0:0:0:0:
64,192,67597,1,0,0:0:0:0:
448,192,67748,1,0,0:0:0:0:
192,192,67748,1,0,0:0:0:0:
320,192,67900,128,0,67975:0:0:0:0:
192,192,68051,1,0,0:0:0:0:
64,192,68051,1,0,0:0:0:0:
320,192,68203,1,0,0:0:0:0:
448,192,68354,1,0,0:0:0:0:
64,192,68354,1,0,0:0:0:0:
192,192,68405,1,0,0:0:0:0:
64,192,68455,1,0,0:0:0:0:
320,192,68506,5,0,0:0:0:0:
192,192,68556,1,0,0:0:0:0:
320,192,68607,1,0,0:0:0:0:
192,192,68657,1,0,0:0:0:0:
448,192,68708,1,0,0:0:0:0:
64,192,68758,1,0,0:0:0:0:
320,192,68809,1,0,0:0:0:0:
192,192,68960,1,0,0:0:0:0:
448,192,68960,1,0,0:0:0:0:
320,192,69011,1,0,0:0:0:0:
64,192,69061,1,0,0:0:0:0:
192,192,69112,1,0,0:0:0:0:
320,192,69162,1,0,0:0:0:0:
192,192,69213,1,0,0:0:0:0:
320,192,69263,1,0,0:0:0:0:
448,192,69339,1,0,0:0:0:0:
64,192,69415,1,0,0:0:0:0:
192,192,69566,1,0,0:0:0:0:
320,192,69718,1,0,0:0:0:0:
192,192,69768,1,0,0:0:0:0:
320,192,69819,1,0,0:0:0:0:
192,192,69869,1,0,0:0:0:0:
448,192,69920,1,0,0:0:0:0:
64,192,69970,1,0,0:0:0:0:
320,192,70021,1,0,0:0:0:0:
64,192,70172,1,0,0:0:0:0:
320,192,70172,1,0,0:0:0:0:
192,192,70223,1,0,0:0:0:0:
448,192,70273,1,0,0:0:0:0:
320,192,70324,1,0,0:0:0:0:
192,192,70374,1,0,0:0:0:0:
64,192,70425,1,0,0:0:0:0:
192,192,70475,1,0,0:0:0:0:
320,192,70526,1,0,0:0:0:0:
64,192,70577,1,0,0:0:0:0:
448,192,70627,1,0,0:0:0:0:
192,192,70678,1,0,0:0:0:0:
64,192,70779,1,0,0:0:0:0:
320,192,70930,5,0,0:0:0:0:
448,192,70981,1,0,0:0:0:0:
64,192,71031,1,0,0:0:0:0:
320,192,71082,1,0,0:0:0:0:
192,192,71132,1,0,0:0:0:0:
320,192,71183,1,0,0:0:0:0:
192,192,71233,1,0,0:0:0:0:
448,192,71385,1,0,0:0:0:0:
192,192,71385,1,0,0:0:0:0:
320,192,71435,1,0,0:0:0:0:
64,192,71486,1,0,0:0:0:0:
192,192,71536,1,0,0:0:0:0:
320,192,71587,1,0,0:0:0:0:
192,192,71637,1,0,0:0:0:0:
320,192,71688,1,0,0:0:0:0:
448,192,71763,1,0,0:0:0:0:
64,192,71839,1,0,0:0:0:0:
448,192,71877,1,0,0:0:0:0:
192,192,71915,1,0,0:0:0:0:
64,192,71953,1,0,0:0:0:0:
448,192,71991,1,0,0:0:0:0:
320,192,72142,1,0,0:0:0:0:
192,192,72193,1,0,0:0:0:0:
320,192,72243,1,0,0:0:0:0:
192,192,72294,1,0,0:0:0:0:
448,192,72344,1,0,0:0:0:0:
64,192,72395,1,0,0:0:0:0:
320,192,72445,1,0,0:0:0:0:
192,192,72597,1,0,0:0:0:0:
448,192,72597,1,0,0:0:0:0:
64,192,72647,1,0,0:0:0:0:
320,192,72698,1,0,0:0:0:0:
192,192,72748,1,0,0:0:0:0:
448,192,72799,1,0,0:0:0:0:
320,192,72849,1,0,0:0:0:0:
64,192,72900,1,0,0:0:0:0:
320,192,73203,1,0,0:0:0:0:
192,192,73279,1,0,0:0:0:0:
192,192,73354,1,0,0:0:0:0:
192,192,73430,1,0,0:0:0:0:
320,192,73506,1,0,0:0:0:0:
64,192,73556,1,0,0:0:0:0:
448,192,73607,1,0,0:0:0:0:
192,192,73657,1,0,0:0:0:0:
448,192,73809,1,0,0:0:0:0:
64,192,73809,1,0,0:0:0:0:
320,192,73859,1,0,0:0:0:0:
64,192,73910,1,0,0:0:0:0:
192,192,73960,1,0,0:0:0:0:
320,192,74011,1,0,0:0:0:0:
192,192,74061,1,0,0:0:0:0:
320,192,74112,1,0,0:0:0:0:
448,192,74150,1,0,0:0:0:0:
64,192,74188,1,0,0:0:0:0:
448,192,74263,1,0,0:0:0:0:
192,192,74301,1,0,0:0:0:0:
320,192,74415,1,0,0:0:0:0:
320,192,74566,1,0,0:0:0:0:
448,192,74617,1,0,0:0:0:0:
64,192,74667,1,0,0:0:0:0:
320,192,74718,1,0,0:0:0:0:
192,192,74768,1,0,0:0:0:0:
320,192,74819,1,0,0:0:0:0:
192,192,74869,1,0,0:0:0:0:
448,192,75021,1,0,0:0:0:0:
64,192,75021,1,0,0:0:0:0:
320,192,75071,1,0,0:0:0:0:
64,192,75122,1,0,0:0:0:0:
192,192,75172,1,0,0:0:0:0:
320,192,75223,1,0,0:0:0:0:
448,192,75273,1,0,0:0:0:0:
320,192,75324,1,0,0:0:0:0:
192,192,75374,1,0,0:0:0:0:
448,192,75425,1,0,0:0:0:0:
64,192,75475,1,0,0:0:0:0:
320,192,75526,1,0,0:0:0:0:
64,192,75627,1,0,0:0:0:0:
192,192,75779,5,0,0:0:0:0:
64,192,75829,1,0,0:0:0:0:
448,192,75880,1,0,0:0:0:0:
192,192,75930,1,0,0:0:0:0:
320,192,75981,1,0,0:0:0:0:
192,192,76031,1,0,0:0:0:0:
320,192,76082,1,0,0:0:0:0:
64,192,76233,1,0,0:0:0:0:
448,192,76233,1,0,0:0:0:0:
192,192,76284,1,0,0:0:0:0:
448,192,76334,1,0,0:0:0:0:
320,192,76385,1,0,0:0:0:0:
192,192,76435,1,0,0:0:0:0:
320,192,76486,1,0,0:0:0:0:
192,192,76536,1,0,0:0:0:0:
448,192,76612,1,0,0:0:0:0:
64,192,76688,1,0,0:0:0:0:
320,192,76839,1,0,0:0:0:0:
64,192,76915,1,0,0:0:0:0:
192,192,76991,1,0,0:0:0:0:
320,192,77041,1,0,0:0:0:0:
192,192,77092,1,0,0:0:0:0:
320,192,77142,1,0,0:0:0:0:
448,192,77193,1,0,0:0:0:0:
64,192,77243,1,0,0:0:0:0:
320,192,77294,1,0,0:0:0:0:
64,192,77445,1,0,0:0:0:0:
448,192,77445,1,0,0:0:0:0:
192,192,77496,1,0,0:0:0:0:
448,192,77546,1,0,0:0:0:0:
320,192,77597,128,0,77748:0:0:0:0:
192,192,77748,1,0,0:0:0:0:
64,192,77824,1,0,0:0:0:0:
448,192,77900,1,0,0:0:0:0:
320,192,77950,1,0,0:0:0:0:
64,192,78001,1,0,0:0:0:0:
192,192,78051,1,0,0:0:0:0:
320,192,78089,1,0,0:0:0:0:
448,192,78127,1,0,0:0:0:0:
64,192,78152,1,0,0:0:0:0:
192,192,78203,1,0,0:0:0:0:
320,192,78253,1,0,0:0:0:0:
64,192,78304,1,0,0:0:0:0:
448,192,78354,1,0,0:0:0:0:
320,192,78405,1,0,0:0:0:0:
192,192,78455,1,0,0:0:0:0:
64,192,78506,1,0,0:0:0:0:
448,192,78556,1,0,0:0:0:0:
192,192,78607,1,0,0:0:0:0:
320,192,78657,1,0,0:0:0:0:
448,192,78708,1,0,0:0:0:0:
64,192,78758,1,0,0:0:0:0:
320,192,78809,1,0,0:0:0:0:
192,192,78859,1,0,0:0:0:0:
448,192,78910,1,0,0:0:0:0:
64,192,78960,1,0,0:0:0:0:
320,192,79011,1,0,0:0:0:0:
192,192,79061,1,0,0:0:0:0:
448,192,79112,1,0,0:0:0:0:
64,192,79162,1,0,0:0:0:0:
192,192,79213,1,0,0:0:0:0:
448,192,79263,1,0,0:0:0:0:
320,192,79324,1,0,0:0:0:0:
64,192,79385,1,0,0:0:0:0:
192,192,79445,1,0,0:0:0:0:
320,192,79506,1,0,0:0:0:0:
64,192,79566,1,0,0:0:0:0:
448,192,79627,1,0,0:0:0:0:
192,192,79688,1,0,0:0:0:0:
320,192,79748,1,0,0:0:0:0:
448,192,79809,1,0,0:0:0:0:
64,192,79869,1,0,0:0:0:0:
192,192,79930,1,0,0:0:0:0:
320,192,79991,1,0,0:0:0:0:
448,192,80051,1,0,0:0:0:0:
192,192,80112,1,0,0:0:0:0:
64,192,80172,1,0,0:0:0:0:
320,192,80233,1,0,0:0:0:0:
448,192,80294,1,0,0:0:0:0:
64,192,80354,1,0,0:0:0:0:
320,192,80415,1,0,0:0:0:0:
192,192,80475,1,0,0:0:0:0:
448,192,80551,1,0,0:0:0:0:
320,192,80627,1,0,0:0:0:0:
64,192,80703,1,0,0:0:0:0:
192,192,80779,1,0,0:0:0:0:
448,192,80779,1,0,0:0:0:0:
320,192,80854,1,0,0:0:0:0:
192,192,80930,1,0,0:0:0:0:
448,192,81006,1,0,0:0:0:0:
64,192,81082,1,0,0:0:0:0:
448,192,81157,1,0,0:0:0:0:
192,192,81233,1,0,0:0:0:0:
320,192,81309,1,0,0:0:0:0:
192,192,81385,1,0,0:0:0:0:
448,192,81385,1,0,0:0:0:0:
320,192,81460,1,0,0:0:0:0:
64,192,81536,1,0,0:0:0:0:
448,192,81612,1,0,0:0:0:0:
192,192,81688,1,0,0:0:0:0:
320,192,81763,1,0,0:0:0:0:
192,192,81839,1,0,0:0:0:0:
192,192,81991,1,0,0:0:0:0:
448,192,81991,1,0,0:0:0:0:
320,192,82066,1,0,0:0:0:0:
448,192,82104,1,0,0:0:0:0:
64,192,82142,1,0,0:0:0:0:
320,192,82218,1,0,0:0:0:0:
192,192,82294,1,0,0:0:0:0:
448,192,82369,1,0,0:0:0:0:
320,192,82445,1,0,0:0:0:0:
192,192,82597,1,0,0:0:0:0:
64,192,82748,1,0,0:0:0:0:
448,192,82748,1,0,0:0:0:0:
320,192,82900,1,0,0:0:0:0:
320,192,83051,1,0,0:0:0:0:
64,192,83203,1,0,0:0:0:0:
320,192,83203,1,0,0:0:0:0:
192,192,83354,1,0,0:0:0:0:
64,192,83430,1,0,0:0:0:0:
448,192,83506,1,0,0:0:0:0:
64,192,83582,1,0,0:0:0:0:
320,192,83657,1,0,0:0:0:0:
192,192,83733,1,0,0:0:0:0:
64,192,83809,1,0,0:0:0:0:
320,192,83809,1,0,0:0:0:0:
192,192,83885,1,0,0:0:0:0:
448,192,83960,1,0,0:0:0:0:
64,192,84036,1,0,0:0:0:0:
320,192,84112,1,0,0:0:0:0:
320,192,84263,1,0,0:0:0:0:
320,192,84415,1,0,0:0:0:0:
64,192,84415,1,0,0:0:0:0:
192,192,84566,1,0,0:0:0:0:
64,192,84642,1,0,0:0:0:0:
320,192,84718,1,0,0:0:0:0:
64,192,84794,1,0,0:0:0:0:
320,192,84869,1,0,0:0:0:0:
192,192,84920,1,0,0:0:0:0:
320,192,84970,1,0,0:0:0:0:
64,192,85021,1,0,0:0:0:0:
448,192,85172,1,0,0:0:0:0:
64,192,85172,1,0,0:0:0:0:
192,192,85324,1,0,0:0:0:0:
192,192,85475,1,0,0:0:0:0:
448,192,85513,1,0,0:0:0:0:
320,192,85551,1,0,0:0:0:0:
64,192,85589,1,0,0:0:0:0:
448,192,85627,1,0,0:0:0:0:
192,192,85627,1,0,0:0:0:0:
320,192,85779,1,0,0:0:0:0:
448,192,85854,1,0,0:0:0:0:
64,192,85930,1,0,0:0:0:0:
448,192,86006,5,0,0:0:0:0:
192,192,86082,1,0,0:0:0:0:
320,192,86157,1,0,0:0:0:0:
448,192,86233,1,0,0:0:0:0:
192,192,86233,1,0,0:0:0:0:
64,192,86385,1,0,0:0:0:0:
448,192,86460,1,0,0:0:0:0:
192,192,86536,1,0,0:0:0:0:
320,192,86612,1,0,0:0:0:0:
192,192,86688,1,0,0:0:0:0:
448,192,86839,1,0,0:0:0:0:
192,192,86839,1,0,0:0:0:0:
64,192,86915,1,0,0:0:0:0:
448,192,86953,1,0,0:0:0:0:
320,192,86991,1,0,0:0:0:0:
192,192,87066,1,0,0:0:0:0:
320,192,87142,1,0,0:0:0:0:
64,192,87218,1,0,0:0:0:0:
192,192,87294,1,0,0:0:0:0:
320,192,87445,1,0,0:0:0:0:
448,192,87597,1,0,0:0:0:0:
64,192,87597,1,0,0:0:0:0:
320,192,87672,1,0,0:0:0:0:
192,192,87748,1,0,0:0:0:0:
192,192,87900,1,0,0:0:0:0:
448,192,88051,1,0,0:0:0:0:
192,192,88051,1,0,0:0:0:0:
320,192,88203,1,0,0:0:0:0:
448,192,88279,1,0,0:0:0:0:
64,192,88354,1,0,0:0:0:0:
448,192,88430,1,0,0:0:0:0:
192,192,88506,1,0,0:0:0:0:
320,192,88582,1,0,0:0:0:0:
448,192,88657,1,0,0:0:0:0:
192,192,88657,1,0,0:0:0:0:
64,192,88809,1,0,0:0:0:0:
320,192,88885,1,0,0:0:0:0:
192,192,88960,1,0,0:0:0:0:
320,192,89036,1,0,0:0:0:0:
320,192,89112,1,0,0:0:0:0:
192,192,89263,1,0,0:0:0:0:
448,192,89263,1,0,0:0:0:0:
192,192,89339,1,0,0:0:0:0:
192,192,89491,1,0,0:0:0:0:
448,192,89566,1,0,0:0:0:0:
64,192,89566,1,0,0:0:0:0:
320,192,89566,1,0,0:0:0:0:
320,192,90021,1,0,0:0:0:0:
64,192,90071,1,0,0:0:0:0:
192,192,90122,1,0,0:0:0:0:
320,192,90172,1,0,0:0:0:0:
448,192,90172,1,0,0:0:0:0:
64,192,90223,1,0,0:0:0:0:
448,192,90273,1,0,0:0:0:0:
320,192,90324,1,0,0:0:0:0:
64,192,90475,1,0,0:0:0:0:
192,192,90475,1,0,0:0:0:0:
448,192,90526,1,0,0:0:0:0:
64,192,90577,1,0,0:0:0:0:
448,192,90627,1,0,0:0:0:0:
64,192,90678,1,0,0:0:0:0:
192,192,90779,1,0,0:0:0:0:
448,192,90779,1,0,0:0:0:0:
320,192,90816,1,0,0:0:0:0:
64,192,90854,1,0,0:0:0:0:
320,192,90930,1,0,0:0:0:0:
64,192,91082,1,0,0:0:0:0:
448,192,91107,1,0,0:0:0:0:
320,192,91132,1,0,0:0:0:0:
192,192,91183,1,0,0:0:0:0:
448,192,91233,1,0,0:0:0:0:
320,192,91385,1,0,0:0:0:0:
448,192,91385,1,0,0:0:0:0:
64,192,91410,1,0,0:0:0:0:
192,192,91435,1,0,0:0:0:0:
448,192,91486,1,0,0:0:0:0:
320,192,91536,1,0,0:0:0:0:
192,192,91688,1,0,0:0:0:0:
64,192,91763,1,0,0:0:0:0:
448,192,91839,1,0,0:0:0:0:
64,192,91991,1,0,0:0:0:0:
320,192,91991,1,0,0:0:0:0:
448,192,92066,1,0,0:0:0:0:
192,192,92142,1,0,0:0:0:0:
448,192,92294,1,0,0:0:0:0:
64,192,92369,1,0,0:0:0:0:
192,192,92445,1,0,0:0:0:0:
320,192,92597,1,0,0:0:0:0:
448,192,92597,1,0,0:0:0:0:
320,192,92748,1,0,0:0:0:0:
448,192,92824,1,0,0:0:0:0:
320,192,92900,1,0,0:0:0:0:
64,192,92975,1,0,0:0:0:0:
192,192,93051,1,0,0:0:0:0:
448,192,93203,1,0,0:0:0:0:
64,192,93203,1,0,0:0:0:0:
192,192,93241,1,0,0:0:0:0:
320,192,93279,1,0,0:0:0:0:
192,192,93354,1,0,0:0:0:0:
448,192,93506,1,0,0:0:0:0:
320,192,93531,1,0,0:0:0:0:
192,192,93582,1,0,0:0:0:0:
320,192,93657,1,0,0:0:0:0:
192,192,93809,1,0,0:0:0:0:
64,192,93809,1,0,0:0:0:0:
320,192,93834,1,0,0:0:0:0:
448,192,93859,1,0,0:0:0:0:
192,192,93910,1,0,0:0:0:0:
320,192,93960,1,0,0:0:0:0:
448,192,94112,1,0,0:0:0:0:
192,192,94188,1,0,0:0:0:0:
448,192,94263,1,0,0:0:0:0:
64,192,94415,1,0,0:0:0:0:
320,192,94415,1,0,0:0:0:0:
192,192,94491,1,0,0:0:0:0:
320,192,94566,1,0,0:0:0:0:
192,192,94642,1,0,0:0:0:0:
448,192,94718,1,0,0:0:0:0:
64,192,94756,1,0,0:0:0:0:
320,192,94794,1,0,0:0:0:0:
192,192,94832,1,0,0:0:0:0:
448,192,94869,1,0,0:0:0:0:
64,192,94907,1,0,0:0:0:0:
320,192,95021,1,0,0:0:0:0:
448,192,95021,1,0,0:0:0:0:
64,192,95097,1,0,0:0:0:0:
192,192,95172,1,0,0:0:0:0:
320,192,95248,1,0,0:0:0:0:
192,192,95324,1,0,0:0:0:0:
64,192,95400,1,0,0:0:0:0:
320,192,95475,1,0,0:0:0:0:
448,192,95627,1,0,0:0:0:0:
64,192,95627,1,0,0:0:0:0:
320,192,95665,1,0,0:0:0:0:
192,192,95703,1,0,0:0:0:0:
320,192,95779,1,0,0:0:0:0:
64,192,95930,1,0,0:0:0:0:
192,192,95955,1,0,0:0:0:0:
320,192,96006,1,0,0:0:0:0:
192,192,96082,1,0,0:0:0:0:
448,192,96233,1,0,0:0:0:0:
320,192,96233,1,0,0:0:0:0:
192,192,96258,1,0,0:0:0:0:
64,192,96284,1,0,0:0:0:0:
320,192,96334,1,0,0:0:0:0:
192,192,96385,1,0,0:0:0:0:
320,192,96536,1,0,0:0:0:0:
192,192,96587,1,0,0:0:0:0:
448,192,96637,1,0,0:0:0:0:
320,192,96688,1,0,0:0:0:0:
64,192,96839,1,0,0:0:0:0:
320,192,96839,1,0,0:0:0:0:
448,192,96915,1,0,0:0:0:0:
192,192,96991,1,0,0:0:0:0:
448,192,97142,1,0,0:0:0:0:
320,192,97167,1,0,0:0:0:0:
192,192,97294,1,0,0:0:0:0:
320,192,97445,1,0,0:0:0:0:
448,192,97445,1,0,0:0:0:0:
64,192,97597,1,0,0:0:0:0:
64,192,97672,1,0,0:0:0:0:
320,192,97748,1,0,0:0:0:0:
64,192,97824,1,0,0:0:0:0:
192,192,97900,1,0,0:0:0:0:
448,192,98051,1,0,0:0:0:0:
64,192,98051,1,0,0:0:0:0:
192,192,98089,1,0,0:0:0:0:
320,192,98127,1,0,0:0:0:0:
192,192,98203,1,0,0:0:0:0:
448,192,98354,1,0,0:0:0:0:
320,192,98380,1,0,0:0:0:0:
192,192,98430,1,0,0:0:0:0:
320,192,98506,1,0,0:0:0:0:
192,192,98657,1,0,0:0:0:0:
64,192,98657,1,0,0:0:0:0:
320,192,98683,1,0,0:0:0:0:
448,192,98708,1,0,0:0:0:0:
192,192,98758,1,0,0:0:0:0:
320,192,98809,1,0,0:0:0:0:
448,192,98960,1,0,0:0:0:0:
64,192,99011,1,0,0:0:0:0:
448,192,99061,1,0,0:0:0:0:
64,192,99112,1,0,0:0:0:0:
448,192,99162,1,0,0:0:0:0:
64,192,99263,1,0,0:0:0:0:
320,192,99263,1,0,0:0:0:0:
192,192,99566,1,0,0:0:0:0:
320,192,99718,1,0,0:0:0:0:
192,192,99869,5,0,0:0:0:0:
320,192,99920,1,0,0:0:0:0:
64,192,99970,1,0,0:0:0:0:
448,192,100021,1,0,0:0:0:0:
320,192,100097,1,0,0:0:0:0:
192,192,100172,1,0,0:0:0:0:
64,192,100172,1,0,0:0:0:0:
320,192,100248,1,0,0:0:0:0:
448,192,100286,1,0,0:0:0:0:
64,192,100324,1,0,0:0:0:0:
192,192,100475,1,0,0:0:0:0:
448,192,100475,1,0,0:0:0:0:
320,192,100551,1,0,0:0:0:0:
448,192,100589,1,0,0:0:0:0:
64,192,100627,1,0,0:0:0:0:
192,192,100779,1,0,0:0:0:0:
320,192,100854,1,0,0:0:0:0:
448,192,100892,1,0,0:0:0:0:
64,192,100930,1,0,0:0:0:0:
320,192,101082,1,0,0:0:0:0:
448,192,101082,1,0,0:0:0:0:
64,192,101157,1,0,0:0:0:0:
192,192,101233,1,0,0:0:0:0:
320,192,101385,1,0,0:0:0:0:
64,192,101460,1,0,0:0:0:0:
192,192,101498,1,0,0:0:0:0:
448,192,101536,1,0,0:0:0:0:
64,192,101688,1,0,0:0:0:0:
320,192,101688,1,0,0:0:0:0:
192,192,101839,1,0,0:0:0:0:
320,192,101890,1,0,0:0:0:0:
192,192,101940,1,0,0:0:0:0:
64,192,101991,1,0,0:0:0:0:
320,192,102066,1,0,0:0:0:0:
448,192,102142,1,0,0:0:0:0:
320,192,102218,1,0,0:0:0:0:
192,192,102294,1,0,0:0:0:0:
192,192,102445,1,0,0:0:0:0:
192,192,102521,1,0,0:0:0:0:
320,192,102597,1,0,0:0:0:0:
192,192,102672,1,0,0:0:0:0:
64,192,102710,1,0,0:0:0:0:
448,192,102748,1,0,0:0:0:0:
320,192,102900,1,0,0:0:0:0:
64,192,102900,1,0,0:0:0:0:
192,192,102975,1,0,0:0:0:0:
64,192,103013,1,0,0:0:0:0:
448,192,103051,1,0,0:0:0:0:
320,192,103203,1,0,0:0:0:0:
192,192,103279,1,0,0:0:0:0:
64,192,103316,1,0,0:0:0:0:
448,192,103354,1,0,0:0:0:0:
192,192,103506,1,0,0:0:0:0:
64,192,103506,1,0,0:0:0:0:
448,192,103582,1,0,0:0:0:0:
320,192,103657,1,0,0:0:0:0:
192,192,103809,1,0,0:0:0:0:
448,192,103885,1,0,0:0:0:0:
320,192,103922,1,0,0:0:0:0:
64,192,103960,1,0,0:0:0:0:
448,192,104112,1,0,0:0:0:0:
192,192,104112,1,0,0:0:0:0:
448,192,104188,1,0,0:0:0:0:
320,192,104263,1,0,0:0:0:0:
320,192,104339,1,0,0:0:0:0:
192,192,104415,1,0,0:0:0:0:
64,192,104415,1,0,0:0:0:0:
448,192,104491,1,0,0:0:0:0:
64,192,104566,1,0,0:0:0:0:
192,192,104642,1,0,0:0:0:0:
320,192,104718,1,0,0:0:0:0:
448,192,104718,1,0,0:0:0:0:
64,192,104794,1,0,0:0:0:0:
192,192,104869,1,0,0:0:0:0:
320,192,104945,1,0,0:0:0:0:
192,192,105021,1,0,0:0:0:0:
320,192,105097,1,0,0:0:0:0:
448,192,105135,1,0,0:0:0:0:
64,192,105172,1,0,0:0:0:0:
192,192,105324,1,0,0:0:0:0:
448,192,105324,1,0,0:0:0:0:
320,192,105400,1,0,0:0:0:0:
448,192,105438,1,0,0:0:0:0:
64,192,105475,1,0,0:0:0:0:
192,192,105627,1,0,0:0:0:0:
320,192,105703,1,0,0:0:0:0:
448,192,105741,1,0,0:0:0:0:
64,192,105779,1,0,0:0:0:0:
320,192,105930,1,0,0:0:0:0:
448,192,105930,1,0,0:0:0:0:
64,192,106006,1,0,0:0:0:0:
192,192,106082,1,0,0:0:0:0:
320,192,106233,1,0,0:0:0:0:
64,192,106309,1,0,0:0:0:0:
192,192,106347,1,0,0:0:0:0:
448,192,106385,1,0,0:0:0:0:
64,192,106536,1,0,0:0:0:0:
320,192,106536,1,0,0:0:0:0:
192,192,106688,1,0,0:0:0:0:
320,192,106738,1,0,0:0:0:0:
192,192,106789,1,0,0:0:0:0:
64,192,106839,1,0,0:0:0:0:
320,192,106915,1,0,0:0:0:0:
448,192,106991,1,0,0:0:0:0:
320,192,107066,1,0,0:0:0:0:
192,192,107142,1,0,0:0:0:0:
448,192,107294,1,0,0:0:0:0:
320,192,107332,1,0,0:0:0:0:
64,192,107369,1,0,0:0:0:0:
192,192,107407,1,0,0:0:0:0:
320,192,107445,1,0,0:0:0:0:
192,192,107521,1,0,0:0:0:0:
64,192,107559,1,0,0:0:0:0:
448,192,107597,1,0,0:0:0:0:
320,192,107748,1,0,0:0:0:0:
64,192,107748,1,0,0:0:0:0:
192,192,107824,1,0,0:0:0:0:
64,192,107862,1,0,0:0:0:0:
448,192,107900,1,0,0:0:0:0:
320,192,108051,1,0,0:0:0:0:
192,192,108127,1,0,0:0:0:0:
64,192,108165,1,0,0:0:0:0:
448,192,108203,1,0,0:0:0:0:
192,192,108354,1,0,0:0:0:0:
64,192,108354,1,0,0:0:0:0:
448,192,108430,1,0,0:0:0:0:
320,192,108506,1,0,0:0:0:0:
192,192,108657,1,0,0:0:0:0:
448,192,108733,1,0,0:0:0:0:
320,192,108771,1,0,0:0:0:0:
64,192,108809,1,0,0:0:0:0:
64,192,108960,1,0,0:0:0:0:
192,192,108979,1,0,0:0:0:0:
448,192,108979,1,0,0:0:0:0:
320,192,108986,1,0,0:0:0:0:
