osu file format v14

[General]
AudioFilename: audio.mp3
AudioLeadIn: 0
PreviewTime: 32021
Countdown: 0
SampleSet: Soft
StackLeniency: 0.7
Mode: 0
LetterboxInBreaks: 0
WidescreenStoryboard: 1

[Editor]
DistanceSpacing: 0.1
BeatDivisor: 4
GridSize: 4
TimelineZoom: 3.899999

[Metadata]
Title:ricky bobby
TitleUnicode:ricky bobby
Artist:leroy
ArtistUnicode:leroy
Creator:moonpoint
Version:lx
Source:
Tags:jane remover dltzk c0ncernn instrumental edm electronic dance music dariacore hyperflip fsjallink kataryn cyndifusic
BeatmapID:4392429
BeatmapSetID:2093889

[Difficulty]
HPDrainRate:5
CircleSize:4
OverallDifficulty:9
ApproachRate:9.4
SliderMultiplier:1.5
SliderTickRate:1

[Events]
//Background and Video events
0,0,"341215-Anime-Girls-Skull-Art.jpg",0,0
//Break Periods
//Storyboard Layer 0 (Background)
//Storyboard Layer 1 (Fail)
//Storyboard Layer 2 (Pass)
//Storyboard Layer 3 (Foreground)
//Storyboard Layer 4 (Overlay)
//Storyboard Sound Samples

[TimingPoints]
16,250,4,2,1,81,1,0
28266,-100,4,2,1,5,0,0
31516,-100,4,2,1,81,0,0
48016,-50,4,2,1,81,0,0
49016,-100,4,2,1,81,0,0
55516,-66.6666666666667,4,2,1,81,0,0
56016,-100,4,2,1,81,0,0
56766,-66.6666666666667,4,2,1,81,0,0
57016,-100,4,2,1,81,0,0
57266,-66.6666666666667,4,2,1,81,0,0
57391,-100,4,2,1,81,0,0
58016,-66.6666666666667,4,2,1,81,0,0
58391,-100,4,2,1,81,0,0
69516,-66.6666666666667,4,2,1,81,0,0
70016,-100,4,2,1,81,0,0
73516,-75.187969924812,4,2,1,81,0,0
74016,-100,4,2,1,81,0,0
77516,-75.187969924812,4,2,1,81,0,0
78016,-100,4,2,1,81,0,0
80016,-75.187969924812,4,2,1,81,0,0
80516,-166.666666666667,4,2,1,81,0,0
81516,-75.187969924812,4,2,1,81,0,0
82016,-100,4,2,1,81,0,0
84141,-75.187969924812,4,2,1,81,0,0
84516,-166.666666666667,4,2,1,81,0,0
85516,-75.187969924812,4,2,1,81,0,0
86016,-100,4,2,1,81,0,0
88516,-80,4,2,1,81,0,0
89016,-100,4,2,1,81,0,0
89516,-75.187969924812,4,2,1,81,0,0
90016,-100,4,2,1,81,0,0
92141,-75.187969924812,4,2,1,81,0,0
92516,-100,4,2,1,81,0,0
93516,-75.187969924812,4,2,1,81,0,0
96516,-100,4,2,1,81,0,0
97516,-75.187969924812,4,2,1,81,0,0
98016,-57.1428571428571,4,2,1,81,0,0
99016,-66.6666666666667,4,2,1,81,0,0
99516,-133.333333333333,4,2,1,81,0,0
100141,-66.6666666666667,4,2,1,81,0,0
101516,-100,4,2,1,81,0,0
102016,-133.333333333333,4,2,1,81,0,0
103016,-66.6666666666667,4,2,1,81,0,0
103516,-100,4,2,1,81,0,0

[Colours]
Combo1 : 128,0,255
Combo2 : 192,192,192
Combo3 : 128,128,128
Combo4 : 208,172,140

[HitObjects]
256,192,28266,12,0,31266,0:0:0:0:
149,163,31516,5,8,0:0:0:0:
236,139,31641,1,8,0:0:0:0:
301,240,31766,1,8,0:0:0:0:
380,216,31891,1,8,0:0:0:0:
380,216,31953,1,8,0:0:0:0:
380,216,32016,5,6,3:2:0:0:
420,73,32141,1,0,3:2:0:0:
286,53,32266,2,0,P|275:16|270:-20,1,75,2|0,3:2|0:0,0:0:0:0:
83,196,32516,2,0,P|156:200|185:264,1,150,10|2,0:0|0:0,0:0:0:0:
133,327,32891,1,0,0:0:0:0:
70,272,33016,5,2,3:2:0:0:
303,329,33141,2,0,P|350:341|397:354,1,75,0|0,3:2|0:0,0:0:0:0:
454,192,33391,1,2,0:0:0:0:
207,130,33516,2,0,P|126:146|46:163,1,150,8|0,0:0|3:2,0:0:0:0:
42,154,33828,1,0,3:2:0:0:
25,145,33891,1,0,3:2:0:0:
159,55,34016,5,6,3:2:0:0:
285,137,34141,1,0,3:2:0:0:
78,71,34266,2,0,P|42:57|6:43,1,75,2|0,3:2|0:0,0:0:0:0:
248,320,34516,2,0,P|315:298|328:199,1,150,8|2,0:0|0:0,0:0:0:0:
260,213,34891,1,0,0:0:0:0:
480,56,35016,5,2,3:2:0:0:
297,142,35141,1,0,3:2:0:0:
441,126,35266,2,0,P|456:159|454:196,1,75,2|0,0:0|0:0,0:0:0:0:
236,330,35516,2,0,P|198:291|90:287,1,150,8|2,0:0|0:0,0:0:0:0:
99,290,35828,1,2,0:0:0:0:
90,301,35891,1,2,0:0:0:0:
162,363,36016,5,6,3:2:0:0:
123,197,36141,1,0,3:0:0:0:
2,305,36266,2,0,P|17:342|45:380,1,75,2|0,0:2|0:0,0:0:0:0:
258,192,36516,2,0,P|264:125|179:63,1,150,8|2,0:0|0:0,0:0:0:0:
138,113,36891,1,0,0:0:0:0:
289,24,37016,5,2,3:2:0:0:
436,3,37141,2,0,P|476:15|511:49,1,75,0|0,3:2|0:0,0:0:0:0:
368,271,37391,1,2,0:0:0:0:
117,283,37516,2,0,P|74:244|59:130,1,150,8|0,0:0|3:0,0:0:0:0:
59,150,37828,1,0,3:0:0:0:
67,139,37891,1,0,3:0:0:0:
358,186,38016,5,4,3:2:0:0:
222,266,38141,1,10,3:2:0:0:
253,97,38266,1,10,3:2:0:0:
191,188,38391,5,2,0:0:0:0:
468,175,38516,1,10,0:0:0:0:
35,164,39016,1,4,0:0:0:0:
406,121,39516,1,2,0:0:0:0:
314,360,40016,5,4,3:2:0:0:
196,369,40141,2,0,P|193:327|184:288,1,75,0|0,3:0|0:0,0:0:0:0:
376,298,40391,5,0,0:0:0:0:
110,278,40516,2,0,P|117:232|117:200,1,75,8|0,0:0|0:0,0:0:0:0:
412,152,40766,5,2,3:2:0:0:
205,179,40891,1,0,0:0:0:0:
332,143,41016,5,0,3:0:0:0:
142,124,41141,2,0,P|146:85|144:32,1,75
465,42,41391,5,2,0:0:0:0:
59,54,41516,1,8,0:0:0:0:
59,54,41766,1,0,3:0:0:0:
265,373,42016,5,2,3:2:0:0:
117,320,42141,1,2,3:2:0:0:
388,343,42266,2,0,P|396:295|396:239,1,75,2|0,3:2|0:0,0:0:0:0:
174,266,42516,5,8,0:0:0:0:
262,235,42641,1,0,0:0:0:0:
30,202,42766,2,0,P|23:157|22:127,1,75,2|0,3:2|0:0,0:0:0:0:
348,165,43016,5,0,3:2:0:0:
150,179,43141,2,0,P|152:137|163:89,1,75
401,50,43391,5,0,0:0:0:0:
226,30,43516,1,8,0:0:0:0:
226,30,43766,1,2,0:0:0:0:
160,361,44016,5,6,3:2:0:0:
346,362,44141,2,0,P|350:315|353:273,1,75,0|0,3:2|3:0,0:0:0:0:
228,300,44391,5,0,0:0:0:0:
438,291,44516,2,0,P|437:239|435:198,1,75,8|0,0:0|0:0,0:0:0:0:
132,249,44766,5,2,3:2:0:0:
313,232,44891,1,0,0:0:0:0:
181,140,45016,5,0,3:0:0:0:
377,167,45141,2,0,P|372:113|364:76,1,75
102,38,45391,5,2,0:0:0:0:
446,54,45516,1,8,0:0:0:0:
446,54,45766,1,0,3:0:0:0:
137,375,46016,5,2,3:2:0:0:
357,326,46141,1,2,3:2:0:0:
188,309,46266,2,0,P|180:263|175:214,1,75,2|0,3:2|0:0,0:0:0:0:
433,200,46516,1,8,0:0:0:0:
291,206,47516,6,2,P|253:156|226:213,1,150,4|0,0:0|0:0,0:0:0:0:
239,203,48016,2,2,P|254:174|278:196,1,75,6|0,3:2|0:0,0:0:0:0:
456,314,48266,5,0,0:0:0:0:
344,231,48391,1,2,0:0:0:0:
376,303,48516,1,8,0:0:0:0:
470,176,48641,1,2,0:0:0:0:
503,257,48766,1,0,0:0:0:0:
393,168,48891,1,2,0:0:0:0:
250,86,49016,6,0,P|260:46|256:-6,1,75,0|2,3:2|0:0,0:0:0:0:
94,180,49266,2,0,P|131:179|164:194,1,75,0|2,3:2|0:0,0:0:0:0:
362,317,49516,2,0,P|332:350|218:373,1,150,8|0,0:0|3:0,0:0:0:0:
144,104,50016,1,6,3:2:0:0:
144,104,50266,5,0,0:0:0:0:
58,132,50391,1,2,0:0:0:0:
135,191,50516,1,8,0:0:0:0:
77,47,50641,1,2,0:0:0:0:
230,76,50766,1,0,0:0:0:0:
144,104,50891,1,2,0:0:0:0:
314,230,51016,5,0,3:2:0:0:
347,94,51141,1,2,3:2:0:0:
439,188,51266,2,0,P|477:197|529:193,1,75,0|0,3:2|0:0,0:0:0:0:
199,308,51516,2,0,P|126:288|52:295,1,150,8|2,0:0|0:0,0:0:0:0:
455,343,52016,1,6,3:2:0:0:
455,343,52266,5,0,0:0:0:0:
372,337,52391,1,2,0:0:0:0:
465,199,52516,1,8,0:0:0:0:
509,274,52641,1,2,0:0:0:0:
282,251,52766,2,0,P|253:277|255:383,1,150,2|0,0:0|3:2,0:0:0:0:
133,279,53141,1,0,3:2:0:0:
197,213,53266,2,0,P|213:172|218:142,1,75,0|2,3:2|0:0,0:0:0:0:
56,17,53516,2,0,P|48:59|50:101,1,75,8|0,0:0|0:0,0:0:0:0:
294,109,53766,5,2,0:0:0:0:
396,55,53891,1,2,0:0:0:0:
493,127,54016,2,0,P|503:203|492:289,2,150,0|0|4,3:2|0:0|0:0,0:0:0:0:
19,257,54766,6,0,P|9:181|20:95,1,150,6|8,3:2|0:0,0:0:0:0:
108,182,55141,1,2,3:2:0:0:
210,161,55266,2,0,P|212:122|209:69,1,75,10|0,0:0|3:0,0:0:0:0:
369,321,55516,6,2,P|296:344|200:346,1,168.750006437302,0|0,3:2|0:0,0:0:0:0:
326,248,55766,2,2,P|343:181|338:55,1,168.750006437302,0|0,3:2|0:0,0:0:0:0:
230,31,56016,5,2,3:2:0:0:
250,121,56141,1,0,3:2:0:0:
440,74,56266,2,0,P|465:116|465:163,1,75,10|2,0:0|0:0,0:0:0:0:
507,219,56453,1,2,0:0:0:0:
493,231,56516,2,0,P|455:246|416:239,1,75,0|8,3:0|0:0,0:0:0:0:
189,195,56766,6,2,P|199:226|206:261,1,56.2500021457673,0|0,3:2|0:0,0:0:0:0:
319,367,56891,2,2,P|332:340|341:223,1,112.500004291535,0|0,3:2|3:0,0:0:0:0:
97,168,57141,1,8,0:0:0:0:
24,253,57266,2,2,P|80:280|137:285,1,112.500004291535,0|2,3:2|3:2,0:0:0:0:
264,149,57516,2,0,P|265:74|254:0,1,150,8|8,0:0|0:0,0:0:0:0:
162,70,57891,1,2,0:0:0:0:
315,240,58016,6,2,P|378:227|429:174,1,112.500004291535,0|0,3:2|3:0,0:0:0:0:
230,338,58266,1,8,0:0:0:0:
146,298,58391,2,0,P|111:284|74:278,1,75,2|8,0:0|0:0,0:0:0:0:
203,56,58641,6,0,P|138:66|102:152,1,150,6|10,3:2|0:0,0:0:0:0:
321,205,58953,1,2,0:0:0:0:
291,220,59016,2,0,P|237:215|200:120,1,150,6|10,3:2|0:0,0:0:0:0:
408,153,59328,1,2,0:0:0:0:
404,115,59391,2,0,P|380:79|280:62,1,150,6|10,3:2|0:0,0:0:0:0:
331,311,59766,1,10,0:0:0:0:
331,311,59828,1,2,0:0:0:0:
331,311,59891,1,2,0:0:0:0:
487,141,60016,5,6,3:2:0:0:
348,206,60141,1,0,3:2:0:0:
477,235,60266,2,0,P|486:271|485:318,1,75,10|0,0:0|0:0,0:0:0:0:
251,332,60516,1,2,3:2:0:0:
396,381,60641,2,0,P|409:338|413:295,1,75,10|0,0:0|0:0,0:0:0:0:
283,132,60891,1,0,3:2:0:0:
114,192,61016,2,0,P|99:237|108:280,1,75,2|2,3:2|0:0,0:0:0:0:
169,324,61203,1,2,0:0:0:0:
188,314,61266,2,0,P|220:300|246:254,1,75,8|0,0:0|3:0,0:0:0:0:
133,49,61516,1,6,3:2:0:0:
133,49,61578,1,2,0:0:0:0:
133,49,61641,1,2,0:0:0:0:
199,178,61766,1,8,0:0:0:0:
49,234,61891,1,0,3:0:0:0:
112,133,62016,5,2,3:2:0:0:
382,193,62141,1,2,3:2:0:0:
256,98,62266,2,0,P|245:43|247:16,1,75,8|0,0:0|0:0,0:0:0:0:
468,189,62516,1,10,0:0:0:0:
300,291,62641,1,0,3:0:0:0:
300,291,62703,1,0,0:0:0:0:
300,291,62766,2,0,P|233:300|133:296,1,150,0|0,3:2|0:0,0:0:0:0:
407,2,64016,5,6,3:2:0:0:
512,81,64141,1,2,3:2:0:0:
481,7,64266,1,10,0:2:0:0:
496,139,64391,1,2,0:2:0:0:
394,56,64516,1,2,0:2:0:0:
445,150,64641,1,10,0:2:0:0:
334,29,64766,1,2,0:2:0:0:
413,181,64891,1,2,0:2:0:0:
310,95,65016,1,2,3:2:0:0:
361,179,65141,1,2,3:2:0:0:
255,104,65266,1,10,0:2:0:0:
326,210,65391,1,2,3:2:0:0:
209,104,65516,1,10,0:2:0:0:
359,293,65641,1,2,0:2:0:0:
159,122,65766,1,10,0:2:0:0:
287,319,65891,1,2,0:2:0:0:
193,193,66016,1,2,3:2:0:0:
211,291,66141,1,0,3:0:0:0:
135,186,66266,1,8,0:0:0:0:
177,298,66391,1,8,0:0:0:0:
104,234,66516,1,0,3:0:0:0:
141,330,66641,1,8,0:0:0:0:
65,273,66766,1,0,0:0:0:0:
90,378,66891,1,8,0:0:0:0:
25,288,67016,1,0,3:0:0:0:
194,384,67141,5,2,0:0:0:0:
54,165,67266,5,2,3:2:0:0:
277,251,67391,6,0,P|279:199|280:98,1,150,14|0,0:0|0:0,0:0:0:0:
254,0,67766,1,10,0:0:0:0:
254,0,67828,1,2,0:0:0:0:
254,0,67891,1,2,0:0:0:0:
16,89,68016,5,6,3:2:0:0:
102,192,68141,1,0,3:0:0:0:
169,11,68266,2,0,P|183:49|186:88,1,75,8|2,0:0|0:0,0:0:0:0:
271,160,68453,1,2,0:0:0:0:
253,175,68516,2,0,P|203:175|163:161,1,75,2|8,3:2|0:0,0:0:0:0:
20,207,68766,1,0,0:0:0:0:
122,271,68891,1,0,0:0:0:0:
46,308,69016,5,0,3:0:0:0:
291,256,69141,2,0,P|346:252|383:265,1,75,8|2,0:0|3:2,0:0:0:0:
388,241,69328,1,0,0:0:0:0:
409,228,69391,1,2,0:0:0:0:
364,23,69516,6,2,L|119:49,1,225.000008583069,6|8,3:2|0:0,0:0:0:0:
373,131,69891,1,2,0:0:0:0:
269,180,70016,5,2,3:2:0:0:
440,298,70141,2,0,P|458:332|468:370,1,75,2|8,3:2|0:0,0:0:0:0:
306,283,70391,1,0,0:0:0:0:
368,348,70516,1,2,0:0:0:0:
187,265,70641,2,0,P|147:257|106:256,1,75,2|10,3:2|0:0,0:0:0:0:
239,346,70891,1,2,0:0:0:0:
79,357,71016,2,0,P|37:367|-3:386,1,75,2|0,3:2|0:0,0:0:0:0:
112,255,71266,1,8,0:0:0:0:
19,288,71391,1,0,3:0:0:0:
255,143,71516,5,8,0:0:0:0:
255,143,71641,1,8,0:0:0:0:
255,143,71766,1,8,0:0:0:0:
255,143,71891,2,0,L|255:204,1,37.5,8|8,0:0|0:0,0:0:0:0:
454,184,72016,5,6,3:2:0:0:
342,161,72141,1,0,3:2:0:0:
506,114,72266,2,0,P|506:72|422:18,1,150,2|8,0:0|0:0,0:0:0:0:
220,78,72641,1,0,0:0:0:0:
302,78,72766,5,2,0:0:0:0:
238,0,72891,1,0,3:2:0:0:
72,131,73016,5,2,3:2:0:0:
141,239,73141,1,0,3:2:0:0:
152,155,73266,5,0,3:2:0:0:
13,245,73391,1,2,0:0:0:0:
152,340,73516,6,2,B|199:337|199:337|250:262|250:262|234:223|234:223|273:161|273:161|333:158,1,299.24998767128,14|0,0:0|0:0,0:0:0:0:
482,341,74016,5,2,3:2:0:0:
368,374,74141,2,0,P|342:334|335:227,1,150,2|0,3:2|0:0,0:0:0:0:
182,55,74516,2,0,P|198:101|203:149,1,75,8|0,0:0|0:0,0:0:0:0:
117,205,74766,1,2,0:0:0:0:
117,205,75016,5,0,3:2:0:0:
4,184,75141,1,0,3:2:0:0:
74,135,75266,1,0,3:2:0:0:
395,179,75516,1,8,0:0:0:0:
508,200,75641,1,0,0:0:0:0:
438,249,75766,2,0,L|393:266,1,37.5,2|0,0:0|0:0,0:0:0:0:
309,39,76016,5,6,3:2:0:0:
493,2,76141,2,0,P|509:46|414:103,1,150,2|0,3:2|0:0,0:0:0:0:
256,194,76516,2,0,P|241:157|234:115,1,75,8|0,0:0|0:0,0:0:0:0:
345,208,76766,5,2,0:0:0:0:
274,275,76891,1,0,3:2:0:0:
108,268,77016,5,2,3:2:0:0:
173,202,77141,1,0,3:2:0:0:
179,288,77266,5,0,3:2:0:0:
94,166,77391,1,2,0:0:0:0:
25,343,77516,6,2,B|1:383|1:383|106:350|106:350|254:382,1,299.24998767128,14|0,0:0|0:0,0:0:0:0:
497,361,78016,5,2,3:2:0:0:
326,236,78141,2,0,P|356:277|381:376,1,150,2|0,3:2|0:0,0:0:0:0:
255,301,78516,1,8,0:0:0:0:
255,301,79016,1,4,0:0:0:0:
255,301,79516,1,0,0:0:0:0:
255,301,79766,2,0,L|256:256,2,37.5,2|0|0,0:0|0:0|0:0,0:0:0:0:
436,61,80016,6,2,B|495:92|495:92|481:142|481:142|440:153|440:153|381:119|381:119|308:149,1,300,6|0,3:2|0:0,0:0:0:0:
90,236,80516,2,0,L|20:267,1,67.4999979400635,8|0,0:0|0:0,0:0:0:0:
97,317,80766,5,2,0:0:0:0:
125,164,80891,1,0,3:2:0:0:
48,168,81016,5,2,3:2:0:0:
169,231,81141,1,0,3:2:0:0:
155,89,81266,1,0,3:2:0:0:
169,231,81391,1,2,0:0:0:0:
310,57,81516,6,2,B|340:126|340:126|309:211|309:211|270:203|270:203|210:160|210:160|223:133,1,299.24998767128,14|0,0:0|0:0,0:0:0:0:
98,23,82016,6,0,P|54:21|1:18,2,75,2|0|2,3:2|3:0|3:2,0:0:0:0:
479,31,82516,1,8,0:0:0:0:
234,71,82766,1,2,0:0:0:0:
461,183,83016,1,0,3:2:0:0:
315,200,83141,1,0,3:2:0:0:
386,174,83266,1,0,0:2:0:0:
35,265,83516,1,8,0:0:0:0:
187,289,83641,1,0,0:0:0:0:
112,258,83766,2,0,L|110:193,1,37.5,2|0,0:0|0:0,0:0:0:0:
491,228,84016,5,6,3:2:0:0:
441,371,84141,2,2,B|387:388|387:388|338:338|338:338|364:232|364:232,1,199.499991780854,2|0,3:2|0:0,0:0:0:0:
262,179,84516,2,0,L|252:113,1,67.4999979400635,8|0,0:0|0:0,0:0:0:0:
183,154,84766,5,2,0:0:0:0:
335,196,84891,1,0,3:2:0:0:
211,237,85016,5,2,3:2:0:0:
181,77,85141,1,0,3:2:0:0:
211,237,85266,1,0,3:2:0:0:
331,122,85391,1,2,0:0:0:0:
29,280,85516,6,2,B|15:232|15:232|44:202|44:202|133:214|133:214|116:277|116:277|85:321|85:321,1,299.24998767128,12|0,0:0|0:0,0:0:0:0:
254,365,86016,6,0,P|216:370|180:378,2,75,0|0|2,3:2|3:0|3:2,0:0:0:0:
512,384,86516,1,8,0:0:0:0:
256,192,86641,12,0,87891,0:0:0:0:
35,154,88516,6,0,P|41:200|48:247,1,93.75,2|0,3:2|0:0,0:0:0:0:
181,212,88766,2,0,P|184:165|187:118,1,93.75,0|0,3:2|0:0,0:0:0:0:
423,155,89016,2,0,P|474:226|454:292,1,150,10|0,0:0|0:0,0:0:0:0:
510,355,89391,1,2,0:0:0:0:
368,239,89516,6,2,B|311:227|311:227|264:260|264:260|246:326|246:326|190:356|190:356|131:330,1,299.24998767128,14|0,0:2|0:0,0:0:0:0:
198,77,90016,5,2,0:0:0:0:
236,168,90141,1,0,0:0:0:0:
106,145,90266,2,0,P|60:142|26:144,1,75,2|0,3:2|0:0,0:0:0:0:
288,37,90516,2,0,P|338:46|451:20,1,150,8|2,0:0|0:0,0:0:0:0:
495,88,90891,1,0,3:2:0:0:
324,139,91016,5,2,3:2:0:0:
512,170,91141,1,0,3:2:0:0:
366,215,91266,2,0,P|356:258|363:298,1,75,2|0,3:2|0:0,0:0:0:0:
256,383,91516,2,0,P|240:340|136:299,1,150,10|2,0:0|0:0,0:0:0:0:
261,78,92016,6,2,P|276:56|281:23,1,37.5,6|0,3:2|0:0,0:0:0:0:
90,11,92141,2,2,B|59:53|59:53|130:121|130:121|167:120|167:120|201:33,1,249.374989726067,2|0,3:2|0:0,0:0:0:0:
306,87,92516,2,0,P|312:50|304:13,1,75,8|0,0:0|0:0,0:0:0:0:
249,221,92766,5,2,3:2:0:0:
38,179,92891,1,0,3:2:0:0:
249,221,93016,5,2,3:2:0:0:
127,248,93141,1,0,3:2:0:0:
316,277,93266,6,0,P|315:322|313:354,1,75,0|2,3:2|0:0,0:0:0:0:
161,379,93516,6,0,B|110:359|110:359|85:315,1,99.7499958904268,10|0,0:0|0:0,0:0:0:0:
412,303,93766,6,0,B|442:259|442:259|436:192,1,99.7499958904268,8|0,0:0|0:0,0:0:0:0:
256,192,94016,12,0,96016,3:0:0:0:
214,137,96516,6,0,P|210:89|207:47,1,75,2|0,3:2|0:0,0:0:0:0:
88,216,96766,2,0,P|45:211|-2:202,1,75,2|0,3:2|0:0,0:0:0:0:
402,174,97016,1,4,0:0:0:0:
310,128,97141,1,0,3:2:0:0:
402,174,97266,5,2,3:2:0:0:
221,223,97391,1,0,3:2:0:0:
388,33,97516,6,2,B|428:-2|428:-2|492:4|492:4|510:34|510:34|474:113|474:113|412:96,1,299.24998767128,14|0,0:0|0:0,0:0:0:0:
47,77,98016,6,2,L|192:32,1,131.250001251698,6|0,3:2|0:0,0:0:0:0:
258,191,98266,1,8,0:0:0:0:
218,290,98391,1,0,0:0:0:0:
413,320,98516,5,10,0:0:0:0:
349,272,98641,1,2,0:0:0:0:
289,320,98766,1,2,0:0:0:0:
229,272,98891,1,2,0:0:0:0:
56,356,99016,5,6,3:2:0:0:
164,208,99141,2,0,P|114:181|54:176,1,112.500004291535,2|0,0:2|3:0,0:0:0:0:
301,130,99391,1,2,0:0:0:0:
396,188,99516,2,0,P|469:176|512:145,1,112.500004291535,2|2,0:0|0:0,0:0:0:0:
223,53,100016,5,6,3:2:0:0:
73,27,100141,2,2,B|33:20|33:20|5:72|5:72|36:113|36:113|62:117|62:117|116:93,1,225.000008583069,2|0,3:2|0:0,0:0:0:0:
351,210,100516,1,10,0:0:0:0:
285,169,100641,1,2,0:0:0:0:
223,207,100766,1,2,0:0:0:0:
161,166,100891,1,2,0:0:0:0:
432,267,101016,5,2,3:2:0:0:
347,378,101141,2,0,P|305:332|290:266,1,112.500004291535,2|0,0:0|3:0,0:0:0:0:
450,225,101391,1,2,0:0:0:0:
391,35,101516,6,0,P|375:71|380:126,1,75,12|0,0:0|0:0,0:0:0:0:
186,283,101766,2,0,P|201:249|202:211,1,75,8|0,0:0|0:0,0:0:0:0:
38,125,102016,6,0,P|32:154|52:240,1,112.500004291535,2|2,0:0|0:0,0:0:0:0:
474,190,102516,1,8,0:0:0:0:
474,190,103016,6,0,P|411:190|352:191,1,112.500004291535,4|0,0:0|0:0,0:0:0:0:
474,190,103516,2,0,L|381:169,2,75,8|0|0,0:0|0:0|0:0,0:0:0:0:
