osu file format v14

[General]
AudioFilename: audio.mp3
AudioLeadIn: 0
PreviewTime: 32021
Countdown: 0
SampleSet: Soft
StackLeniency: 0.7
Mode: 0
LetterboxInBreaks: 0
WidescreenStoryboard: 1

[Editor]
DistanceSpacing: 0.1
BeatDivisor: 4
GridSize: 4
TimelineZoom: 1.6

[Metadata]
Title:ricky bobby
TitleUnicode:ricky bobby
Artist:leroy
ArtistUnicode:leroy
Creator:moonpoint
Version:k's i
Source:
Tags:jane remover dltzk c0ncernn instrumental edm electronic dance music dariacore hyperflip fsjallink kataryn cyndifusic
BeatmapID:4404576
BeatmapSetID:2093889

[Difficulty]
HPDrainRate:4.7
CircleSize:3.8
OverallDifficulty:8.2
ApproachRate:8.8
SliderMultiplier:1.5
SliderTickRate:1

[Events]
//Background and Video events
0,0,"341215-Anime-Girls-Skull-Art.jpg",0,0
//Break Periods
//Storyboard Layer 0 (Background)
//Storyboard Layer 1 (Fail)
//Storyboard Layer 2 (Pass)
//Storyboard Layer 3 (Foreground)
//Storyboard Layer 4 (Overlay)
//Storyboard Sound Samples

[TimingPoints]
16,250,4,2,1,81,1,0
30016,-116.279069767442,4,2,1,81,0,0
31391,-120.918984280532,4,2,1,81,0,0
31516,-120.918984280532,4,2,1,81,0,0
32141,-86.9565217391304,4,2,1,81,0,0
33703,-86.9565217391304,4,2,1,81,0,0
33766,-86.9565217391304,4,2,1,81,0,0
34641,-86.9565217391304,4,2,1,81,0,0
34766,-86.9565217391304,4,2,1,81,0,0
34828,-86.9565217391304,4,2,1,81,0,0
35016,-86.9565217391304,4,2,1,81,0,0
36641,-86.9565217391304,4,2,1,81,0,0
36766,-86.9565217391304,4,2,1,81,0,0
37641,-86.9565217391304,4,2,1,81,0,0
37766,-86.9565217391304,4,2,1,81,0,0
38766,-76.9230769230769,4,2,1,81,0,0
39016,-76.9230769230769,4,2,1,81,0,0
39390,-76.9230769230769,4,2,1,81,0,0
39516,-76.9230769230769,4,2,1,81,0,0
39641,-86.9565217391304,4,2,1,81,0,0
39766,-86.9565217391304,4,2,1,81,0,0
40016,-86.9565217391304,4,2,1,81,0,0
41641,-86.9565217391304,4,2,1,81,0,0
41766,-86.9565217391304,4,2,1,81,0,0
41828,-86.9565217391304,4,2,1,81,0,0
42016,-86.9565217391304,4,2,1,81,0,0
42828,-86.9565217391304,4,2,1,81,0,0
43016,-86.9565217391304,4,2,1,81,0,0
43766,-133.333333333333,4,2,1,81,0,0
43891,-133.333333333333,4,2,1,81,0,0
44016,-133.333333333333,4,2,1,81,0,0
44141,-86.9565217391304,4,2,1,81,0,0
45828,-86.9565217391304,4,2,1,81,0,0
46016,-86.9565217391304,4,2,1,81,0,0
47516,-76.9230769230769,4,2,1,81,0,0
48016,-95.2380952380952,4,2,1,81,0,0
51640,-95.2380952380952,4,2,1,81,0,0
51766,-95.2380952380952,4,2,1,81,0,0
52766,-76.9230769230769,4,2,1,81,0,0
54016,-90.9090909090909,4,2,1,81,0,0
54141,-90.9090909090909,4,2,1,81,0,0
54266,-90.9090909090909,4,2,1,81,0,0
54391,-90.9090909090909,4,2,1,81,0,0
54516,-90.9090909090909,4,2,1,81,0,0
54766,-83.3333333333333,4,2,1,81,0,0
55640,-83.3333333333333,4,2,1,81,0,0
55766,-83.3333333333333,4,2,1,81,0,0
55890,-83.3333333333333,4,2,1,81,0,0
56016,-100,4,2,1,81,0,0
56578,-100,4,2,1,81,0,0
56641,-100,4,2,1,81,0,0
57078,-100,4,2,1,81,0,0
57141,-100,4,2,1,81,0,0
57328,-100,4,2,1,81,0,0
57391,-100,4,2,1,81,0,0
57578,-100,4,2,1,81,0,0
57766,-100,4,2,1,81,0,0
57953,-100,4,2,1,81,0,0
58016,-100,4,2,1,81,0,0
58453,-100,4,2,1,81,0,0
58516,-100,4,2,1,81,0,0
58828,-100,4,2,1,81,0,0
58891,-100,4,2,1,81,0,0
59703,-100,4,2,1,81,0,0
59766,-100,4,2,1,81,0,0
59953,-100,4,2,1,81,0,0
60016,-100,4,2,1,81,0,0
60453,-100,4,2,1,81,0,0
60515,-100,4,2,1,81,0,0
60828,-100,4,2,1,81,0,0
60890,-100,4,2,1,81,0,0
60953,-100,4,2,1,81,0,0
61016,-100,4,2,1,81,0,0
61328,-100,4,2,1,81,0,0
61391,-100,4,2,1,81,0,0
62078,-100,4,2,1,81,0,0
62141,-100,4,2,1,81,0,0
62578,-100,4,2,1,81,0,0
62641,-100,4,2,1,81,0,0
62891,-100,4,2,1,81,0,0
63016,-100,4,2,1,81,0,0
63266,-100,4,2,1,81,0,0
64016,-100,4,2,1,81,0,0
64453,-100,4,2,1,81,0,0
64516,-100,4,2,1,81,0,0
64578,-100,4,2,1,81,0,0
64641,-100,4,2,1,81,0,0
64953,-100,4,2,1,81,0,0
65016,-100,4,2,1,81,0,0
65578,-100,4,2,1,81,0,0
65641,-100,4,2,1,81,0,0
65828,-100,4,2,1,81,0,0
65891,-100,4,2,1,81,0,0
67203,-100,4,2,1,81,0,0
67266,-100,4,2,1,81,0,0
67328,-100,4,2,1,81,0,0
67391,-100,4,2,1,81,0,0
67703,-100,4,2,1,81,0,0
67766,-100,4,2,1,81,0,0
68828,-100,4,2,1,81,0,0
68890,-100,4,2,1,81,0,0
68953,-100,4,2,1,81,0,0
69016,-100,4,2,1,81,0,0
69203,-100,4,2,1,81,0,0
69266,-100,4,2,1,81,0,0
69703,-100,4,2,1,81,0,0
69766,-100,4,2,1,81,0,0
70078,-100,4,2,1,81,0,0
70141,-100,4,2,1,81,0,0
70578,-100,4,2,1,81,0,0
70641,-100,4,2,1,81,0,0
72016,-86.9565217391304,4,2,1,81,0,0
72391,-86.9565217391304,4,2,1,81,0,0
72516,-86.9565217391304,4,2,1,81,0,0
74266,-86.9565217391304,4,2,1,81,0,0
74391,-86.9565217391304,4,2,1,81,0,0
74703,-86.9565217391304,4,2,1,81,0,0
74766,-86.9565217391304,4,2,1,81,0,0
74828,-86.9565217391304,4,2,1,81,0,0
75016,-86.9565217391304,4,2,1,81,0,0
75391,-86.9565217391304,4,2,1,81,0,0
75516,-86.9565217391304,4,2,1,81,0,0
80141,-86.9565217391304,4,2,1,81,0,0
80391,-86.9565217391304,4,2,1,81,0,0
81766,-86.9565217391304,4,2,1,81,0,0
82016,-86.9565217391304,4,2,1,81,0,0
82703,-86.9565217391304,4,2,1,81,0,0
82766,-86.9565217391304,4,2,1,81,0,0
82891,-86.9565217391304,4,2,1,81,0,0
83016,-86.9565217391304,4,2,1,81,0,0
85766,-86.9565217391304,4,2,1,81,0,0
86016,-86.9565217391304,4,2,1,81,0,0
86391,-86.9565217391304,4,2,1,81,0,0
86516,-86.9565217391304,4,2,1,81,0,0
86641,-86.9565217391304,4,2,1,81,0,0
88516,-86.9565217391304,4,2,1,81,0,0
89141,-86.9565217391304,4,2,1,81,0,0
89266,-86.9565217391304,4,2,1,81,0,0
89766,-86.9565217391304,4,2,1,81,0,0
90016,-86.9565217391304,4,2,1,81,0,0
90641,-86.9565217391304,4,2,1,81,0,0
90766,-86.9565217391304,4,2,1,81,0,0
92266,-86.9565217391304,4,2,1,81,0,0
92516,-86.9565217391304,4,2,1,81,0,0
93016,-86.9565217391304,4,2,1,81,0,0
93516,-86.9565217391304,4,2,1,81,0,0

[Colours]
Combo1 : 128,0,255
Combo2 : 192,192,192
Combo3 : 128,128,128
Combo4 : 208,172,140

[HitObjects]
0,354,30016,6,0,B|48:369|139:362|275:107|80:-45|-132:18|-125:283|44:389|211:250|112:199|250:194|284:260,1,709.500010826111
319,310,31516,1,8,0:0:0:0:
334,318,31641,1,8,0:0:0:0:
348,326,31766,1,8,0:0:0:0:
359,330,31891,2,0,P|372:304|380:285,1,31.0125002105799,8|8,0:0|0:0,0:0:0:0:
357,194,32016,5,6,3:2:0:0:
497,123,32141,2,0,P|447:146|318:180,1,172.500003290176,0|0,3:2|0:0,0:0:0:0:
512,232,32516,2,0,P|498:148|435:91,1,172.500003290176,10|2,0:0|0:0,0:0:0:0:
492,329,33016,6,0,P|440:332|403:328,1,86.2500016450882,2|0,3:2|3:2,0:0:0:0:
308,382,33266,1,0,0:0:0:0:
512,367,33516,2,0,P|458:357|370:296,1,129.375002467632,8|0,0:0|0:0,0:0:0:0:
393,320,33766,2,0,L|388:369,2,43.1250008225441,0|0|0,3:2|3:2|3:2,0:0:0:0:
245,275,34016,5,6,3:2:0:0:
321,200,34141,1,0,3:2:0:0:
402,220,34266,1,2,3:2:0:0:
200,147,34516,2,0,P|174:203|185:263,1,86.2500016450882,8|0,0:0|0:0,0:0:0:0:
202,135,34766,2,0,P|166:123|152:111,1,43.1250008225441,2|0,0:0|0:0,0:0:0:0:
364,43,35016,6,0,P|318:51|268:78,1,86.2500016450882,2|0,3:2|3:2,0:0:0:0:
135,44,35266,2,0,P|82:34|53:15,1,86.2500016450882,2|0,0:0|0:0,0:0:0:0:
330,0,35516,1,8,0:0:0:0:
450,111,35766,2,0,L|441:59,1,43.1250008225441,2|2,0:0|0:0,0:0:0:0:
442,69,36016,5,6,3:2:0:0:
385,247,36141,2,0,P|422:187|514:130,1,172.500003290176,0|0,3:0|0:0,0:0:0:0:
367,265,36516,2,0,P|305:268|259:258,1,86.2500016450882,8|0,0:0|0:0,0:0:0:0:
420,346,36766,1,2,0:0:0:0:
182,233,37016,6,0,P|258:229|312:314,1,172.500003290176,2|0,3:2|0:0,0:0:0:0:
246,350,37391,1,2,0:0:0:0:
275,258,37516,2,0,P|287:195|310:157,1,86.2500016450882,8|0,0:0|0:0,0:0:0:0:
126,162,37766,2,0,P|111:209|106:218,2,43.1250008225441,0|0|0,3:0|3:0|3:0,0:0:0:0:
219,30,38016,5,4,3:2:0:0:
238,108,38141,1,10,3:2:0:0:
226,22,38266,1,10,3:2:0:0:
29,174,38516,5,10,0:0:0:0:
29,174,39016,2,0,B|56:138|56:138|133:153|133:153|171:250|171:250|109:286|109:286,1,292.499986610413,4|0,0:0|0:0,0:0:0:0:
35,349,39516,1,2,0:0:0:0:
35,349,39766,6,0,L|46:302,2,43.1250008225441
213,365,40016,5,4,3:2:0:0:
125,306,40141,2,0,P|158:321|206:370,1,86.2500016450882,0|0,3:0|0:0,0:0:0:0:
270,316,40391,1,0,0:0:0:0:
293,244,40516,2,0,P|326:312|421:336,1,172.500003290176,8|2,0:0|3:2,0:0:0:0:
103,179,41016,6,0,P|183:171|281:137,1,172.500003290176,0|0,3:0|0:0,0:0:0:0:
204,69,41391,1,2,0:0:0:0:
259,132,41516,2,0,P|306:143|363:146,1,86.2500016450882,8|0,0:0|0:0,0:0:0:0:
395,71,41766,2,0,L|387:28,2,43.1250008225441,0|0|0,3:0|0:0|0:0,0:0:0:0:
372,222,42016,5,2,3:2:0:0:
463,227,42141,1,2,3:2:0:0:
505,292,42266,1,2,3:2:0:0:
305,384,42516,2,0,P|337:346|392:330,1,86.2500016450882,8|0,0:0|0:0,0:0:0:0:
236,272,42766,2,0,P|246:294|249:316,1,43.1250008225441,2|0,3:2|0:0,0:0:0:0:
289,103,43016,6,0,P|276:153|271:202,1,86.2500016450882,0|0,3:2|0:0,0:0:0:0:
78,294,43266,2,0,P|91:244|96:195,1,86.2500016450882
166,339,43516,1,8,0:0:0:0:
133,130,43766,2,0,P|140:187|142:195,1,56.2500021457673,2|0,0:0|0:0,0:0:0:0:
183,37,44016,5,6,3:2:0:0:
39,89,44141,2,0,P|118:99|168:172,1,172.500003290176,0|0,3:2|0:0,0:0:0:0:
30,362,44516,2,0,B|96:300|74:193,1,172.500003290176,8|2,0:0|3:2,0:0:0:0:
273,352,45016,6,0,P|220:359|180:375,1,86.2500016450882,0|0,3:0|0:0,0:0:0:0:
271,205,45266,2,0,P|306:241|344:261,1,86.2500016450882,0|2,0:0|0:0,0:0:0:0:
433,257,45516,1,8,0:0:0:0:
312,131,45766,2,0,P|308:100|300:75,2,43.1250008225441,0|0|0,3:0|0:0|0:0,0:0:0:0:
471,147,46016,5,2,3:2:0:0:
436,66,46141,1,2,3:2:0:0:
512,27,46266,1,2,3:2:0:0:
459,162,46516,5,8,0:0:0:0:
459,162,47516,2,2,B|382:172|382:172|344:226|344:226|397:263,1,194.999991073609,4|0,0:0|0:0,0:0:0:0:
226,386,48016,6,2,B|155:377|191:335|131:298|69:331,1,157.499995193482,6|0,3:2|0:0,0:0:0:0:
52,288,48391,1,2,0:0:0:0:
94,239,48516,1,8,0:0:0:0:
82,186,48641,1,2,0:0:0:0:
132,171,48766,1,0,0:0:0:0:
156,146,48891,1,2,0:0:0:0:
146,114,49016,5,0,3:2:0:0:
182,144,49141,1,2,0:0:0:0:
204,142,49266,1,0,3:2:0:0:
218,149,49391,1,2,0:0:0:0:
237,127,49516,2,0,P|248:180|279:280,1,157.499995193482,8|0,0:0|3:0,0:0:0:0:
69,72,50016,6,0,B|114:82|116:79|53:13|48:14|48:142,1,157.499995193482,6|0,3:2|0:0,0:0:0:0:
93,152,50391,1,2,0:0:0:0:
152,157,50516,2,0,L|52:185,1,78.7499975967408,8|2,0:0|0:0,0:0:0:0:
162,277,50766,2,0,B|172:238|186:234|295:290,1,157.499995193482,0|0,0:0|3:2,0:0:0:0:
512,96,51266,2,0,B|419:70|401:83|385:259,1,236.249992790222,0|0,3:2|0:0,0:0:0:0:
424,167,51766,1,2,0:0:0:0:
287,28,52016,6,0,B|318:89|377:88|377:88|409:75|451:69,1,157.499995193482,6|0,3:2|0:0,0:0:0:0:
472,20,52391,1,2,0:0:0:0:
414,87,52516,2,0,P|426:135|427:167,1,78.7499975967408,8|2,0:0|0:0,0:0:0:0:
190,189,52766,2,0,B|219:132|374:121|242:317|347:420|493:384|380:335,1,389.999982147218,2|0,0:0|3:2,0:0:0:0:
512,381,53516,1,8,0:0:0:0:
378,220,53766,5,2,0:0:0:0:
314,271,53891,1,2,0:0:0:0:
234,248,54016,2,0,P|238:216|266:165,1,82.5000025177003,0|0,3:2|0:0,0:0:0:0:
260,61,54266,1,0,0:0:0:0:
260,61,54391,1,0,0:0:0:0:
260,61,54516,1,4,0:0:0:0:
266,377,54766,6,0,P|244:280|149:250,1,179.999994506836,6|8,3:2|0:0,0:0:0:0:
344,148,55141,2,0,P|305:193|300:237,2,89.9999972534181,2|10|0,3:2|0:0|3:0,0:0:0:0:
186,99,55516,2,2,B|165:104|165:104|142:94|142:94|117:95|117:95|97:78|97:78,1,89.9999972534181,0|0,3:2|0:0,0:0:0:0:
323,44,55766,2,2,B|343:49|343:49|366:39|366:39|391:40|391:40|411:23|411:23,1,89.9999972534181,0|0,3:2|0:0,0:0:0:0:
144,4,56016,5,2,3:2:0:0:
152,12,56141,1,0,3:2:0:0:
36,99,56266,2,0,P|76:86|142:86,1,75,10|2,0:0|0:0,0:0:0:0:
116,87,56453,1,2,0:0:0:0:
124,93,56516,2,0,L|109:133,2,37.5,0|0|8,3:0|0:0|0:0,0:0:0:0:
214,201,56766,6,2,L|257:187,1,37.5,0|0,3:2|0:0,0:0:0:0:
271,167,56891,1,0,3:2:0:0:
118,224,57016,2,0,L|146:251,2,37.5,0|0|8,3:0|0:0|0:0,0:0:0:0:
169,321,57266,2,2,L|217:327,2,37.5,0|0|2,3:2|0:0|3:2,0:0:0:0:
57,342,57516,2,0,L|19:360,4,37.5,8|0|0|0|8,0:0|0:0|0:0|0:0|0:0,0:0:0:0:
153,310,57891,2,0,L|105:299,1,37.5,2|0,0:0|0:0,0:0:0:0:
99,280,58016,5,0,3:2:0:0:
175,221,58141,2,0,P|210:247|258:247,1,75,0|8,3:0|0:0,0:0:0:0:
301,140,58391,2,0,L|289:181,2,37.5,2|0|8,0:0|0:0|0:0,0:0:0:0:
349,300,58641,2,0,P|379:264|456:236,1,112.5,6|0,3:2|0:0,0:0:0:0:
462,260,58891,6,0,L|468:302,2,37.5,10|2|6,0:0|0:0|3:2,0:0:0:0:
351,74,59266,2,0,L|329:32,2,37.5,10|2|6,0:0|0:0|3:2,0:0:0:0:
505,8,59641,2,0,L|493:49,1,37.5,10|0,0:0|0:0,0:0:0:0:
504,62,59766,2,0,L|473:93,1,37.5,10|2,0:0|0:0,0:0:0:0:
451,142,59891,2,0,L|406:153,1,37.5,2|0,0:0|0:0,0:0:0:0:
368,212,60016,5,6,3:2:0:0:
374,217,60141,1,0,3:2:0:0:
466,299,60266,2,0,P|426:303|375:329,1,75,10|0,0:0|0:0,0:0:0:0:
385,327,60453,2,0,L|371:370,1,37.5,0|2,0:0|3:2,0:0:0:0:
230,222,60641,2,0,P|267:256|318:272,1,75,10|0,0:0|0:0,0:0:0:0:
293,260,60828,2,0,L|289:218,1,37.5,0|0,0:0|3:2,0:0:0:0:
265,146,60953,1,0,0:0:0:0:
274,147,61016,6,0,P|288:94|307:52,1,75,2|2,3:2|0:0,0:0:0:0:
165,156,61266,2,0,P|173:120|182:98,2,37.5,8|0|0,0:0|0:0|3:0,0:0:0:0:
151,325,61516,2,0,P|138:281|95:247,1,75,6|2,3:2|0:0,0:0:0:0:
34,313,61766,2,0,P|21:269|-6:248,1,75,8|0,0:0|3:0,0:0:0:0:
171,343,62016,6,0,P|190:344|213:340,1,37.5,2|0,3:2|0:0,0:0:0:0:
229,254,62141,2,0,P|273:291|366:315,1,150,2|0,3:2|0:0,0:0:0:0:
391,175,62516,2,0,P|367:185|338:189,1,37.5,10|0,0:0|0:0,0:0:0:0:
506,207,62641,2,0,P|471:157|468:50,1,150,0|0,3:0|0:0,0:0:0:0:
400,286,63016,5,0,0:0:0:0:
400,286,63266,2,0,L|418:238,3,37.5
402,232,63516,1,0,0:0:0:0:
313,223,63641,1,0,0:0:0:0:
266,305,63766,1,0,0:0:0:0:
266,305,64016,5,6,3:2:0:0:
290,181,64141,2,0,P|307:229|374:302,1,150,2|2,3:2|0:2,0:0:0:0:
384,299,64453,1,0,0:0:0:0:
392,297,64516,2,0,L|435:310,2,37.5,2|0|10,0:2|0:0|0:2,0:0:0:0:
492,261,64766,1,2,0:2:0:0:
447,163,64891,6,0,P|436:179|430:197,1,37.5,2|0,0:2|0:0,0:0:0:0:
444,198,65016,2,0,P|444:149|387:49,1,150,2|10,3:2|0:2,0:0:0:0:
481,19,65391,1,2,3:2:0:0:
325,183,65516,2,0,L|371:157,2,37.5,10|0|2,0:2|0:0|0:2,0:0:0:0:
241,105,65766,2,0,L|282:119,2,37.5,10|0|2,0:2|0:0|0:2,0:0:0:0:
338,16,66016,5,2,3:2:0:0:
232,89,66141,2,0,P|180:53|77:34,1,150,0|8,3:0|0:0,0:0:0:0:
176,282,66516,1,0,3:0:0:0:
349,178,66641,2,0,P|286:214|271:297,1,150,8|8,0:0|0:0,0:0:0:0:
118,214,67016,6,0,P|151:161|165:97,1,112.5,0|0,3:0|0:0,0:0:0:0:
156,109,67266,2,0,L|165:153,1,37.5,2|0,3:2|0:0,0:0:0:0:
101,356,67391,2,0,P|54:282|-15:252,1,150,14|0,0:0|0:0,0:0:0:0:
6,269,67703,1,0,0:0:0:0:
10,286,67766,2,0,L|31:249,2,37.5,10|2|2,0:0|0:0|0:0,0:0:0:0:
156,289,68016,5,6,3:2:0:0:
223,248,68141,1,0,3:0:0:0:
169,295,68266,2,0,P|232:298|263:321,1,75,8|2,0:0|0:0,0:0:0:0:
246,315,68453,2,0,P|266:332|284:339,1,37.5,2|2,0:0|3:2,0:0:0:0:
356,172,68641,2,0,P|316:214|306:252,1,75,8|0,0:0|0:0,0:0:0:0:
304,235,68828,2,0,P|287:197|270:184,2,37.5
311,248,69016,6,0,P|374:253|442:264,1,112.5,0|0,3:0|0:0,0:0:0:0:
494,316,69266,2,0,P|498:261|509:229,1,75,2|2,3:2|0:0,0:0:0:0:
361,67,69516,2,2,P|370:121|433:167,1,112.5,6|0,3:2|0:0,0:0:0:0:
423,166,69766,2,0,P|418:120|406:90,1,75,8|2,0:0|0:0,0:0:0:0:
237,186,70016,6,0,P|258:193|286:197,1,37.5,2|0,3:2|0:0,0:0:0:0:
195,318,70141,2,0,P|244:286|336:272,1,150,2|0,3:2|0:0,0:0:0:0:
46,275,70516,2,0,P|40:247|30:228,1,37.5,2|0,0:0|0:0,0:0:0:0:
137,250,70641,2,0,P|98:293|94:386,1,150,2|2,3:2|0:0,0:0:0:0:
6,120,71016,2,0,P|67:151|160:173,1,150,2|8,3:2|0:0,0:0:0:0:
226,105,71391,1,0,3:0:0:0:
152,14,71516,5,8,0:0:0:0:
176,18,71641,1,8,0:0:0:0:
197,23,71766,1,8,0:0:0:0:
217,26,71891,2,0,P|233:20|260:15,1,37.5,8|8,0:0|0:0,0:0:0:0:
340,72,72016,5,6,3:2:0:0:
215,233,72141,2,0,P|280:234|330:322,1,172.500003290176,0|0,3:2|0:0,0:0:0:0:
98,203,72516,2,0,P|194:185|267:143,1,172.500003290176,8|2,0:0|0:0,0:0:0:0:
322,212,72891,1,0,3:2:0:0:
243,343,73016,6,0,P|192:325|149:322,1,86.2500016450882,2|0,3:2|3:2,0:0:0:0:
41,146,73266,2,0,P|77:192|85:224,1,86.2500016450882,0|2,3:2|0:0,0:0:0:0:
302,237,73516,2,2,P|241:216|260:49,1,258.750004935265,14|0,0:0|0:0,0:0:0:0:
420,215,74016,5,2,3:2:0:0:
340,181,74141,1,2,3:2:0:0:
286,249,74266,2,0,P|298:301|317:330,1,86.2500016450882
512,318,74516,2,0,P|456:316|376:284,1,129.375002467632,8|0,0:0|0:0,0:0:0:0:
382,281,74766,2,0,L|389:234,2,43.1250008225441,2|0|0,0:0|0:0|0:0,0:0:0:0:
450,132,75016,6,0,P|465:185|472:232,1,86.2500016450882,0|0,3:2|3:2,0:0:0:0:
273,137,75266,2,0,P|282:88|297:52,1,86.2500016450882,0|0,3:2|0:0,0:0:0:0:
509,44,75516,2,0,P|463:38|420:12,2,86.2500016450882,8|0|2,0:0|0:0|0:0,0:0:0:0:
511,50,76016,5,6,3:2:0:0:
341,192,76141,2,0,P|409:153|504:139,1,172.500003290176,2|0,3:2|0:0,0:0:0:0:
226,108,76516,2,0,L|269:202,1,86.2500016450882,8|0,0:0|0:0,0:0:0:0:
361,104,76766,1,2,0:0:0:0:
306,34,76891,1,0,3:2:0:0:
243,97,77016,5,2,3:2:0:0:
243,97,77141,1,0,3:2:0:0:
243,97,77266,1,0,3:2:0:0:
215,317,77516,2,2,P|227:235|384:209,1,258.750004935265,14|0,0:0|0:0,0:0:0:0:
138,118,78016,5,2,3:2:0:0:
178,265,78141,2,0,P|133:325|34:305,1,172.500003290176,2|0,3:2|0:0,0:0:0:0:
259,384,78516,1,8,0:0:0:0:
258,9,79516,1,0,0:0:0:0:
258,9,79766,2,0,L|248:56,2,43.1250008225441,2|0|0,0:0|0:0|0:0,0:0:0:0:
61,89,80016,5,6,3:2:0:0:
192,135,80141,2,0,P|144:145|41:229,1,172.500003290176
135,360,80516,2,0,P|96:310|113:202,1,172.500003290176,8|2,0:0|0:0,0:0:0:0:
174,249,80891,1,0,3:2:0:0:
95,220,81016,5,2,3:2:0:0:
67,297,81141,1,0,3:2:0:0:
117,367,81266,1,0,3:2:0:0:
383,373,81516,2,2,P|310:342|197:333,1,172.500003290176,14|0,0:0|0:0,0:0:0:0:
215,116,82016,6,0,P|227:166|229:206,1,86.2500016450882,2|0,3:2|3:0,0:0:0:0:
309,237,82266,1,2,3:2:0:0:
338,0,82516,2,0,P|321:47|306:145,1,129.375002467632,8|0,0:0|0:0,0:0:0:0:
302,135,82766,2,0,P|347:140|398:154,1,86.2500016450882,2|0,0:0|0:0,0:0:0:0:
441,293,83016,2,0,P|436:228|523:144,1,172.500003290176,0|0,3:2|0:2,0:0:0:0:
347,334,83516,2,0,P|341:291|323:229,1,86.2500016450882,8|0,0:0|0:0,0:0:0:0:
485,368,83766,1,2,0:0:0:0:
243,254,84016,5,6,3:2:0:0:
427,295,84141,2,2,P|350:315|275:369,1,172.500003290176,2|0,3:2|0:0,0:0:0:0:
302,76,84516,2,0,P|287:155|345:221,1,172.500003290176,8|2,0:0|0:0,0:0:0:0:
394,159,84891,1,0,3:2:0:0:
334,229,85016,5,2,3:2:0:0:
249,217,85141,1,0,3:2:0:0:
297,151,85266,1,0,3:2:0:0:
149,370,85516,2,2,P|157:309|153:184,1,172.500003290176,12|0,0:0|0:0,0:0:0:0:
310,358,86016,5,0,3:2:0:0:
223,278,86141,2,0,P|157:293|47:340,1,172.500003290176,0|0,3:0|0:0,0:0:0:0:
168,205,86516,1,8,0:0:0:0:
256,192,86641,12,0,88016,0:0:0:0:
318,180,88516,6,0,P|304:236|304:269,1,86.2500016450882,2|0,3:2|0:0,0:0:0:0:
194,204,88766,2,0,P|208:148|208:115,1,86.2500016450882,0|0,3:2|0:0,0:0:0:0:
264,381,89016,2,0,B|254:340|254:340|247:397,2,86.2500016450882,10|0|0,0:0|0:0|0:0,0:0:0:0:
328,155,89516,2,2,B|234:160|285:221|153:230,1,172.500003290176,14|0,0:2|0:0,0:0:0:0:
20,26,90016,5,2,0:0:0:0:
29,87,90141,1,0,0:0:0:0:
84,108,90266,1,2,3:2:0:0:
133,71,90391,1,0,0:0:0:0:
189,80,90516,2,0,P|134:91|98:85,1,86.2500016450882,8|0,0:0|0:0,0:0:0:0:
32,163,90766,1,2,0:0:0:0:
272,2,91016,2,0,B|262:43|262:43|255:-14,2,86.2500016450882,2|0|2,3:2|3:2|3:2,0:0:0:0:
241,287,91516,2,0,P|256:214|294:120,1,172.500003290176,10|2,0:0|0:0,0:0:0:0:
119,192,92016,5,6,3:2:0:0:
119,192,92141,1,2,3:2:0:0:
119,192,92266,2,0,P|164:196|203:207,1,86.2500016450882
393,192,92516,2,0,P|348:188|309:177,1,86.2500016450882,8|0,0:0|0:0,0:0:0:0:
256,92,92766,1,2,3:2:0:0:
264,381,93016,2,0,B|254:340|254:340|247:397,2,86.2500016450882,2|0|0,3:2|3:2|3:2,0:0:0:0:
71,264,93516,6,0,P|87:319|92:357,1,86.2500016450882,10|0,0:0|0:0,0:0:0:0:
434,322,93766,2,0,P|441:279|454:238,1,86.2500016450882,8|0,0:0|0:0,0:0:0:0:
256,192,94016,12,0,96016,3:0:0:0:
154,118,96516,6,0,P|192:137|241:143,1,86.2500016450882,2|0,3:2|0:0,0:0:0:0:
358,266,96766,2,0,P|320:247|271:241,1,86.2500016450882,2|0,3:2|0:0,0:0:0:0:
510,200,97016,2,0,B|469:190|469:190|526:183,2,86.2500016450882,4|0|2,0:0|3:2|3:2,0:0:0:0:
271,69,97516,2,2,B|296:233|212:149|249:343,1,258.750004935265,14|0,0:0|0:0,0:0:0:0:
362,362,98016,6,2,B|409:360|409:360|445:310,1,86.2500016450882,6|0,3:2|0:0,0:0:0:0:
301,205,98266,1,8,0:0:0:0:
258,212,98391,1,0,0:0:0:0:
242,253,98516,1,10,0:0:0:0:
189,249,98641,1,2,0:0:0:0:
160,188,98766,1,2,0:0:0:0:
94,160,98891,1,2,0:0:0:0:
19,192,99016,2,0,B|60:182|60:182|3:175,2,86.2500016450882,6|2|0,3:2|0:2|3:0,0:0:0:0:
344,184,99516,2,0,P|251:196|157:237,1,172.500003290176,2|2,0:0|0:0,0:0:0:0:
343,55,100016,5,6,3:2:0:0:
343,55,100141,1,2,3:2:0:0:
343,55,100266,2,0,P|330:110|326:163,1,86.2500016450882
169,329,100516,2,0,P|182:274|186:221,1,86.2500016450882,10|2,0:0|0:0,0:0:0:0:
249,148,100766,2,0,P|258:197|269:233,1,86.2500016450882,2|2,0:0|0:0,0:0:0:0:
510,200,101016,2,0,B|469:190|469:190|526:183,2,86.2500016450882,2|2|0,3:2|0:0|3:0,0:0:0:0:
389,383,101516,6,0,P|401:334|422:298,1,86.2500016450882,12|0,0:0|0:0,0:0:0:0:
135,360,101766,2,0,P|123:311|102:275,1,86.2500016450882,8|0,0:0|0:0,0:0:0:0:
28,173,102016,5,2,0:0:0:0:
90,190,102141,1,0,0:0:0:0:
147,155,102266,1,2,0:0:0:0:
159,95,102391,1,0,0:0:0:0:
164,163,102516,1,8,0:0:0:0:
27,10,102766,2,0,P|43:50|71:83,1,86.2500016450882
250,44,103016,5,4,0:0:0:0:
262,340,103266,1,0,0:0:0:0:
320,154,103516,5,8,0:0:0:0:
192,230,103766,1,0,0:0:0:0:
