osu file format v14

[General]
AudioFilename: audio.mp3
AudioLeadIn: 0
PreviewTime: 32021
Countdown: 0
SampleSet: Soft
StackLeniency: 0.7
Mode: 0
LetterboxInBreaks: 0
WidescreenStoryboard: 1

[Editor]
Bookmarks: 24021,32021,54771,72021,94021,104021
DistanceSpacing: 1.7
BeatDivisor: 4
GridSize: 4
TimelineZoom: 1.6

[Metadata]
Title:ricky bobby
TitleUnicode:ricky bobby
Artist:leroy
ArtistUnicode:leroy
Creator:moonpoint
Version:f's h
Source:
Tags:jane remover dltzk c0ncernn instrumental edm electronic dance music dariacore hyperflip fsjallink kataryn cyndifusic
BeatmapID:4396513
BeatmapSetID:2093889

[Difficulty]
HPDrainRate:5
CircleSize:4
OverallDifficulty:6
ApproachRate:7.5
SliderMultiplier:1
SliderTickRate:1

[Events]
//Background and Video events
0,0,"341215-Anime-Girls-Skull-Art.jpg",0,0
//Break Periods
//Storyboard Layer 0 (Background)
//Storyboard Layer 1 (Fail)
//Storyboard Layer 2 (Pass)
//Storyboard Layer 3 (Foreground)
//Storyboard Layer 4 (Overlay)
//Storyboard Sound Samples

[TimingPoints]
16,250,4,1,1,81,1,0
31516,-100,4,2,1,81,0,0
32641,-100,4,1,1,81,0,0
32766,-100,4,2,1,81,0,0
35641,-100,4,1,1,81,0,0
35766,-100,4,2,1,81,0,0
36641,-100,4,1,1,81,0,0
36766,-100,4,2,1,81,0,0
38766,-100,4,1,1,81,0,0
39016,-100,4,2,1,81,0,0
39266,-100,4,1,1,81,0,0
39516,-100,4,2,1,81,0,0
39766,-100,4,1,1,81,0,0
40016,-100,4,2,1,81,0,0
43641,-100,4,1,1,81,0,0
43766,-100,4,2,1,81,0,0
46766,-100,4,1,1,81,0,0
47516,-100,4,2,1,81,0,0
55641,-100,4,1,1,81,0,0
55766,-100,4,2,1,81,0,0
55891,-100,4,1,1,81,0,0
56016,-100,4,2,1,81,0,0
58766,-100,4,1,1,81,0,0
59016,-100,4,2,1,81,0,0
63266,-100,4,1,1,81,0,0
64016,-100,4,2,1,81,0,0
64078,-100,4,1,1,81,0,0
67766,-100,4,2,1,81,0,0
73766,-100,4,1,1,81,0,0
74016,-100,4,2,1,81,0,0
74891,-100,4,1,1,81,0,0
75016,-100,4,2,1,81,0,0
75391,-100,4,1,1,81,0,0
75516,-100,4,2,1,81,0,0
77766,-100,4,1,1,81,0,0
78016,-100,4,2,1,81,0,0
78766,-100,4,1,1,81,0,0
79016,-100,4,2,1,81,0,0
79266,-100,4,1,1,81,0,0
79516,-100,4,2,1,81,0,0
80141,-100,4,1,1,81,0,0
80516,-100,4,2,1,81,0,0
81766,-100,4,1,1,81,0,0
82016,-100,4,2,1,81,0,0
82391,-100,4,1,1,81,0,0
82516,-100,4,2,1,81,0,0
82891,-100,4,1,1,81,0,0
83016,-100,4,2,1,81,0,0
83391,-100,4,1,1,81,0,0
83516,-100,4,2,1,81,0,0
85766,-100,4,1,1,81,0,0
86016,-100,4,2,1,81,0,0
86391,-100,4,1,1,81,0,0
86516,-100,4,2,1,81,0,0
87016,-100,4,1,1,81,0,0
88516,-100,4,2,1,81,0,0
89766,-100,4,1,1,81,0,0
90016,-100,4,2,1,81,0,0
92266,-100,4,1,1,81,0,0
92516,-100,4,2,1,81,0,0
94078,-100,4,1,1,81,0,0
96016,-100,4,2,1,81,0,0

[Colours]
Combo1 : 128,0,255
Combo2 : 192,192,192
Combo3 : 128,128,128
Combo4 : 208,172,140

[HitObjects]
256,192,24016,12,8,31516,0:0:0:0:
92,96,32016,6,0,P|80:151|96:207,1,100,6|2,3:2|3:2,0:0:0:0:
88,193,32391,1,0,0:0:0:0:
88,193,32516,2,0,L|156:185,1,50,10|0,0:0|0:0,0:0:0:0:
203,262,32766,2,0,L|135:270,1,50,2|0,0:0|0:0,0:0:0:0:
132,365,33016,2,0,P|198:358|245:353,1,100,2|0,3:2|0:0,0:0:0:0:
259,333,33391,1,2,0:0:0:0:
280,305,33516,2,0,P|294:263|269:200,1,100,8|0,0:0|3:2,0:0:0:0:
394,149,34016,5,6,3:2:0:0:
365,120,34141,1,0,3:2:0:0:
326,110,34266,2,0,P|277:116|209:123,1,100,2|8,3:2|0:0,0:0:0:0:
89,95,34766,2,0,P|83:43|89:28,1,50,2|0,0:0|0:0,0:0:0:0:
183,89,35016,2,0,P|182:135|127:181,1,100,2|2,3:2|0:0,0:0:0:0:
147,173,35391,1,0,0:0:0:0:
147,173,35516,2,0,P|164:209|168:240,1,50,8|0,0:0|0:0,0:0:0:0:
177,306,35766,1,2,0:0:0:0:
337,346,36016,5,6,3:2:0:0:
337,346,36141,2,0,P|328:288|339:227,1,100,0|0,3:0|0:0,0:0:0:0:
332,247,36516,2,0,L|403:253,1,50,8|0,0:0|0:0,0:0:0:0:
444,189,36766,2,0,L|514:194,1,50,2|0,0:0|0:0,0:0:0:0:
458,101,37016,2,0,P|424:77|356:89,1,100,2|0,3:2|0:0,0:0:0:0:
338,54,37391,1,2,0:0:0:0:
305,30,37516,2,0,P|270:36|222:88,1,100,8|0,0:0|3:0,0:0:0:0:
271,217,38016,5,4,3:2:0:0:
236,238,38141,1,10,3:2:0:0:
196,241,38266,2,0,P|156:231|147:222,1,50,10|2,3:2|0:0,0:0:0:0:
117,155,38516,2,0,P|118:93|125:47,1,100,10|0,0:0|0:0,0:0:0:0:
339,132,39016,5,4,0:0:0:0:
339,132,39266,6,0,L|281:138,2,50,0|0|2,0:0|0:0|0:0,0:0:0:0:
458,121,39766,1,0,0:0:0:0:
396,224,40016,5,4,3:2:0:0:
396,224,40141,2,0,P|396:278|410:329,1,100,0|0,3:0|0:0,0:0:0:0:
407,322,40516,2,0,L|342:334,1,50,8|0,0:0|0:0,0:0:0:0:
283,282,40766,2,0,L|217:293,1,50,2|0,3:2|0:0,0:0:0:0:
154,240,41016,2,0,L|39:258,1,100,0|0,3:0|0:0,0:0:0:0:
28,219,41391,1,2,0:0:0:0:
4,180,41516,2,0,P|-7:120|12:52,1,100,8|0,0:0|3:0,0:0:0:0:
140,30,42016,1,2,3:2:0:0:
135,69,42141,1,2,3:2:0:0:
128,108,42266,6,0,P|195:105|258:126,1,100,2|8,3:2|0:0,0:0:0:0:
370,70,42766,2,0,L|374:127,1,50,2|0,3:2|0:0,0:0:0:0:
396,201,43016,2,0,P|473:217|527:201,1,100,0|0,3:2|0:0,0:0:0:0:
493,213,43391,1,0,0:0:0:0:
493,213,43516,2,0,L|484:274,2,50,8|0|2,0:0|0:0|0:0,0:0:0:0:
425,78,44016,5,6,3:2:0:0:
425,78,44141,2,0,P|371:49|297:61,1,100,0|0,3:2|0:0,0:0:0:0:
333,48,44516,2,0,L|319:115,1,50,8|0,0:0|0:0,0:0:0:0:
228,132,44766,2,0,L|242:65,1,50,2|0,3:2|0:0,0:0:0:0:
169,30,45016,2,0,L|142:155,1,100,0|0,3:0|0:0,0:0:0:0:
147,127,45391,1,2,0:0:0:0:
147,127,45516,2,0,P|84:105|15:131,1,100,8|0,0:0|3:0,0:0:0:0:
95,243,46016,5,2,3:2:0:0:
113,278,46141,1,2,3:2:0:0:
119,317,46266,2,0,P|71:353|12:344,2,100,2|8|0,3:2|0:0|0:0,0:0:0:0:
237,241,47016,1,0,0:0:0:0:
256,353,47266,1,0,0:0:0:0:
256,353,47391,1,0,0:0:0:0:
256,353,47516,2,2,P|325:344|374:336,1,100,4|0,0:0|0:0,0:0:0:0:
456,242,48016,5,6,3:2:0:0:
330,180,48266,1,0,0:0:0:0:
324,145,48391,1,2,0:0:0:0:
319,110,48516,2,0,L|313:58,1,50,8|2,0:0|0:0,0:0:0:0:
240,151,48766,2,0,L|198:119,1,50,0|2,0:0|0:0,0:0:0:0:
266,239,49016,2,0,L|154:260,1,100,0|0,3:2|3:2,0:0:0:0:
167,257,49391,1,2,0:0:0:0:
167,257,49516,2,0,P|129:299|142:371,1,100,8|0,0:0|3:0,0:0:0:0:
21,247,50016,5,6,3:2:0:0:
134,165,50266,1,0,0:0:0:0:
124,131,50391,1,2,0:0:0:0:
114,97,50516,2,0,L|101:45,1,50,8|2,0:0|0:0,0:0:0:0:
210,82,50766,2,0,P|276:73|321:110,2,100,0|0|0,0:0|3:2|3:2,0:0:0:0:
309,195,51516,2,0,P|385:197|423:160,1,100,8|2,0:0|0:0,0:0:0:0:
479,314,52016,5,6,3:2:0:0:
337,297,52266,2,0,L|328:354,1,50,0|2,0:0|0:0,0:0:0:0:
241,373,52516,2,0,L|250:316,1,50,8|2,0:0|0:0,0:0:0:0:
222,238,52766,2,0,P|170:218|103:236,1,100,2|0,0:0|3:2,0:0:0:0:
84,250,53141,1,0,3:2:0:0:
119,114,53391,5,2,0:0:0:0:
119,114,53516,2,0,L|176:123,1,50,8|0,0:0|0:0,0:0:0:0:
233,77,53766,2,0,L|282:69,1,50,2|2,0:0|0:0,0:0:0:0:
348,35,54016,2,0,P|378:89|392:159,2,100,0|0|4,3:2|0:0|0:0,0:0:0:0:
188,24,54766,6,0,P|131:35|56:45,1,100,6|8,3:2|0:0,0:0:0:0:
34,170,55266,1,10,0:0:0:0:
147,251,55516,2,2,L|211:240,1,50,0|0,3:2|0:0,0:0:0:0:
273,283,55766,2,2,L|334:273,1,50,0|0,3:2|0:0,0:0:0:0:
406,304,56016,6,0,P|421:248|397:152,2,150,2|2|0,3:2|0:0|3:2,0:0:0:0:
282,359,57016,1,0,3:0:0:0:
282,359,57141,1,8,0:0:0:0:
282,359,57266,2,2,P|272:293|289:233,1,100,0|8,3:2|0:0,0:0:0:0:
297,122,57766,2,0,P|247:79|174:76,1,100,8|0,0:0|3:2,0:0:0:0:
110,163,58266,1,8,0:0:0:0:
110,163,58391,1,2,0:0:0:0:
110,163,58516,6,0,P|98:218|111:273,1,100,8|0,0:0|0:0,0:0:0:0:
225,333,59016,2,0,P|237:278|224:223,1,100,6|10,3:2|0:0,0:0:0:0:
229,235,59391,2,0,P|286:245|385:221,1,150,6|10,3:2|0:0,0:0:0:0:
476,323,60016,1,6,3:2:0:0:
476,323,60141,1,0,3:2:0:0:
476,323,60266,6,0,P|394:317|328:358,2,150,10|10|2,0:0|0:0|3:2,0:0:0:0:
499,185,61266,1,8,0:0:0:0:
499,185,61391,1,0,3:0:0:0:
499,185,61516,2,0,P|498:115|491:64,1,100,6|8,3:2|0:0,0:0:0:0:
363,70,62016,1,2,3:2:0:0:
363,70,62141,1,2,3:2:0:0:
363,70,62266,1,8,0:0:0:0:
326,205,62516,5,10,0:0:0:0:
326,205,62641,1,0,3:0:0:0:
326,205,62766,2,0,P|259:192|193:202,2,100,0|0|0,3:2|0:0|0:0,0:0:0:0:
417,310,63516,2,0,L|479:303,2,50
290,370,64016,5,6,3:2:0:0:
256,192,64078,12,6,67391,3:2:0:0:
357,166,68016,6,0,P|369:221|369:269,2,100,6|8|2,3:2|0:0|3:2,0:0:0:0:
234,96,68766,1,0,0:0:0:0:
234,96,68891,1,0,0:0:0:0:
234,96,69016,2,0,P|190:111|115:120,2,100,0|2|6,3:0|3:2|3:2,0:0:0:0:
367,51,69766,2,0,P|387:110|380:170,1,100,8|2,0:0|3:2,0:0:0:0:
386,148,70141,1,2,3:2:0:0:
386,148,70266,1,8,0:0:0:0:
258,205,70516,5,2,0:0:0:0:
258,205,70641,2,0,P|252:261|274:359,2,150,2|2|0,3:2|3:2|3:0,0:0:0:0:
224,215,71516,1,8,0:0:0:0:
189,218,71641,1,8,0:0:0:0:
154,212,71766,1,8,0:0:0:0:
121,198,71891,1,8,0:0:0:0:
91,179,72016,5,6,3:2:0:0:
91,179,72141,2,0,P|97:121|106:18,1,150,0|8,3:2|0:0,0:0:0:0:
243,49,72766,2,0,L|237:113,1,50,2|0,0:0|3:2,0:0:0:0:
298,168,73016,1,2,3:2:0:0:
298,168,73141,1,0,3:2:0:0:
298,168,73266,1,0,3:2:0:0:
197,265,73516,2,2,P|132:293|65:290,1,100,14|0,0:0|0:0,0:0:0:0:
232,351,74016,5,2,3:2:0:0:
232,351,74141,2,0,P|279:324|345:328,1,100,2|0,3:2|0:0,0:0:0:0:
399,348,74516,1,8,0:0:0:0:
475,231,74766,2,0,L|470:166,1,50,2|0,0:0|0:0,0:0:0:0:
441,106,75016,2,0,P|386:81|305:106,1,100,0|0,3:2|3:2,0:0:0:0:
310,108,75391,1,0,0:0:0:0:
272,133,75516,2,0,L|161:121,1,100,8|2,0:0|0:0,0:0:0:0:
86,233,76016,5,6,3:2:0:0:
86,233,76141,2,0,P|151:257|181:339,1,150,2|8,3:2|0:0,0:0:0:0:
291,238,76766,2,0,P|276:207|242:179,1,50,2|0,0:0|3:2,0:0:0:0:
219,123,77016,1,2,3:2:0:0:
219,123,77141,1,0,3:2:0:0:
219,123,77266,1,0,3:2:0:0:
332,40,77516,2,2,P|412:38|460:46,1,100,14|0,0:0|0:0,0:0:0:0:
488,179,78016,5,2,3:2:0:0:
488,179,78141,2,0,P|419:185|367:179,1,100,2|0,3:2|0:0,0:0:0:0:
388,182,78516,2,0,P|375:245|386:320,1,100,8|0,0:0|0:0,0:0:0:0:
193,207,79016,5,4,0:0:0:0:
193,207,79266,6,0,L|180:277,2,50
130,80,79766,1,2,0:0:0:0:
15,160,80016,6,2,L|24:223,1,50,6|0,3:2|0:0,0:0:0:0:
45,286,80266,2,0,P|96:271|175:288,1,100,0|8,0:0|0:0,0:0:0:0:
286,344,80766,2,0,P|226:358|204:352,1,50,2|0,0:0|3:2,0:0:0:0:
241,269,81016,1,2,3:2:0:0:
241,269,81141,1,0,3:2:0:0:
241,269,81266,1,0,3:2:0:0:
372,317,81516,2,2,P|450:300|471:262,1,100,14|0,0:0|0:0,0:0:0:0:
336,221,82016,5,2,3:2:0:0:
336,221,82141,2,0,P|340:156|343:95,1,100,0|0,3:0|0:0,0:0:0:0:
315,44,82516,1,8,0:0:0:0:
176,62,82766,2,0,L|185:117,1,50,2|0,0:0|0:0,0:0:0:0:
165,194,83016,2,0,P|87:213|40:179,1,100,0|0,3:2|0:2,0:0:0:0:
72,207,83391,1,0,0:0:0:0:
72,207,83516,2,0,P|97:268|90:322,1,100,8|2,0:0|0:0,0:0:0:0:
218,369,84016,5,6,3:2:0:0:
218,369,84141,2,2,P|283:358|375:343,1,150,2|8,3:2|0:0,0:0:0:0:
494,249,84766,2,0,L|430:238,1,50,2|0,0:0|3:2,0:0:0:0:
361,220,85016,1,2,3:2:0:0:
361,220,85141,1,0,3:2:0:0:
361,220,85266,1,0,3:2:0:0:
470,132,85516,2,2,P|482:65|459:8,1,100,12|0,0:0|0:0,0:0:0:0:
333,28,86016,5,0,3:2:0:0:
333,28,86141,2,0,P|321:95|344:152,1,100,0|0,3:0|0:0,0:0:0:0:
309,160,86516,2,0,P|241:149|140:231,2,200,8|0|0,0:0|0:0|0:0,0:0:0:0:
468,288,88516,6,0,L|386:304,1,50,2|0,3:2|0:0,0:0:0:0:
343,263,88766,2,0,L|288:272,1,50,0|0,3:2|0:0,0:0:0:0:
219,228,89016,2,0,P|201:286|216:353,1,100,10|0,0:0|0:0,0:0:0:0:
310,184,89516,2,2,P|312:124|274:69,1,100,14|0,0:2|0:0,0:0:0:0:
164,36,90016,1,2,0:0:0:0:
164,36,90141,1,0,0:0:0:0:
164,36,90266,6,0,P|104:59|32:49,1,100,2|8,3:2|0:0,0:0:0:0:
52,198,90766,2,0,L|120:183,1,50,2|0,0:0|3:2,0:0:0:0:
181,217,91016,1,2,3:2:0:0:
181,217,91141,1,0,3:2:0:0:
181,217,91266,1,2,3:2:0:0:
297,139,91516,2,0,P|381:119|420:152,1,100,10|2,0:0|0:0,0:0:0:0:
356,259,92016,5,6,3:2:0:0:
313,284,92141,1,2,3:2:0:0:
268,306,92266,2,0,P|184:296|127:286,1,100,0|8,0:0|0:0,0:0:0:0:
111,166,92766,2,0,L|124:87,1,50,2|0,3:2|3:2,0:0:0:0:
199,78,93016,1,2,3:2:0:0:
199,78,93141,1,0,3:2:0:0:
199,78,93266,1,0,3:2:0:0:
300,174,93516,2,0,P|388:193|420:175,2,100,10|8|0,0:0|0:0|0:0,0:0:0:0:
256,192,94078,12,0,96016,3:0:0:0:
373,193,96516,6,0,P|310:168|272:182,1,100,2|2,3:2|3:2,0:0:0:0:
254,197,96891,1,0,0:0:0:0:
222,213,97016,1,4,0:0:0:0:
187,220,97141,1,0,3:2:0:0:
152,216,97266,2,0,P|140:171|141:110,2,100,2|14|0,3:2|0:0|0:0,0:0:0:0:
40,284,98016,5,6,3:2:0:0:
40,284,98141,1,0,0:0:0:0:
40,284,98266,2,0,P|66:341|104:361,1,100,8|10,0:0|0:0,0:0:0:0:
171,251,98766,2,0,P|203:226|226:225,1,50,2|2,0:0|0:0,0:0:0:0:
292,215,99016,1,6,3:2:0:0:
292,215,99141,1,2,0:2:0:0:
292,215,99266,1,0,3:0:0:0:
262,350,99516,2,0,P|317:325|378:328,1,100,2|2,0:0|0:0,0:0:0:0:
466,254,100016,5,6,3:2:0:0:
466,254,100141,2,2,P|455:189|470:88,1,150,2|10,3:2|0:0,0:0:0:0:
360,166,100766,1,2,0:0:0:0:
326,176,100891,1,2,0:0:0:0:
291,170,101016,1,2,3:2:0:0:
260,152,101141,1,2,0:0:0:0:
245,120,101266,2,0,L|252:65,1,50,0|2,3:0|0:0,0:0:0:0:
174,159,101516,2,0,P|127:168|59:149,2,100,12|8|2,0:0|0:0|0:0,0:0:0:0:
245,255,102266,6,0,P|244:294|242:369,2,100,2|8|0,0:0|0:0|0:0,0:0:0:0:
380,152,103016,1,4,0:0:0:0:
365,230,103266,1,0,0:0:0:0:
443,244,103516,1,8,0:0:0:0:
461,166,103766,2,0,P|470:124|460:77,1,75
