osu file format v14

[General]
AudioFilename: audio.mp3
AudioLeadIn: 0
PreviewTime: 71396
Countdown: 0
SampleSet: Normal
StackLeniency: 0.7
Mode: 1
LetterboxInBreaks: 0
WidescreenStoryboard: 1

[Editor]
Bookmarks: 32021,54771,72021
DistanceSpacing: 0.1
BeatDivisor: 1
GridSize: 32
TimelineZoom: 3.199999

[Metadata]
Title:ricky bobby
TitleUnicode:ricky bobby
Artist:leroy
ArtistUnicode:leroy
Creator:D3kuu
Version:kantan
Source:
Tags:delete zeke c0ncernn breakcore arach vized electronic instrumental dltzk dariacore
BeatmapID:2955693
BeatmapSetID:1436052

[Difficulty]
HPDrainRate:8
CircleSize:5
OverallDifficulty:3
ApproachRate:5
SliderMultiplier:1.2
SliderTickRate:1

[Events]
//Background and Video events
0,0,"341215-Anime-Girls-Skull-Art.jpg",0,0
//Break Periods
//Storyboard Layer 0 (Background)
//Storyboard Layer 1 (Fail)
//Storyboard Layer 2 (Pass)
//Storyboard Layer 3 (Foreground)
//Storyboard Layer 4 (Overlay)
//Storyboard Sound Samples

[TimingPoints]
21,250,4,1,0,50,1,0
21,-100,4,1,0,50,0,0
16021,-100,4,1,0,80,0,0
24021,-100,4,1,0,30,0,0
31521,-100,4,1,0,40,0,0
32020,-100,4,1,0,70,0,0
54771,-100,4,1,0,80,0,0
63271,-100,4,1,0,50,0,0
64021,-100,4,1,0,80,0,0
72021,-100,4,1,0,80,0,1
78396,-100,4,1,0,80,0,0
80021,-100,4,1,0,80,0,1
86521,-100,4,1,0,80,0,0
86552,-100,4,1,0,60,0,0
88521,-100,4,1,0,80,0,1
93896,-100,4,1,0,80,0,0
94021,-100,4,1,0,20,0,0
95021,-100,4,1,0,30,0,0
96021,-100,4,1,0,80,0,1
104021,-100,4,1,0,80,0,0
104052,-100,4,1,0,5,0,0
104521,-100,4,1,0,60,0,0
110021,-100,4,1,0,20,0,0
111021,-100,4,1,0,30,0,0
112021,-100,4,1,0,60,0,0

[HitObjects]
366,129,21,5,8,0:0:0:0:
445,143,1021,1,8,0:0:0:0:
446,151,1521,1,8,0:0:0:0:
464,136,2021,1,0,0:0:0:0:
473,168,3021,1,8,0:0:0:0:
447,152,3521,1,0,0:0:0:0:
366,129,4021,1,8,0:0:0:0:
280,70,5021,1,8,0:0:0:0:
446,151,5521,1,8,0:0:0:0:
464,136,6021,1,0,0:0:0:0:
473,168,7021,1,8,0:0:0:0:
447,152,7521,1,0,0:0:0:0:
426,140,8021,1,8,0:0:0:0:
418,113,8771,1,8,0:0:0:0:
446,144,9021,1,0,0:0:0:0:
456,143,9521,1,0,0:0:0:0:
398,127,10021,1,8,0:0:0:0:
175,162,10771,1,0,0:0:0:0:
487,155,11021,1,8,0:0:0:0:
427,158,11521,1,8,0:0:0:0:
481,153,12021,1,0,0:0:0:0:
491,144,12771,1,8,0:0:0:0:
441,156,13021,1,0,0:0:0:0:
412,178,13521,1,0,0:0:0:0:
235,102,14021,1,8,0:0:0:0:
344,138,14521,1,0,0:0:0:0:
214,39,14771,1,8,0:0:0:0:
436,152,15021,1,0,0:0:0:0:
404,125,16021,1,0,0:0:0:0:
336,171,16271,1,0,0:0:0:0:
385,145,16521,1,8,0:0:0:0:
421,143,17021,1,8,0:0:0:0:
478,136,17271,1,0,0:0:0:0:
398,118,17521,1,8,0:0:0:0:
442,165,18021,1,0,0:0:0:0:
475,152,18771,1,8,0:0:0:0:
423,130,19021,1,0,0:0:0:0:
487,142,19271,1,0,0:0:0:0:
81,88,19521,1,8,0:0:0:0:
349,72,20021,1,0,0:0:0:0:
459,139,20271,1,0,0:0:0:0:
328,109,20521,1,8,0:0:0:0:
404,143,21021,1,8,0:0:0:0:
447,105,21271,1,0,0:0:0:0:
447,105,21521,1,8,0:0:0:0:
489,158,22021,1,8,0:0:0:0:
466,155,23021,1,8,0:0:0:0:
256,192,24021,12,8,31271,0:0:0:0:
407,121,32021,5,0,0:0:0:0:
425,145,32521,1,0,0:0:0:0:
432,140,33021,1,8,0:0:0:0:
406,120,33271,1,0,0:0:0:0:
398,72,33521,1,8,0:0:0:0:
390,138,34021,1,0,0:0:0:0:
461,133,34771,1,8,0:0:0:0:
319,127,35021,1,0,0:0:0:0:
421,146,35271,1,0,0:0:0:0:
421,146,35521,1,8,0:0:0:0:
407,121,36021,1,0,0:0:0:0:
425,145,36521,1,0,0:0:0:0:
432,140,37021,1,8,0:0:0:0:
406,120,37271,1,0,0:0:0:0:
398,72,37521,1,8,0:0:0:0:
390,138,38021,1,0,0:0:0:0:
342,138,39021,1,8,0:0:0:0:
320,161,40021,1,0,0:0:0:0:
342,133,40521,1,0,0:0:0:0:
411,167,41021,1,8,0:0:0:0:
416,112,41271,1,0,0:0:0:0:
412,137,41521,1,8,0:0:0:0:
412,143,42021,1,0,0:0:0:0:
460,136,42771,1,8,0:0:0:0:
475,153,43021,1,0,0:0:0:0:
482,158,43271,1,0,0:0:0:0:
450,141,43521,1,8,0:0:0:0:
444,141,44021,1,0,0:0:0:0:
487,81,44521,1,0,0:0:0:0:
474,140,45021,1,8,0:0:0:0:
244,91,45271,1,0,0:0:0:0:
244,91,45521,1,8,0:0:0:0:
404,119,46021,1,0,0:0:0:0:
391,110,46521,1,0,0:0:0:0:
438,120,47521,1,12,0:0:0:0:
461,146,48021,1,0,0:0:0:0:
454,140,48521,1,0,0:0:0:0:
442,137,48771,1,8,0:0:0:0:
459,134,49021,1,0,0:0:0:0:
440,127,49521,1,0,0:0:0:0:
444,146,50021,1,0,0:0:0:0:
420,149,50521,1,0,0:0:0:0:
408,145,50771,1,8,0:0:0:0:
444,146,51021,1,0,0:0:0:0:
444,146,51521,1,0,0:0:0:0:
455,134,52021,1,8,0:0:0:0:
441,136,52521,1,8,0:0:0:0:
496,153,52771,1,0,0:0:0:0:
480,138,53021,1,8,0:0:0:0:
182,17,53771,1,0,0:0:0:0:
451,128,54021,1,0,0:0:0:0:
457,119,54521,1,12,0:0:0:0:
510,165,54771,1,0,0:0:0:0:
351,114,55521,1,0,0:0:0:0:
351,114,55771,1,0,0:0:0:0:
362,113,56021,1,8,0:0:0:0:
416,160,56271,1,8,0:0:0:0:
416,192,56521,1,0,0:0:0:0:
320,160,57021,1,8,0:0:0:0:
288,160,57521,1,8,0:0:0:0:
433,144,58021,1,0,0:0:0:0:
352,96,58271,1,8,0:0:0:0:
192,128,58521,1,0,0:0:0:0:
346,116,59021,1,0,0:0:0:0:
352,160,60021,1,8,0:0:0:0:
430,142,60271,1,8,0:0:0:0:
128,64,60521,1,0,0:0:0:0:
426,143,61021,1,0,0:0:0:0:
439,147,61521,1,8,0:0:0:0:
388,158,62021,1,0,0:0:0:0:
505,160,62271,5,8,0:0:0:0:
490,158,62521,1,0,0:0:0:0:
257,94,62771,1,8,0:0:0:0:
451,127,64021,1,8,0:0:0:0:
301,168,64271,5,8,0:0:0:0:
457,149,64521,1,8,0:0:0:0:
242,165,65021,1,0,0:0:0:0:
331,12,65271,1,8,0:0:0:0:
473,153,65521,1,0,0:0:0:0:
433,144,66021,1,8,0:0:0:0:
473,153,66521,1,0,0:0:0:0:
349,147,66771,1,0,0:0:0:0:
380,130,67021,1,0,0:0:0:0:
410,138,68021,1,0,0:0:0:0:
201,97,68271,1,8,0:0:0:0:
473,146,68521,1,0,0:0:0:0:
426,143,69021,1,0,0:0:0:0:
445,160,69271,1,8,0:0:0:0:
439,147,69521,1,8,0:0:0:0:
388,158,70021,1,0,0:0:0:0:
416,124,70521,1,8,0:0:0:0:
257,94,70771,1,0,0:0:0:0:
433,132,71021,1,8,0:0:0:0:
429,119,72021,1,0,0:0:0:0:
354,82,72521,1,8,0:0:0:0:
469,135,73021,1,0,0:0:0:0:
419,91,73271,1,8,0:0:0:0:
307,122,73521,1,8,0:0:0:0:
388,139,74021,1,0,0:0:0:0:
394,173,74771,1,8,0:0:0:0:
360,107,75021,1,0,0:0:0:0:
360,117,75271,1,0,0:0:0:0:
381,135,75521,1,8,0:0:0:0:
387,149,76021,1,0,0:0:0:0:
354,82,76521,1,8,0:0:0:0:
291,138,77021,1,0,0:0:0:0:
326,93,77271,1,8,0:0:0:0:
307,122,77521,1,8,0:0:0:0:
388,139,78021,1,0,0:0:0:0:
394,173,78521,1,0,0:0:0:0:
387,149,80021,1,0,0:0:0:0:
354,82,80521,1,8,0:0:0:0:
469,135,81021,1,0,0:0:0:0:
419,91,81271,1,8,0:0:0:0:
307,122,81521,1,8,0:0:0:0:
388,139,82021,1,0,0:0:0:0:
394,173,82771,1,8,0:0:0:0:
360,107,83021,1,0,0:0:0:0:
360,117,83271,1,0,0:0:0:0:
381,135,83521,1,8,0:0:0:0:
387,149,84021,1,0,0:0:0:0:
354,82,84521,1,8,0:0:0:0:
469,135,85021,1,0,0:0:0:0:
419,91,85271,1,8,0:0:0:0:
307,122,85521,1,8,0:0:0:0:
388,139,86021,1,0,0:0:0:0:
394,173,86521,1,0,0:0:0:0:
346,167,87521,2,0,L|110:106,1,240
365,203,88521,1,0,0:0:0:0:
460,170,88771,1,0,0:0:0:0:
378,168,89021,1,0,0:0:0:0:
399,117,89521,1,0,0:0:0:0:
436,162,90021,1,0,0:0:0:0:
485,159,90271,1,0,0:0:0:0:
498,164,90521,1,8,0:0:0:0:
206,53,90771,1,8,0:0:0:0:
331,153,91021,1,0,0:0:0:0:
392,120,91521,1,0,0:0:0:0:
378,168,92021,1,8,0:0:0:0:
399,117,92271,1,0,0:0:0:0:
399,117,92521,1,0,0:0:0:0:
436,162,93021,1,0,0:0:0:0:
498,164,93521,1,8,0:0:0:0:
381,72,93771,1,8,0:0:0:0:
256,192,94021,12,0,94896,0:0:0:0:
256,192,95021,12,0,95896,0:0:0:0:
417,209,96021,5,8,0:0:0:0:
428,152,96521,1,0,0:0:0:0:
474,153,96771,1,0,0:0:0:0:
282,114,97021,1,0,0:0:0:0:
477,153,97521,1,0,0:0:0:0:
445,133,98021,1,0,0:0:0:0:
450,144,98271,1,0,0:0:0:0:
351,110,98521,1,0,0:0:0:0:
450,144,98771,1,8,0:0:0:0:
451,132,99021,1,0,0:0:0:0:
381,139,99521,1,0,0:0:0:0:
365,107,100021,1,0,0:0:0:0:
456,147,100771,1,8,0:0:0:0:
402,122,101021,1,0,0:0:0:0:
207,60,101521,1,0,0:0:0:0:
495,152,102021,1,8,0:0:0:0:
351,133,102271,1,8,0:0:0:0:
164,26,102521,5,0,0:0:0:0:
416,128,103021,1,0,0:0:0:0:
384,128,103521,1,0,0:0:0:0:
384,192,104521,1,0,0:0:0:0:
416,160,104771,1,0,0:0:0:0:
416,96,105021,1,8,0:0:0:0:
352,128,105521,1,0,0:0:0:0:
448,128,106021,1,8,0:0:0:0:
288,160,106521,1,0,0:0:0:0:
388,160,106771,1,8,0:0:0:0:
352,256,107021,1,8,0:0:0:0:
404,153,107771,1,8,0:0:0:0:
404,153,108021,1,0,0:0:0:0:
404,153,108271,1,0,0:0:0:0:
481,163,108771,1,8,0:0:0:0:
447,109,109021,1,8,0:0:0:0:
431,154,109521,1,0,0:0:0:0:
419,155,109771,1,0,0:0:0:0:
256,192,110021,12,8,110771,0:0:0:0:
256,192,111021,12,0,111896,0:0:0:0:
369,117,112021,5,0,0:0:0:0:
451,161,112521,1,0,0:0:0:0:
439,162,112771,1,0,0:0:0:0:
463,138,113021,1,8,0:0:0:0:
431,134,113521,1,0,0:0:0:0:
436,43,114021,1,8,0:0:0:0:
456,124,114521,1,0,0:0:0:0:
423,136,114771,1,0,0:0:0:0:
418,119,115021,1,8,0:0:0:0:
451,153,115771,1,8,0:0:0:0:
439,154,116021,1,0,0:0:0:0:
368,129,116771,1,8,0:0:0:0:
474,116,117021,1,8,0:0:0:0:
421,166,117521,1,0,0:0:0:0:
461,172,117771,1,0,0:0:0:0:
446,148,118271,1,8,0:0:0:0:
234,59,118521,1,0,0:0:0:0:
496,127,119021,1,8,0:0:0:0:
