osu file format v14

[General]
AudioFilename: audio.mp3
AudioLeadIn: 0
PreviewTime: 71396
Countdown: 0
SampleSet: Normal
StackLeniency: 0.7
Mode: 1
LetterboxInBreaks: 0
WidescreenStoryboard: 1

[Editor]
Bookmarks: 32021,54771,72021
DistanceSpacing: 0.1
BeatDivisor: 4
GridSize: 32
TimelineZoom: 3.199999

[Metadata]
Title:ricky bobby
TitleUnicode:ricky bobby
Artist:leroy
ArtistUnicode:leroy
Creator:D3kuu
Version:muzukashii
Source:
Tags:delete zeke c0ncernn breakcore arach vized electronic instrumental dltzk dariacore
BeatmapID:2955307
BeatmapSetID:1436052

[Difficulty]
HPDrainRate:6
CircleSize:5
OverallDifficulty:5
ApproachRate:5
SliderMultiplier:1.2
SliderTickRate:1

[Events]
//Background and Video events
0,0,"341215-Anime-Girls-Skull-Art.jpg",0,0
//Break Periods
//Storyboard Layer 0 (Background)
//Storyboard Layer 1 (Fail)
//Storyboard Layer 2 (Pass)
//Storyboard Layer 3 (Foreground)
//Storyboard Layer 4 (Overlay)
//Storyboard Sound Samples

[TimingPoints]
21,250,4,1,0,50,1,0
21,-100,4,1,0,50,0,0
16021,-100,4,1,0,80,0,0
24021,-100,4,1,0,30,0,0
31521,-100,4,1,0,40,0,0
32020,-100,4,1,0,70,0,0
54771,-100,4,1,0,80,0,0
63271,-100,4,1,0,50,0,0
64021,-100,4,1,0,80,0,0
72021,-100,4,1,0,80,0,1
78396,-100,4,1,0,80,0,0
80021,-100,4,1,0,80,0,1
86521,-100,4,1,0,80,0,0
86552,-100,4,1,0,60,0,0
88521,-100,4,1,0,80,0,1
93896,-100,4,1,0,80,0,0
94021,-100,4,1,0,20,0,0
95021,-100,4,1,0,30,0,0
96021,-100,4,1,0,80,0,1
104021,-100,4,1,0,80,0,0
104052,-100,4,1,0,5,0,0
104521,-100,4,1,0,60,0,0
110021,-100,4,1,0,20,0,0
111021,-100,4,1,0,30,0,0
112021,-100,4,1,0,60,0,0

[HitObjects]
366,129,21,5,8,0:0:0:0:
445,143,271,1,0,0:0:0:0:
201,52,521,1,8,0:0:0:0:
468,163,771,1,0,0:0:0:0:
462,163,896,1,0,0:0:0:0:
445,143,1021,1,8,0:0:0:0:
456,151,1271,1,0,0:0:0:0:
446,151,1521,1,8,0:0:0:0:
464,136,2021,1,8,0:0:0:0:
481,135,2271,1,0,0:0:0:0:
256,160,2396,1,0,0:0:0:0:
480,138,2521,1,8,0:0:0:0:
460,163,2771,1,0,0:0:0:0:
473,168,3021,1,8,0:0:0:0:
244,103,3271,1,8,0:0:0:0:
247,77,3396,1,0,0:0:0:0:
447,152,3521,1,8,0:0:0:0:
366,129,4021,1,8,0:0:0:0:
445,143,4271,1,0,0:0:0:0:
201,52,4521,1,8,0:0:0:0:
468,163,4771,1,0,0:0:0:0:
462,163,4896,1,0,0:0:0:0:
445,143,5021,1,8,0:0:0:0:
456,151,5271,1,0,0:0:0:0:
446,151,5521,1,8,0:0:0:0:
464,136,6021,1,8,0:0:0:0:
481,135,6271,1,0,0:0:0:0:
244,103,6396,1,0,0:0:0:0:
480,138,6521,1,8,0:0:0:0:
460,163,6771,1,0,0:0:0:0:
473,168,7021,1,8,0:0:0:0:
192,96,7146,1,0,0:0:0:0:
244,103,7271,1,8,0:0:0:0:
447,152,7521,1,8,0:0:0:0:
288,64,7646,5,8,0:0:0:0:
288,64,7771,1,8,0:0:0:0:
288,64,7896,1,8,0:0:0:0:
426,140,8021,1,0,0:0:0:0:
467,138,8271,1,0,0:0:0:0:
427,145,8521,1,8,0:0:0:0:
418,113,8771,1,0,0:0:0:0:
446,144,8896,1,0,0:0:0:0:
446,144,9021,1,8,0:0:0:0:
446,144,9271,1,0,0:0:0:0:
456,143,9521,1,8,0:0:0:0:
398,127,10021,1,8,0:0:0:0:
463,148,10271,1,0,0:0:0:0:
288,160,10396,1,0,0:0:0:0:
450,152,10521,1,8,0:0:0:0:
454,153,10771,1,0,0:0:0:0:
487,155,11021,1,8,0:0:0:0:
481,153,11271,1,0,0:0:0:0:
329,137,11396,1,8,0:0:0:0:
481,153,11521,1,0,0:0:0:0:
427,158,12021,1,8,0:0:0:0:
482,158,12271,1,0,0:0:0:0:
491,144,12521,1,8,0:0:0:0:
480,144,12771,1,0,0:0:0:0:
256,117,12896,5,0,0:0:0:0:
441,156,13021,1,8,0:0:0:0:
469,167,13271,1,0,0:0:0:0:
412,178,13521,1,8,0:0:0:0:
235,102,14021,1,0,0:0:0:0:
484,143,14271,1,8,0:0:0:0:
256,128,14396,5,8,0:0:0:0:
450,148,14521,1,0,0:0:0:0:
469,144,14771,1,8,0:0:0:0:
469,144,14896,1,0,0:0:0:0:
436,152,15021,1,8,0:0:0:0:
428,188,15271,1,0,0:0:0:0:
485,149,15521,1,8,0:0:0:0:
404,125,16021,1,0,0:0:0:0:
336,171,16146,1,0,0:0:0:0:
295,49,16396,1,0,0:0:0:0:
385,145,16521,1,8,0:0:0:0:
277,142,16646,1,0,0:0:0:0:
436,148,16771,1,8,0:0:0:0:
247,113,16833,1,8,0:0:0:0:
247,113,16896,1,8,0:0:0:0:
421,143,17021,1,8,0:0:0:0:
478,136,17271,1,8,0:0:0:0:
176,193,17396,1,0,0:0:0:0:
398,118,17521,1,8,0:0:0:0:
442,165,18021,1,0,0:0:0:0:
453,140,18271,1,0,0:0:0:0:
453,140,18396,1,0,0:0:0:0:
346,103,18521,1,8,0:0:0:0:
288,128,18646,1,0,0:0:0:0:
475,152,18771,1,8,0:0:0:0:
329,121,18833,1,8,0:0:0:0:
491,151,18896,1,8,0:0:0:0:
423,130,19021,1,0,0:0:0:0:
487,142,19271,1,0,0:0:0:0:
81,88,19521,1,8,0:0:0:0:
349,72,20021,1,0,0:0:0:0:
384,224,20146,1,0,0:0:0:0:
459,139,20271,1,8,0:0:0:0:
229,76,20396,1,0,0:0:0:0:
328,109,20521,1,8,0:0:0:0:
434,137,20771,1,0,0:0:0:0:
404,143,21021,1,8,0:0:0:0:
447,105,21271,1,0,0:0:0:0:
384,160,21396,1,8,0:0:0:0:
447,105,21521,1,0,0:0:0:0:
489,158,22021,1,8,0:0:0:0:
492,173,22271,1,0,0:0:0:0:
453,145,22396,1,8,0:0:0:0:
492,173,22521,1,0,0:0:0:0:
405,127,22771,1,0,0:0:0:0:
466,155,23021,1,8,0:0:0:0:
466,155,23271,1,8,0:0:0:0:
486,156,23521,1,0,0:0:0:0:
256,192,24021,12,8,31396,0:0:0:0:
206,46,31521,5,8,0:0:0:0:
211,49,31646,1,8,0:0:0:0:
211,49,31771,1,8,0:0:0:0:
407,121,32021,1,0,0:0:0:0:
396,120,32146,1,0,0:0:0:0:
494,155,32396,1,8,0:0:0:0:
425,145,32521,1,0,0:0:0:0:
456,134,32771,1,0,0:0:0:0:
375,132,32896,1,0,0:0:0:0:
432,140,33021,1,8,0:0:0:0:
406,120,33271,1,0,0:0:0:0:
398,72,33521,1,8,0:0:0:0:
390,138,34021,1,0,0:0:0:0:
358,150,34146,1,0,0:0:0:0:
411,154,34271,1,8,0:0:0:0:
461,133,34521,1,0,0:0:0:0:
461,133,34771,1,0,0:0:0:0:
404,158,34896,1,0,0:0:0:0:
319,127,35021,1,8,0:0:0:0:
421,146,35271,1,0,0:0:0:0:
421,146,35521,1,0,0:0:0:0:
407,121,36021,1,0,0:0:0:0:
396,120,36146,1,0,0:0:0:0:
494,155,36396,1,8,0:0:0:0:
425,145,36521,1,0,0:0:0:0:
456,134,36771,1,0,0:0:0:0:
144,7,36896,1,0,0:0:0:0:
432,140,37021,1,8,0:0:0:0:
406,120,37271,1,0,0:0:0:0:
398,72,37521,1,8,0:0:0:0:
390,138,38021,1,0,0:0:0:0:
358,150,38146,1,0,0:0:0:0:
411,154,38271,1,8,0:0:0:0:
461,133,38521,1,0,0:0:0:0:
319,127,39021,1,8,0:0:0:0:
466,159,39271,1,8,0:0:0:0:
421,146,39521,1,8,0:0:0:0:
409,148,39771,1,8,0:0:0:0:
320,161,40021,1,0,0:0:0:0:
320,161,40146,1,0,0:0:0:0:
288,165,40396,1,0,0:0:0:0:
342,133,40521,1,8,0:0:0:0:
463,125,40771,1,0,0:0:0:0:
470,155,40896,1,0,0:0:0:0:
411,167,41021,1,8,0:0:0:0:
416,112,41271,1,0,0:0:0:0:
412,137,41521,1,0,0:0:0:0:
412,143,42021,1,0,0:0:0:0:
396,156,42146,1,0,0:0:0:0:
463,141,42271,1,8,0:0:0:0:
460,136,42521,1,8,0:0:0:0:
426,133,42771,1,8,0:0:0:0:
475,153,42896,1,0,0:0:0:0:
475,153,43021,1,0,0:0:0:0:
482,158,43271,1,0,0:0:0:0:
450,141,43521,1,8,0:0:0:0:
444,141,44021,1,8,0:0:0:0:
445,141,44146,1,8,0:0:0:0:
499,151,44271,1,0,0:0:0:0:
487,81,44521,1,0,0:0:0:0:
495,154,44771,1,0,0:0:0:0:
488,152,44896,1,8,0:0:0:0:
474,140,45021,1,8,0:0:0:0:
244,91,45271,1,0,0:0:0:0:
244,91,45521,1,0,0:0:0:0:
404,119,46021,1,0,0:0:0:0:
458,162,46146,1,0,0:0:0:0:
446,136,46271,1,8,0:0:0:0:
391,110,46521,1,0,0:0:0:0:
378,111,46771,1,0,0:0:0:0:
369,120,47021,1,8,0:0:0:0:
438,120,47521,1,8,0:0:0:0:
499,163,47771,1,8,0:0:0:0:
461,146,48021,1,0,0:0:0:0:
454,140,48271,1,0,0:0:0:0:
452,131,48396,1,8,0:0:0:0:
454,130,48646,1,8,0:0:0:0:
473,148,48771,1,0,0:0:0:0:
476,143,48896,1,8,0:0:0:0:
459,134,49021,1,0,0:0:0:0:
422,134,49271,1,0,0:0:0:0:
440,127,49521,1,0,0:0:0:0:
444,146,50021,1,0,0:0:0:0:
444,146,50271,1,0,0:0:0:0:
401,134,50396,1,8,0:0:0:0:
401,134,50646,1,8,0:0:0:0:
444,146,50771,1,0,0:0:0:0:
401,134,50896,1,8,0:0:0:0:
444,146,51021,1,0,0:0:0:0:
444,146,51271,1,0,0:0:0:0:
444,146,51521,1,0,0:0:0:0:
455,134,52021,1,8,0:0:0:0:
441,136,52271,1,8,0:0:0:0:
481,157,52396,1,0,0:0:0:0:
493,152,52646,1,0,0:0:0:0:
496,153,52771,1,8,0:0:0:0:
95,153,52896,1,0,0:0:0:0:
480,138,53021,1,8,0:0:0:0:
160,175,53521,1,0,0:0:0:0:
182,17,53771,1,8,0:0:0:0:
199,112,53896,1,8,0:0:0:0:
451,128,54021,1,0,0:0:0:0:
451,128,54271,1,0,0:0:0:0:
457,119,54521,1,12,0:0:0:0:
510,165,54771,1,0,0:0:0:0:
466,170,55021,1,8,0:0:0:0:
421,258,55146,1,0,0:0:0:0:
417,251,55271,1,8,0:0:0:0:
351,114,55521,1,0,0:0:0:0:
351,114,55771,1,0,0:0:0:0:
326,136,56021,1,8,0:0:0:0:
331,140,56146,1,0,0:0:0:0:
301,168,56271,5,8,0:0:0:0:
352,160,56396,5,8,0:0:0:0:
352,160,56458,1,8,0:0:0:0:
457,149,56521,1,8,0:0:0:0:
444,113,56771,1,0,0:0:0:0:
429,113,56937,1,0,0:0:0:0:
331,12,57271,1,0,0:0:0:0:
288,96,57771,1,8,0:0:0:0:
433,144,58021,1,0,0:0:0:0:
196,102,58271,1,8,0:0:0:0:
384,135,58396,1,0,0:0:0:0:
473,153,58521,1,8,0:0:0:0:
420,141,58646,1,8,0:0:0:0:
380,130,58896,1,8,0:0:0:0:
346,116,59021,1,0,0:0:0:0:
457,153,59396,1,8,0:0:0:0:
441,148,59771,1,0,0:0:0:0:
410,138,60021,1,0,0:0:0:0:
402,136,60146,1,0,0:0:0:0:
201,97,60271,1,8,0:0:0:0:
320,160,60396,1,0,0:0:0:0:
320,160,60458,1,0,0:0:0:0:
473,146,60521,1,0,0:0:0:0:
473,147,60646,1,8,0:0:0:0:
440,138,60771,1,0,0:0:0:0:
426,143,61021,1,0,0:0:0:0:
445,160,61271,1,8,0:0:0:0:
463,157,61396,1,0,0:0:0:0:
439,147,61521,1,8,0:0:0:0:
438,143,61771,1,8,0:0:0:0:
388,158,62021,1,0,0:0:0:0:
449,166,62146,1,0,0:0:0:0:
505,160,62271,5,8,0:0:0:0:
256,64,62396,1,0,0:0:0:0:
256,64,62458,1,0,0:0:0:0:
490,158,62521,1,0,0:0:0:0:
414,122,62646,1,0,0:0:0:0:
257,94,62771,1,8,0:0:0:0:
260,99,63021,1,8,0:0:0:0:
451,127,64021,1,8,0:0:0:0:
470,143,64146,1,0,0:0:0:0:
301,168,64271,5,8,0:0:0:0:
301,168,64396,1,8,0:0:0:0:
301,168,64458,1,8,0:0:0:0:
457,149,64521,1,8,0:0:0:0:
434,151,64646,1,0,0:0:0:0:
444,113,64771,1,0,0:0:0:0:
242,165,65021,1,0,0:0:0:0:
451,131,65146,1,8,0:0:0:0:
451,131,65208,1,8,0:0:0:0:
331,12,65271,1,8,0:0:0:0:
417,133,65396,1,8,0:0:0:0:
473,153,65521,1,0,0:0:0:0:
433,144,66021,1,8,0:0:0:0:
391,89,66146,1,0,0:0:0:0:
392,134,66271,1,8,0:0:0:0:
446,148,66396,1,0,0:0:0:0:
446,148,66458,1,0,0:0:0:0:
473,153,66521,1,0,0:0:0:0:
420,141,66646,1,8,0:0:0:0:
349,147,66771,1,0,0:0:0:0:
380,130,67021,1,8,0:0:0:0:
385,218,67146,1,0,0:0:0:0:
487,154,67208,1,0,0:0:0:0:
396,135,67271,1,0,0:0:0:0:
457,153,67396,1,8,0:0:0:0:
417,146,67521,1,0,0:0:0:0:
410,138,68021,1,0,0:0:0:0:
410,138,68146,1,0,0:0:0:0:
201,97,68271,1,8,0:0:0:0:
486,150,68396,1,0,0:0:0:0:
476,143,68458,1,0,0:0:0:0:
473,146,68521,1,0,0:0:0:0:
473,147,68646,1,8,0:0:0:0:
440,138,68771,1,0,0:0:0:0:
426,143,69021,1,0,0:0:0:0:
425,147,69146,1,0,0:0:0:0:
445,160,69271,1,8,0:0:0:0:
445,160,69333,1,8,0:0:0:0:
463,157,69396,1,8,0:0:0:0:
439,147,69521,1,8,0:0:0:0:
438,143,69771,1,8,0:0:0:0:
388,158,70021,1,0,0:0:0:0:
449,166,70146,1,0,0:0:0:0:
505,160,70271,5,8,0:0:0:0:
406,122,70396,1,8,0:0:0:0:
406,122,70458,1,8,0:0:0:0:
416,124,70521,1,8,0:0:0:0:
257,94,70771,1,8,0:0:0:0:
433,132,71021,1,8,0:0:0:0:
265,146,71521,1,8,0:0:0:0:
178,38,71646,1,8,0:0:0:0:
178,38,71771,1,8,0:0:0:0:
429,119,72021,1,0,0:0:0:0:
394,131,72146,1,0,0:0:0:0:
260,87,72271,1,8,0:0:0:0:
354,82,72521,1,8,0:0:0:0:
475,153,72646,1,0,0:0:0:0:
326,93,72896,1,8,0:0:0:0:
469,135,73021,1,0,0:0:0:0:
291,138,73146,1,0,0:0:0:0:
419,91,73271,1,8,0:0:0:0:
307,122,73521,1,8,0:0:0:0:
495,154,73646,1,0,0:0:0:0:
503,165,73771,1,8,0:0:0:0:
503,165,73833,1,8,0:0:0:0:
503,165,73896,1,8,0:0:0:0:
388,139,74021,1,0,0:0:0:0:
378,158,74271,1,8,0:0:0:0:
352,121,74333,1,8,0:0:0:0:
352,121,74396,1,8,0:0:0:0:
394,173,74521,1,0,0:0:0:0:
348,204,74771,1,0,0:0:0:0:
347,118,74896,1,8,0:0:0:0:
360,107,75021,1,0,0:0:0:0:
360,107,75146,1,8,0:0:0:0:
360,117,75271,1,0,0:0:0:0:
363,50,75396,1,0,0:0:0:0:
381,135,75521,1,8,0:0:0:0:
387,149,76021,1,0,0:0:0:0:
394,131,76146,1,0,0:0:0:0:
260,87,76271,1,8,0:0:0:0:
354,82,76521,1,8,0:0:0:0:
475,153,76646,1,0,0:0:0:0:
326,93,76896,1,8,0:0:0:0:
469,135,77021,1,0,0:0:0:0:
291,138,77146,1,0,0:0:0:0:
419,91,77271,1,8,0:0:0:0:
307,122,77521,1,8,0:0:0:0:
495,154,77646,1,0,0:0:0:0:
503,165,77771,1,8,0:0:0:0:
503,165,77833,1,8,0:0:0:0:
503,165,77896,1,8,0:0:0:0:
388,139,78021,1,0,0:0:0:0:
378,158,78271,1,8,0:0:0:0:
352,121,78333,1,8,0:0:0:0:
352,121,78396,1,8,0:0:0:0:
394,173,78521,1,0,0:0:0:0:
360,107,79021,1,0,0:0:0:0:
102,75,79271,1,8,0:0:0:0:
363,50,79354,1,0,0:0:0:0:
381,135,79521,1,8,0:0:0:0:
371,200,79771,1,8,0:0:0:0:
387,149,80021,1,0,0:0:0:0:
394,131,80146,1,0,0:0:0:0:
260,87,80271,1,8,0:0:0:0:
354,82,80521,1,8,0:0:0:0:
475,153,80646,1,0,0:0:0:0:
326,93,80896,1,8,0:0:0:0:
469,135,81021,1,0,0:0:0:0:
291,138,81146,1,0,0:0:0:0:
419,91,81271,1,8,0:0:0:0:
307,122,81521,1,8,0:0:0:0:
495,154,81646,1,0,0:0:0:0:
503,165,81771,1,8,0:0:0:0:
503,165,81833,1,8,0:0:0:0:
503,165,81896,1,8,0:0:0:0:
388,139,82021,1,0,0:0:0:0:
378,158,82271,1,8,0:0:0:0:
352,121,82333,1,8,0:0:0:0:
352,121,82396,1,8,0:0:0:0:
394,173,82521,1,0,0:0:0:0:
348,204,82771,1,0,0:0:0:0:
342,200,82896,1,8,0:0:0:0:
360,107,83021,1,0,0:0:0:0:
360,107,83146,1,8,0:0:0:0:
360,117,83271,1,0,0:0:0:0:
363,50,83396,1,0,0:0:0:0:
381,135,83521,1,8,0:0:0:0:
387,149,84021,1,0,0:0:0:0:
394,131,84146,1,0,0:0:0:0:
260,87,84271,1,8,0:0:0:0:
354,82,84521,1,8,0:0:0:0:
475,153,84646,1,0,0:0:0:0:
326,93,84896,1,8,0:0:0:0:
469,135,85021,1,0,0:0:0:0:
291,138,85146,1,0,0:0:0:0:
419,91,85271,1,8,0:0:0:0:
307,122,85521,1,8,0:0:0:0:
495,154,85646,1,0,0:0:0:0:
503,165,85771,1,8,0:0:0:0:
503,165,85833,1,8,0:0:0:0:
503,165,85896,1,8,0:0:0:0:
388,139,86021,1,0,0:0:0:0:
378,158,86271,1,8,0:0:0:0:
352,121,86333,1,8,0:0:0:0:
352,121,86396,1,8,0:0:0:0:
394,173,86521,1,0,0:0:0:0:
346,165,87521,2,0,L|109:88,1,240
365,203,88521,1,0,0:0:0:0:
460,170,88771,1,0,0:0:0:0:
232,165,88896,1,0,0:0:0:0:
378,168,89021,1,8,0:0:0:0:
418,91,89146,1,0,0:0:0:0:
399,117,89271,1,0,0:0:0:0:
399,117,89521,1,0,0:0:0:0:
406,155,89646,1,0,0:0:0:0:
301,81,89771,1,8,0:0:0:0:
160,128,89833,1,8,0:0:0:0:
492,162,89896,1,8,0:0:0:0:
436,162,90021,1,0,0:0:0:0:
485,159,90271,1,0,0:0:0:0:
498,164,90396,1,0,0:0:0:0:
498,164,90521,1,8,0:0:0:0:
206,53,90771,1,8,0:0:0:0:
435,143,90896,1,0,0:0:0:0:
331,153,91021,1,8,0:0:0:0:
436,137,91146,1,0,0:0:0:0:
392,120,91271,1,0,0:0:0:0:
392,120,91521,1,0,0:0:0:0:
378,168,92021,1,8,0:0:0:0:
418,91,92146,1,0,0:0:0:0:
399,117,92271,1,0,0:0:0:0:
399,117,92521,1,0,0:0:0:0:
301,81,92771,1,8,0:0:0:0:
436,162,92896,1,8,0:0:0:0:
436,162,93021,1,0,0:0:0:0:
221,138,93146,1,0,0:0:0:0:
305,121,93271,1,8,0:0:0:0:
498,164,93521,1,8,0:0:0:0:
381,72,93771,1,8,0:0:0:0:
256,192,94021,12,0,94896,0:0:0:0:
256,192,95021,12,0,95896,0:0:0:0:
417,209,96021,5,8,0:0:0:0:
426,174,96146,1,0,0:0:0:0:
401,127,96396,1,8,0:0:0:0:
428,152,96521,1,0,0:0:0:0:
454,151,96646,1,8,0:0:0:0:
474,153,96771,1,0,0:0:0:0:
282,114,97021,1,0,0:0:0:0:
291,102,97146,1,0,0:0:0:0:
291,102,97271,1,8,0:0:0:0:
477,153,97521,1,0,0:0:0:0:
479,153,97646,1,0,0:0:0:0:
450,144,97771,1,8,0:0:0:0:
450,144,97833,1,8,0:0:0:0:
450,144,97896,1,8,0:0:0:0:
445,133,98021,1,0,0:0:0:0:
442,136,98146,1,8,0:0:0:0:
450,144,98271,1,0,0:0:0:0:
351,110,98521,1,0,0:0:0:0:
504,100,98646,1,0,0:0:0:0:
450,144,98771,1,8,0:0:0:0:
366,136,98896,1,8,0:0:0:0:
451,132,99021,1,0,0:0:0:0:
315,154,99146,1,0,0:0:0:0:
322,153,99271,1,8,0:0:0:0:
381,139,99521,1,0,0:0:0:0:
365,107,100021,1,0,0:0:0:0:
351,153,100271,1,8,0:0:0:0:
456,147,100521,1,0,0:0:0:0:
489,157,100646,1,8,0:0:0:0:
482,157,100771,1,0,0:0:0:0:
371,124,100896,1,8,0:0:0:0:
402,122,101021,1,0,0:0:0:0:
358,90,101146,1,0,0:0:0:0:
358,90,101271,1,8,0:0:0:0:
207,60,101521,1,0,0:0:0:0:
203,60,101583,5,0,0:0:0:0:
208,37,101646,5,0,0:0:0:0:
211,42,101771,1,8,0:0:0:0:
495,152,102021,1,8,0:0:0:0:
305,105,102146,1,0,0:0:0:0:
351,133,102271,1,8,0:0:0:0:
351,133,102333,1,8,0:0:0:0:
351,133,102396,1,8,0:0:0:0:
164,26,102521,5,0,0:0:0:0:
416,128,102771,1,8,0:0:0:0:
416,128,103021,1,8,0:0:0:0:
448,128,103271,1,8,0:0:0:0:
384,128,103521,1,0,0:0:0:0:
448,128,103771,1,8,0:0:0:0:
416,160,103896,1,8,0:0:0:0:
288,96,103958,1,8,0:0:0:0:
384,192,104521,1,0,0:0:0:0:
480,160,104646,1,8,0:0:0:0:
416,160,104771,1,0,0:0:0:0:
416,96,105021,1,8,0:0:0:0:
448,160,105271,1,8,0:0:0:0:
448,160,105396,1,8,0:0:0:0:
352,128,105521,1,0,0:0:0:0:
480,160,105771,1,0,0:0:0:0:
448,128,106021,1,8,0:0:0:0:
480,160,106146,1,0,0:0:0:0:
480,160,106271,1,0,0:0:0:0:
288,160,106521,1,0,0:0:0:0:
388,160,106771,1,8,0:0:0:0:
352,256,107021,1,8,0:0:0:0:
452,153,107271,1,0,0:0:0:0:
369,144,107646,1,0,0:0:0:0:
404,153,107771,1,8,0:0:0:0:
404,153,108021,1,0,0:0:0:0:
404,153,108146,1,0,0:0:0:0:
404,153,108271,1,0,0:0:0:0:
510,163,108646,1,0,0:0:0:0:
481,163,108771,1,8,0:0:0:0:
447,109,109021,1,8,0:0:0:0:
436,146,109271,1,0,0:0:0:0:
451,153,109396,1,8,0:0:0:0:
431,154,109521,1,0,0:0:0:0:
459,137,109771,1,0,0:0:0:0:
256,192,110021,12,8,110771,0:0:0:0:
256,192,111021,12,0,111896,0:0:0:0:
369,117,112021,5,0,0:0:0:0:
435,153,112146,1,8,0:0:0:0:
454,147,112396,1,0,0:0:0:0:
451,161,112521,1,8,0:0:0:0:
467,152,112646,1,0,0:0:0:0:
427,133,112771,1,8,0:0:0:0:
463,138,113021,1,8,0:0:0:0:
476,119,113271,1,0,0:0:0:0:
476,143,113396,1,8,0:0:0:0:
431,134,113521,1,0,0:0:0:0:
371,127,113771,1,8,0:0:0:0:
436,43,114021,1,8,0:0:0:0:
321,108,114146,1,0,0:0:0:0:
326,108,114271,1,0,0:0:0:0:
456,124,114521,1,0,0:0:0:0:
423,136,114771,1,8,0:0:0:0:
418,119,115021,1,8,0:0:0:0:
471,163,115271,1,0,0:0:0:0:
471,163,115646,1,0,0:0:0:0:
451,153,115771,1,8,0:0:0:0:
455,92,116021,1,0,0:0:0:0:
455,92,116146,1,0,0:0:0:0:
455,92,116271,1,0,0:0:0:0:
386,128,116646,1,0,0:0:0:0:
368,129,116771,1,8,0:0:0:0:
474,116,117021,1,8,0:0:0:0:
377,127,117271,1,0,0:0:0:0:
424,161,117396,1,8,0:0:0:0:
421,166,117521,1,0,0:0:0:0:
461,172,117771,1,0,0:0:0:0:
385,108,118146,1,0,0:0:0:0:
446,148,118271,1,8,0:0:0:0:
234,59,118521,1,0,0:0:0:0:
496,127,119021,1,8,0:0:0:0:
