osu file format v14

[General]
AudioFilename: audio.mp3
AudioLeadIn: 0
PreviewTime: 121056
Countdown: 0
SampleSet: Normal
StackLeniency: 0.7
Mode: 1
LetterboxInBreaks: 0
WidescreenStoryboard: 1

[Editor]
Bookmarks: 6986,18149,23730,32103,37684,40475,46056,51637,54428,62800,73963,85126,96289,107451,113033,117219,118614,121405,140940
DistanceSpacing: 1.7
BeatDivisor: 2
GridSize: 32
TimelineZoom: 2.899999

[Metadata]
Title:i hate when BOYS lie
TitleUnicode:i hate when BOYS lie
Artist:leroy
ArtistUnicode:leroy
Creator:sadgfdgdfsg
Version:futsuu
Source:
Tags:dlztk c0ncernn jane remover dariacore 3​.​.​. at least i think thats what its called electronic english
BeatmapID:3987246
BeatmapSetID:1929929

[Difficulty]
HPDrainRate:7
CircleSize:5
OverallDifficulty:4
ApproachRate:5
SliderMultiplier:1.4
SliderTickRate:1

[Events]
//Background and Video events
0,0,"g-cdnTH3tZ6R0l8azWFzGJnDFEfuYiyFeIWw0LAfeokgRJZ8IZfDEgYLgAHpHmJgecCLBKmjLhdc_XmSAsMRIp2a.jpg",0,-40
//Break Periods
2,96489,106251
//Storyboard Layer 0 (Background)
//Storyboard Layer 1 (Fail)
//Storyboard Layer 2 (Pass)
//Storyboard Layer 3 (Foreground)
//Storyboard Layer 4 (Overlay)
//Storyboard Sound Samples

[TimingPoints]
10,348.837209302326,4,1,0,100,1,0
6986,-90.9090909090909,4,1,0,100,0,0
73963,-90.9090909090909,4,1,0,100,0,1
76405,-90.9090909090909,4,1,0,100,0,0
76754,-90.9090909090909,4,1,0,100,0,1
79196,-90.9090909090909,4,1,0,100,0,0
79544,-90.9090909090909,4,1,0,100,0,1
81986,-90.9090909090909,4,1,0,100,0,0
82335,-90.9090909090909,4,1,0,100,0,0
85126,-90.9090909090909,4,1,0,100,0,1
87568,-90.9090909090909,4,1,0,100,0,0
87916,-90.9090909090909,4,1,0,100,0,1
89661,-90.9090909090909,4,1,0,100,0,0
90010,-90.9090909090909,4,1,0,100,0,1
90358,-90.9090909090909,4,1,0,100,0,0
90707,-90.9090909090909,4,1,0,100,0,1
92451,-90.9090909090909,4,1,0,100,0,0
92800,-90.9090909090909,4,1,0,100,0,1
93149,-90.9090909090909,4,1,0,100,0,0
93498,-90.9090909090909,4,1,0,100,0,1
95591,-90.9090909090909,4,1,0,100,0,0
121405,-90.9090909090909,4,1,0,100,0,1
123847,-90.9090909090909,4,1,0,100,0,0
124196,-90.9090909090909,4,1,0,100,0,1
126637,-90.9090909090909,4,1,0,100,0,0
126986,-90.9090909090909,4,1,0,100,0,1
129079,-90.9090909090909,4,1,0,100,0,0
129777,-90.9090909090909,4,1,0,100,0,1
131870,-90.9090909090909,4,1,0,100,0,0
132568,-90.9090909090909,4,1,0,100,0,1
134661,-90.9090909090909,4,1,0,100,0,0
135358,-90.9090909090909,4,1,0,100,0,1
137451,-90.9090909090909,4,1,0,100,0,0
138149,-90.9090909090909,4,1,0,100,0,1
140242,-90.9090909090909,4,1,0,100,0,0

[HitObjects]
248,202,6986,5,4,0:0:0:0:
248,192,7335,1,0,0:0:0:0:
231,193,7684,1,8,0:0:0:0:
231,193,7858,1,8,0:0:0:0:
231,193,8033,1,8,0:0:0:0:
231,193,8730,1,8,0:0:0:0:
231,193,9079,1,0,0:0:0:0:
231,193,9254,1,8,0:0:0:0:
231,193,9428,1,8,0:0:0:0:
183,146,10300,1,0,0:0:0:0:
183,146,10475,1,0,0:0:0:0:
211,126,10649,1,8,0:0:0:0:
210,132,10823,1,8,0:0:0:0:
203,135,11172,1,0,0:0:0:0:
192,118,11521,1,8,0:0:0:0:
211,126,11696,1,0,0:0:0:0:
215,145,11870,1,0,0:0:0:0:
215,145,12219,1,8,0:0:0:0:
210,132,12393,1,8,0:0:0:0:
222,174,12916,1,0,0:0:0:0:
222,174,13265,1,0,0:0:0:0:
222,174,13614,1,8,0:0:0:0:
210,132,14312,1,8,0:0:0:0:
210,132,14486,1,0,0:0:0:0:
210,132,14661,1,8,0:0:0:0:
210,132,15010,1,8,0:0:0:0:
206,128,15533,1,0,0:0:0:0:
206,128,15707,1,8,0:0:0:0:
206,128,16056,1,8,0:0:0:0:
206,128,16405,1,8,0:0:0:0:
206,128,16754,1,0,0:0:0:0:
206,128,17103,1,0,0:0:0:0:
206,128,17451,1,8,0:0:0:0:
206,128,18149,1,4,0:0:0:0:
199,148,18498,1,0,0:0:0:0:
207,138,18847,1,8,0:0:0:0:
207,138,19196,1,8,0:0:0:0:
207,138,19544,1,0,0:0:0:0:
207,138,19893,1,0,0:0:0:0:
207,138,20242,1,8,0:0:0:0:
207,138,20591,1,0,0:0:0:0:
207,138,20940,1,8,0:0:0:0:
207,138,21289,1,8,0:0:0:0:
207,138,21637,1,8,0:0:0:0:
207,138,21986,1,8,0:0:0:0:
207,138,22335,1,0,0:0:0:0:
207,138,22684,1,0,0:0:0:0:
207,138,23033,1,8,0:0:0:0:
207,138,23730,1,0,0:0:0:0:
207,138,24079,1,8,0:0:0:0:
192,138,24254,1,0,0:0:0:0:
207,138,24428,1,0,0:0:0:0:
207,138,24777,1,8,0:0:0:0:
207,138,25126,1,0,0:0:0:0:
207,138,25475,1,8,0:0:0:0:
192,138,25649,1,8,0:0:0:0:
207,138,25823,1,8,0:0:0:0:
207,138,26172,1,8,0:0:0:0:
207,138,26521,1,0,0:0:0:0:
192,138,26696,1,8,0:0:0:0:
207,138,26870,1,0,0:0:0:0:
207,138,27219,1,8,0:0:0:0:
207,138,27568,1,8,0:0:0:0:
185,133,27916,1,0,0:0:0:0:
207,138,28265,1,8,0:0:0:0:
207,138,28440,1,8,0:0:0:0:
207,138,28614,1,8,0:0:0:0:
207,138,29312,1,4,0:0:0:0:
210,160,29661,1,0,0:0:0:0:
210,160,30010,1,8,0:0:0:0:
219,169,30358,1,0,0:0:0:0:
210,160,30707,1,0,0:0:0:0:
210,160,30882,1,8,0:0:0:0:
210,160,31056,1,0,0:0:0:0:
255,184,31405,1,8,0:0:0:0:
244,171,32103,1,0,0:0:0:0:
244,171,32800,1,8,0:0:0:0:
244,171,32975,1,0,0:0:0:0:
244,171,33149,1,0,0:0:0:0:
244,171,33498,1,8,0:0:0:0:
244,171,33847,1,0,0:0:0:0:
244,171,34021,1,0,0:0:0:0:
244,171,34196,1,8,0:0:0:0:
244,171,34544,1,8,0:0:0:0:
244,171,34719,1,8,0:0:0:0:
238,150,34893,1,0,0:0:0:0:
238,150,35242,1,0,0:0:0:0:
238,150,35416,1,8,0:0:0:0:
238,150,35591,1,0,0:0:0:0:
238,150,35765,1,0,0:0:0:0:
238,150,35940,1,8,0:0:0:0:
214,204,36637,1,0,0:0:0:0:
247,189,36986,1,8,0:0:0:0:
267,190,37335,1,8,0:0:0:0:
267,190,37510,1,8,0:0:0:0:
261,197,37684,1,0,0:0:0:0:
256,173,38033,1,8,0:0:0:0:
259,182,38382,1,8,0:0:0:0:
218,166,38556,1,0,0:0:0:0:
259,182,38730,1,0,0:0:0:0:
205,164,39079,1,8,0:0:0:0:
259,182,39428,1,0,0:0:0:0:
259,182,39777,1,8,0:0:0:0:
259,182,39951,1,0,0:0:0:0:
259,182,40126,1,8,0:0:0:0:
251,171,40475,5,0,0:0:0:0:
272,202,40823,1,8,0:0:0:0:
261,186,40998,1,0,0:0:0:0:
261,186,41172,1,0,0:0:0:0:
272,202,41347,1,8,0:0:0:0:
261,186,41521,1,0,0:0:0:0:
209,174,42219,1,0,0:0:0:0:
209,174,42393,1,0,0:0:0:0:
272,202,42568,1,8,0:0:0:0:
263,182,42916,1,8,0:0:0:0:
247,204,43265,1,0,0:0:0:0:
272,202,43614,1,8,0:0:0:0:
265,209,43789,1,8,0:0:0:0:
265,209,43963,1,0,0:0:0:0:
272,202,44137,1,8,0:0:0:0:
265,209,44312,1,0,0:0:0:0:
272,202,45010,1,0,0:0:0:0:
272,202,45358,1,8,0:0:0:0:
279,198,45707,1,8,0:0:0:0:
279,198,45882,1,8,0:0:0:0:
259,203,46056,1,0,0:0:0:0:
272,202,46405,1,8,0:0:0:0:
265,209,46579,1,0,0:0:0:0:
265,209,46754,1,0,0:0:0:0:
272,202,46928,1,8,0:0:0:0:
265,209,47103,1,0,0:0:0:0:
190,98,47800,1,8,0:0:0:0:
272,202,48149,1,8,0:0:0:0:
190,98,48498,1,8,0:0:0:0:
190,98,48672,1,8,0:0:0:0:
172,139,48847,1,0,0:0:0:0:
272,202,49196,1,8,0:0:0:0:
265,209,49370,1,8,0:0:0:0:
265,209,49544,1,0,0:0:0:0:
272,202,49719,1,8,0:0:0:0:
265,209,49893,1,0,0:0:0:0:
272,202,50940,1,8,0:0:0:0:
228,138,51289,1,8,0:0:0:0:
251,197,51637,1,4,0:0:0:0:
256,192,51812,12,0,56870,0:0:0:0:
264,164,57219,5,0,0:0:0:0:
263,164,57568,1,0,0:0:0:0:
263,164,57916,1,8,0:0:0:0:
263,164,58265,1,8,0:0:0:0:
263,164,58614,1,0,0:0:0:0:
263,164,59137,1,0,0:0:0:0:
263,164,59312,1,0,0:0:0:0:
263,164,60010,1,8,0:0:0:0:
263,164,60358,1,8,0:0:0:0:
263,164,60707,1,0,0:0:0:0:
263,164,61056,1,0,0:0:0:0:
263,164,61405,1,8,0:0:0:0:
263,164,61928,1,8,0:0:0:0:
263,164,62103,1,0,0:0:0:0:
263,164,62451,1,8,0:0:0:0:
263,164,62800,1,4,0:0:0:0:
269,182,62975,1,0,0:0:0:0:
269,182,63149,1,8,0:0:0:0:
269,187,63498,1,0,0:0:0:0:
269,187,63672,1,8,0:0:0:0:
269,187,63847,1,0,0:0:0:0:
266,184,64196,1,8,0:0:0:0:
266,184,64719,1,8,0:0:0:0:
266,184,64893,1,8,0:0:0:0:
266,184,65591,1,0,0:0:0:0:
266,184,65765,1,0,0:0:0:0:
266,184,65940,1,8,0:0:0:0:
266,184,66289,1,8,0:0:0:0:
266,184,66463,1,8,0:0:0:0:
266,184,66637,1,0,0:0:0:0:
266,184,66986,1,8,0:0:0:0:
266,184,67510,1,8,0:0:0:0:
266,184,67684,1,8,0:0:0:0:
266,184,68382,1,8,0:0:0:0:
266,184,68556,1,0,0:0:0:0:
266,184,68730,1,0,0:0:0:0:
266,184,69079,1,8,0:0:0:0:
266,184,69254,1,0,0:0:0:0:
266,184,69428,1,8,0:0:0:0:
266,184,69777,1,8,0:0:0:0:
266,184,70300,1,8,0:0:0:0:
266,184,70475,1,8,0:0:0:0:
266,184,71172,1,0,0:0:0:0:
266,184,71347,1,0,0:0:0:0:
266,184,71521,1,8,0:0:0:0:
266,184,71870,1,8,0:0:0:0:
266,184,72044,1,0,0:0:0:0:
266,184,72219,1,8,0:0:0:0:
266,184,72568,1,8,0:0:0:0:
231,130,73614,1,0,0:0:0:0:
231,130,73963,1,0,0:0:0:0:
252,166,74312,1,0,0:0:0:0:
252,166,74486,1,0,0:0:0:0:
268,159,74661,1,8,0:0:0:0:
268,159,75010,1,0,0:0:0:0:
237,141,75707,1,0,0:0:0:0:
237,141,76056,1,8,0:0:0:0:
242,124,76405,1,8,0:0:0:0:
242,124,76579,1,8,0:0:0:0:
242,124,76754,1,0,0:0:0:0:
242,124,77103,1,0,0:0:0:0:
242,124,77277,1,0,0:0:0:0:
242,124,77451,1,8,0:0:0:0:
242,124,77800,1,0,0:0:0:0:
242,124,78323,1,8,0:0:0:0:
242,124,78498,1,0,0:0:0:0:
242,124,78847,1,8,0:0:0:0:
242,124,79196,1,8,0:0:0:0:
242,124,79370,1,8,0:0:0:0:
249,146,79544,1,0,0:0:0:0:
255,9,79893,1,0,0:0:0:0:
249,146,80068,1,8,0:0:0:0:
249,146,80242,1,8,0:0:0:0:
249,146,80591,1,0,0:0:0:0:
196,181,80940,1,8,0:0:0:0:
196,181,81114,1,0,0:0:0:0:
196,181,81289,1,8,0:0:0:0:
196,181,81637,1,8,0:0:0:0:
196,181,81812,1,0,0:0:0:0:
196,181,81986,1,8,0:0:0:0:
196,181,82161,1,8,0:0:0:0:
196,181,82335,1,0,0:0:0:0:
222,159,83033,1,8,0:0:0:0:
242,168,83382,1,0,0:0:0:0:
259,164,84428,1,8,0:0:0:0:
145,154,85126,1,0,0:0:0:0:
145,154,85649,1,8,0:0:0:0:
145,154,85823,1,8,0:0:0:0:
145,154,86172,1,0,0:0:0:0:
145,154,86870,1,8,0:0:0:0:
145,154,87044,1,0,0:0:0:0:
145,154,87219,1,8,0:0:0:0:
197,158,87568,1,8,0:0:0:0:
197,158,87742,1,8,0:0:0:0:
210,173,87916,1,0,0:0:0:0:
260,184,88265,1,0,0:0:0:0:
260,184,88440,1,0,0:0:0:0:
260,184,88614,1,8,0:0:0:0:
252,197,88963,1,0,0:0:0:0:
252,197,89661,1,0,0:0:0:0:
252,197,90010,1,8,0:0:0:0:
272,186,90358,1,8,0:0:0:0:
272,186,90533,1,8,0:0:0:0:
220,151,90707,1,0,0:0:0:0:
283,178,91230,1,8,0:0:0:0:
307,175,91405,1,8,0:0:0:0:
310,190,91754,1,0,0:0:0:0:
310,190,91928,1,0,0:0:0:0:
310,190,92103,1,8,0:0:0:0:
310,190,92277,1,8,0:0:0:0:
306,191,92451,1,0,0:0:0:0:
306,191,92800,1,8,0:0:0:0:
234,207,93149,1,8,0:0:0:0:
234,207,93323,1,8,0:0:0:0:
270,200,93498,1,0,0:0:0:0:
187,195,93847,1,8,0:0:0:0:
187,195,94021,1,8,0:0:0:0:
270,200,94196,1,8,0:0:0:0:
270,200,94544,1,0,0:0:0:0:
265,197,94893,1,0,0:0:0:0:
265,197,95068,1,8,0:0:0:0:
265,197,95242,1,0,0:0:0:0:
265,197,95416,1,0,0:0:0:0:
270,200,95591,1,8,0:0:0:0:
182,150,95940,1,0,0:0:0:0:
182,150,96114,1,8,0:0:0:0:
270,200,96289,1,4,0:0:0:0:
272,193,107451,5,8,0:0:0:0:
272,193,107800,1,8,0:0:0:0:
272,193,107975,1,0,0:0:0:0:
272,193,108149,1,8,0:0:0:0:
272,193,108498,1,8,0:0:0:0:
272,193,108672,1,0,0:0:0:0:
272,193,108847,1,8,0:0:0:0:
272,193,109196,1,8,0:0:0:0:
272,193,109370,1,0,0:0:0:0:
272,193,109544,1,8,0:0:0:0:
272,193,109719,1,8,0:0:0:0:
272,193,109893,1,0,0:0:0:0:
272,193,110242,1,8,0:0:0:0:
272,193,110591,1,8,0:0:0:0:
272,193,110765,1,0,0:0:0:0:
272,193,110940,1,8,0:0:0:0:
272,193,111289,1,8,0:0:0:0:
206,126,111463,1,0,0:0:0:0:
272,193,111637,1,8,0:0:0:0:
206,126,111812,1,0,0:0:0:0:
272,193,111986,1,8,0:0:0:0:
272,193,112335,1,0,0:0:0:0:
225,169,113033,1,0,0:0:0:0:
225,169,113207,1,0,0:0:0:0:
225,169,113382,1,8,0:0:0:0:
225,169,113730,1,0,0:0:0:0:
225,169,113905,1,8,0:0:0:0:
228,142,114079,1,0,0:0:0:0:
225,169,114428,1,8,0:0:0:0:
225,169,114603,1,8,0:0:0:0:
225,169,114777,1,0,0:0:0:0:
225,169,115126,1,8,0:0:0:0:
225,169,115300,1,8,0:0:0:0:
225,169,115475,1,8,0:0:0:0:
228,142,115823,1,0,0:0:0:0:
186,184,115998,1,0,0:0:0:0:
228,142,116172,1,8,0:0:0:0:
228,142,116521,1,0,0:0:0:0:
186,184,116696,1,8,0:0:0:0:
228,142,116870,1,0,0:0:0:0:
228,142,117219,1,4,0:0:0:0:
228,142,118614,1,0,0:0:0:0:
369,139,118963,2,0,L|14:253,3,308.000009399414
229,169,121405,5,0,0:0:0:0:
197,152,121754,1,8,0:0:0:0:
197,152,121928,1,0,0:0:0:0:
229,169,122103,1,8,0:0:0:0:
197,152,122451,1,0,0:0:0:0:
197,152,122975,1,8,0:0:0:0:
197,152,123149,1,0,0:0:0:0:
197,152,123323,1,0,0:0:0:0:
197,152,123498,1,8,0:0:0:0:
197,152,123847,1,8,0:0:0:0:
197,152,124021,1,8,0:0:0:0:
229,169,124196,1,0,0:0:0:0:
197,152,124545,1,8,0:0:0:0:
197,152,124719,1,0,0:0:0:0:
229,169,124894,1,8,0:0:0:0:
186,172,125068,1,8,0:0:0:0:
197,152,125242,1,0,0:0:0:0:
197,152,125766,1,8,0:0:0:0:
197,152,125940,1,0,0:0:0:0:
197,152,126114,1,0,0:0:0:0:
197,152,126289,1,8,0:0:0:0:
197,152,126638,1,8,0:0:0:0:
197,152,126812,1,8,0:0:0:0:
229,169,126986,5,0,0:0:0:0:
197,152,127335,1,8,0:0:0:0:
197,152,127509,1,8,0:0:0:0:
229,169,127684,1,8,0:0:0:0:
197,152,128032,1,0,0:0:0:0:
202,145,128382,1,8,0:0:0:0:
202,145,128905,1,0,0:0:0:0:
197,152,129079,1,8,0:0:0:0:
229,169,129777,5,0,0:0:0:0:
210,144,130126,1,0,0:0:0:0:
210,144,130300,1,0,0:0:0:0:
210,144,130475,1,8,0:0:0:0:
186,172,130649,1,8,0:0:0:0:
197,152,130823,1,0,0:0:0:0:
197,152,131870,1,8,0:0:0:0:
201,145,132568,1,0,0:0:0:0:
201,145,132742,1,0,0:0:0:0:
201,145,132916,1,8,0:0:0:0:
201,145,133091,1,0,0:0:0:0:
201,145,133265,1,8,0:0:0:0:
201,145,133440,1,8,0:0:0:0:
201,145,133614,1,0,0:0:0:0:
270,186,133963,1,8,0:0:0:0:
201,145,134661,1,8,0:0:0:0:
229,185,135010,1,8,0:0:0:0:
201,145,135358,1,0,0:0:0:0:
201,145,135707,1,8,0:0:0:0:
201,145,135882,1,0,0:0:0:0:
201,145,136056,1,8,0:0:0:0:
201,145,136405,1,0,0:0:0:0:
229,191,136754,1,8,0:0:0:0:
231,204,136928,1,8,0:0:0:0:
236,182,137103,1,0,0:0:0:0:
201,145,137451,1,8,0:0:0:0:
201,145,138149,1,0,0:0:0:0:
201,145,138323,1,0,0:0:0:0:
201,145,138498,1,8,0:0:0:0:
201,145,138672,1,0,0:0:0:0:
201,145,138847,1,8,0:0:0:0:
201,145,139021,1,8,0:0:0:0:
201,145,139196,1,0,0:0:0:0:
259,169,139544,1,8,0:0:0:0:
201,145,139893,1,0,0:0:0:0:
201,145,140242,1,8,0:0:0:0:
205,149,140940,1,4,0:0:0:0:
