osu file format v14

[General]
AudioFilename: audio.mp3
AudioLeadIn: 0
PreviewTime: 121056
Countdown: 0
SampleSet: Normal
StackLeniency: 0.7
Mode: 1
LetterboxInBreaks: 0
WidescreenStoryboard: 0

[Editor]
Bookmarks: 6986,18149,23730,32103,37684,40475,46056,51637,54428,62800,73963,85126,96289,107451,113033,117219,118614,121405,140940
DistanceSpacing: 1.7
BeatDivisor: 4
GridSize: 32
TimelineZoom: 2.6

[Metadata]
Title:i hate when BOYS lie
TitleUnicode:i hate when BOYS lie
Artist:leroy
ArtistUnicode:leroy
Creator:sadgfdgdfsg
Version:>_<
Source:
Tags:dlztk c0ncernn jane remover dariacore 3​.​.​. at least i think thats what its called electronic english
BeatmapID:3986574
BeatmapSetID:1929929

[Difficulty]
HPDrainRate:7
CircleSize:5
OverallDifficulty:6
ApproachRate:5
SliderMultiplier:1.4
SliderTickRate:1

[Events]
//Background and Video events
0,0,"g-cdnTH3tZ6R0l8azWFzGJnDFEfuYiyFeIWw0LAfeokgRJZ8IZfDEgYLgAHpHmJgecCLBKmjLhdc_XmSAsMRIp2a.jpg",0,-40
//Break Periods
2,96489,106251
//Storyboard Layer 0 (Background)
//Storyboard Layer 1 (Fail)
//Storyboard Layer 2 (Pass)
//Storyboard Layer 3 (Foreground)
//Storyboard Layer 4 (Overlay)
//Storyboard Sound Samples

[TimingPoints]
10,348.837209302326,4,1,0,100,1,0
6986,-66.6666666666667,4,1,0,100,0,0
7160,-83.333336,4,1,0,100,0,0
7334,-86.20008,4,1,0,100,0,0
7509,-89.289375,4,1,0,100,0,0
7683,-92.58866,4,1,0,100,0,0
7857,-96.14112,4,1,0,100,0,0
8032,-100,4,1,0,100,0,0
8382,-83.3333333333333,4,1,0,100,0,0
8729,-83.333336,4,1,0,100,0,0
8904,-86.96736,4,1,0,100,0,0
9078,-90.90909,4,1,0,100,0,0
9253,-95.25109,4,1,0,100,0,0
9427,-100,4,1,0,100,0,0
9777,-90.9090909090909,4,1,0,100,0,0
10299,-90.90909,4,1,0,100,0,0
10474,-89.28023,4,1,0,100,0,0
10648,-87.71753,4,1,0,100,0,0
10822,-86.2086,4,1,0,100,0,0
10997,-84.74247,4,1,0,100,0,0
11171,-83.333336,4,1,0,100,0,0
11346,-85.11157,4,1,0,100,0,0
11520,-86.95652,4,1,0,100,0,0
11695,-88.89455,4,1,0,100,0,0
11869,-90.90909,4,1,0,100,0,0
12219,-76.9230769230769,4,1,0,100,0,0
12568,-83.3333333333333,4,1,0,100,0,0
12741,-83.333336,4,1,0,100,0,0
12915,-86.20008,4,1,0,100,0,0
13090,-89.289375,4,1,0,100,0,0
13264,-92.58866,4,1,0,100,0,0
13613,-100,4,1,0,100,0,0
13963,-83.3333333333333,4,1,0,100,0,0
14311,-83.333336,4,1,0,100,0,0
14485,-85.1012,4,1,0,100,0,0
14660,-86.95652,4,1,0,100,0,0
14834,-88.88323,4,1,0,100,0,0
15009,-90.90909,4,1,0,100,0,0
15358,-111.111109753086,4,1,0,100,0,0
15532,-111.11111,4,1,0,100,0,0
15706,-109.37919,4,1,0,100,0,0
15881,-107.69094,4,1,0,100,0,0
16055,-106.06324,4,1,0,100,0,0
16229,-104.48399,4,1,0,100,0,0
16404,-102.94241,4,1,0,100,0,0
16578,-101.45408,4,1,0,100,0,0
16753,-100,4,1,0,100,0,0
16927,-98.594955,4,1,0,100,0,0
17102,-97.221115,4,1,0,100,0,0
17276,-95.892555,4,1,0,100,0,0
17450,-94.59983,4,1,0,100,0,0
17799,-92.10923,4,1,0,100,0,0
17974,-90.90909,4,1,0,100,0,0
18149,-66.6666661777778,4,1,0,100,0,0
18497,-111.11111,4,1,0,100,0,0
18671,-109.80709,4,1,0,100,0,0
18846,-108.52609,4,1,0,100,0,0
19020,-107.28171,4,1,0,100,0,0
19195,-106.058624,4,1,0,100,0,0
19543,-103.70748,4,1,0,100,0,0
19892,-101.45198,4,1,0,100,0,0
20241,-99.2925,4,1,0,100,0,0
20415,-98.249855,4,1,0,100,0,0
20590,-97.22305,4,1,0,100,0,0
20939,-95.23809,4,1,0,100,0,0
21288,-93.332565,4,1,0,100,0,0
21462,-92.410736,4,1,0,100,0,0
21636,-91.50694,4,1,0,100,0,0
21811,-90.615616,4,1,0,100,0,0
21985,-89.74642,4,1,0,100,0,0
22160,-88.888885,4,1,0,100,0,0
22334,-88.05235,4,1,0,100,0,0
22509,-87.226746,4,1,0,100,0,0
22683,-86.42107,4,1,0,100,0,0
22857,-85.630135,4,1,0,100,0,0
23032,-84.84912,4,1,0,100,0,0
23206,-84.08657,4,1,0,100,0,0
23381,-83.333336,4,1,0,100,0,0
23729,-111.11112,4,1,0,100,0,0
23991,-108.10393,4,1,0,100,0,0
24078,-107.14104,4,1,0,100,0,0
24253,-105.255226,4,1,0,100,0,0
24427,-103.44487,4,1,0,100,0,0
24689,-100.833466,4,1,0,100,0,0
24776,-99.99523,4,1,0,100,0,0
24950,-98.35989,4,1,0,100,0,0
25125,-96.768234,4,1,0,100,0,0
25386,-94.48783,4,1,0,100,0,0
25474,-93.743004,4,1,0,100,0,0
25648,-92.304306,4,1,0,100,0,0
25822,-90.909096,4,1,0,100,0,0
25910,-90.21941,4,1,0,100,0,0
25997,-89.547775,4,1,0,100,0,0
26171,-88.23406,4,1,0,100,0,0
26346,-86.9511,4,1,0,100,0,0
26520,-85.71195,4,1,0,100,0,0
26782,-83.91132,4,1,0,100,0,0
26869,-83.33002,4,1,0,100,0,0
27043,-82.191246,4,1,0,100,0,0
27218,-81.0769,4,1,0,100,0,0
27479,-79.46995,4,1,0,100,0,0
27567,-78.942406,4,1,0,100,0,0
27741,-77.91966,4,1,0,100,0,0
27915,-76.92308,4,1,0,100,0,0
28265,-66.6666689777779,4,1,0,100,0,0
29311,-125.00001,4,1,0,100,0,0
29398,-121.06217,4,1,0,100,0,0
29485,-117.36485,4,1,0,100,0,0
29572,-113.88669,4,1,0,100,0,0
29660,-110.57216,4,1,0,100,0,0
29747,-107.479645,4,1,0,100,0,0
29834,-104.55541,4,1,0,100,0,0
29921,-101.78609,4,1,0,100,0,0
30009,-99.130264,4,1,0,100,0,0
30096,-96.63745,4,1,0,100,0,0
30183,-94.26692,4,1,0,100,0,0
30270,-92.00991,4,1,0,100,0,0
30357,-89.85845,4,1,0,100,0,0
30445,-87.78225,4,1,0,100,0,0
30532,-85.82186,4,1,0,100,0,0
30619,-83.94711,4,1,0,100,0,0
30706,-82.15251,4,1,0,100,0,0
30793,-80.433044,4,1,0,100,0,0
30881,-78.76551,4,1,0,100,0,0
30968,-77.18353,4,1,0,100,0,0
31055,-75.66386,4,1,0,100,0,0
31142,-74.20286,4,1,0,100,0,0
31229,-72.79722,4,1,0,100,0,0
31317,-71.42857,4,1,0,100,0,0
31405,-66.6666654222222,4,1,0,100,0,0
31754,-80,4,1,0,100,0,0
32103,-66.6666666666667,4,1,0,100,0,0
34892,-100,4,1,0,100,0,0
34979,-97.96396,4,1,0,100,0,0
35067,-95.98716,4,1,0,100,0,0
35154,-94.1097,4,1,0,100,0,0
35241,-92.3043,4,1,0,100,0,0
35328,-90.566864,4,1,0,100,0,0
35415,-88.89361,4,1,0,100,0,0
35503,-87.26287,4,1,0,100,0,0
35590,-85.708435,4,1,0,100,0,0
35677,-84.20841,4,1,0,100,0,0
35764,-82.75998,4,1,0,100,0,0
35852,-81.344734,4,1,0,100,0,0
35939,-79.992355,4,1,0,100,0,0
36026,-78.68421,4,1,0,100,0,0
36113,-77.41817,4,1,0,100,0,0
36200,-76.192215,4,1,0,100,0,0
36288,-74.99105,4,1,0,100,0,0
36375,-73.84018,4,1,0,100,0,0
36462,-72.72411,4,1,0,100,0,0
36549,-71.64127,4,1,0,100,0,0
36636,-70.59022,4,1,0,100,0,0
36724,-69.558,4,1,0,100,0,0
36811,-68.56675,4,1,0,100,0,0
36898,-67.603355,4,1,0,100,0,0
36985,-58.8235273356402,4,1,0,100,0,0
37335,-76.9230733727812,4,1,0,100,0,0
37683,-83.33333,4,1,0,100,0,0
37770,-82.597664,4,1,0,100,0,0
37857,-81.87487,4,1,0,100,0,0
37945,-81.156525,4,1,0,100,0,0
38032,-80.45863,4,1,0,100,0,0
38119,-79.77264,4,1,0,100,0,0
38206,-79.098236,4,1,0,100,0,0
38381,-77.77565,4,1,0,100,0,0
38555,-76.50376,4,1,0,100,0,0
38729,-75.2728,4,1,0,100,0,0
38817,-74.6652,4,1,0,100,0,0
38904,-74.07407,4,1,0,100,0,0
38991,-73.49223,4,1,0,100,0,0
39078,-72.919464,4,1,0,100,0,0
39253,-71.79397,4,1,0,100,0,0
39427,-70.708824,4,1,0,100,0,0
39602,-69.65004,4,1,0,100,0,0
39776,-68.62828,4,1,0,100,0,0
39950,-67.63606,4,1,0,100,0,0
40125,-66.666664,4,1,0,100,0,0
40474,-62.5,4,1,0,100,0,0
40648,-64.21584,4,1,0,100,0,0
40735,-65.10958,4,1,0,100,0,0
40822,-66.02855,4,1,0,100,0,0
40910,-66.98486,4,1,0,100,0,0
40997,-67.95792,4,1,0,100,0,0
41084,-68.95967,4,1,0,100,0,0
41171,-69.9914,4,1,0,100,0,0
41259,-71.06687,4,1,0,100,0,0
41346,-72.16312,4,1,0,100,0,0
41520,-74.4603,4,1,0,100,0,0
41695,-76.92307,4,1,0,100,0,0
42218,-99.999985,4,1,0,100,0,0
42305,-88.91719,4,1,0,100,0,0
42392,-80.04587,4,1,0,100,0,0
42479,-72.78416,4,1,0,100,0,0
42567,-66.666664,4,1,0,100,0,0
42916,-58.8235273356402,4,1,0,100,0,0
43264,-66.666664,4,1,0,100,0,0
43439,-68.63406,4,1,0,100,0,0
43526,-69.656,4,1,0,100,0,0
43613,-70.708824,4,1,0,100,0,0
43700,-71.79397,4,1,0,100,0,0
43788,-72.925995,4,1,0,100,0,0
43875,-74.08081,4,1,0,100,0,0
43962,-75.2728,4,1,0,100,0,0
44049,-76.50376,4,1,0,100,0,0
44136,-77.77565,4,1,0,100,0,0
44311,-80.46658,4,1,0,100,0,0
44485,-83.33333,4,1,0,100,0,0
45010,-55.5555540740741,4,1,0,100,0,0
45707,-99.9999952000002,4,1,0,100,0,0
46055,-62.5,4,1,0,100,0,0
46229,-64.21584,4,1,0,100,0,0
46317,-65.119995,4,1,0,100,0,0
46404,-66.03927,4,1,0,100,0,0
46578,-67.95792,4,1,0,100,0,0
46665,-68.95967,4,1,0,100,0,0
46840,-71.06687,4,1,0,100,0,0
46927,-72.16312,4,1,0,100,0,0
47102,-74.47392,4,1,0,100,0,0
47276,-76.92307,4,1,0,100,0,0
47800,-58.8235253633217,4,1,0,100,0,0
48148,-83.33333,4,1,0,100,0,0
48235,-81.08527,4,1,0,100,0,0
48322,-78.95531,4,1,0,100,0,0
48410,-76.91176,4,1,0,100,0,0
48497,-74.99282,4,1,0,100,0,0
48555,-73.76586,4,1,0,100,0,0
48613,-72.5784,4,1,0,100,0,0
48672,-71.4285654591837,4,1,0,100,0,0
48846,-62.5,4,1,0,100,0,0
48933,-63.633522,4,1,0,100,0,0
49020,-64.80891,4,1,0,100,0,0
49195,-67.30981,4,1,0,100,0,0
49282,-68.62634,4,1,0,100,0,0
49369,-69.995415,4,1,0,100,0,0
49456,-71.42021,4,1,0,100,0,0
49631,-74.46938,4,1,0,100,0,0
49718,-76.08424,4,1,0,100,0,0
49805,-77.7707,4,1,0,100,0,0
49892,-79.53361,4,1,0,100,0,0
50067,-83.33333,4,1,0,100,0,0
50591,-55.5555540740741,4,1,0,100,0,0
50939,-99.999985,4,1,0,100,0,0
51113,-93.7612,4,1,0,100,0,0
51288,-88.225365,4,1,0,100,0,0
51462,-83.33333,4,1,0,100,0,0
51637,-55.5555540740741,4,1,0,100,0,0
51812,-33.3333328,4,1,0,100,0,0
52335,-125,4,1,0,100,0,0
57219,-125,4,1,0,100,0,0
58614,-100,4,1,0,100,0,0
60010,-125,4,1,0,100,0,0
61405,-90.9090909090909,4,1,0,100,0,0
61927,-90.90909,4,1,0,100,0,0
62102,-95.25109,4,1,0,100,0,0
62189,-97.56779,4,1,0,100,0,0
62276,-100,4,1,0,100,0,0
62451,-55.5555555555556,4,1,0,100,0,0
62799,-58.823532,4,1,0,100,0,0
62857,-59.306908,4,1,0,100,0,0
62915,-59.798294,4,1,0,100,0,0
62974,-60.306576,4,1,0,100,0,0
63032,-60.81474,4,1,0,100,0,0
63090,-61.331535,4,1,0,100,0,0
63148,-61.857193,4,1,0,100,0,0
63235,-62.662792,4,1,0,100,0,0
63322,-63.489655,4,1,0,100,0,0
63410,-64.348526,4,1,0,100,0,0
63497,-65.22078,4,1,0,100,0,0
63584,-66.11701,4,1,0,100,0,0
63671,-67.038216,4,1,0,100,0,0
63759,-67.99649,4,1,0,100,0,0
63846,-68.9712,4,1,0,100,0,0
63962,-70.315125,4,1,0,100,0,0
64078,-71.71246,4,1,0,100,0,0
64195,-73.17926,4,1,0,100,0,0
64369,-75.475105,4,1,0,100,0,0
64543,-77.91966,4,1,0,100,0,0
64718,-80.54337,4,1,0,100,0,0
64892,-83.333336,4,1,0,100,0,0
65242,-100,4,1,0,100,0,0
65591,-111.111115851852,4,1,0,100,0,0
66986,-83.3333360000001,4,1,0,100,0,0
68033,-100.00000384,4,1,0,100,0,0
68382,-111.111115851852,4,1,0,100,0,0
69777,-83.3333360000001,4,1,0,100,0,0
70823,-100.00000384,4,1,0,100,0,0
71172,-111.111115851852,4,1,0,100,0,0
72916,-50,4,1,0,100,0,0
73614,-58.8235294117647,4,1,0,100,0,0
73963,-142.85715,4,1,0,100,0,1
74049,-136.85483,4,1,0,100,0,1
74136,-131.33655,4,1,0,100,0,1
74224,-126.18981,4,1,0,100,0,1
74311,-121.483315,4,1,0,100,0,1
74398,-117.115265,4,1,0,100,0,1
74485,-113.05042,4,1,0,100,0,1
74572,-109.25828,4,1,0,100,0,1
74660,-105.67287,4,1,0,100,0,1
74747,-102.35226,4,1,0,100,0,1
74834,-99.23397,4,1,0,100,0,1
74921,-96.30007,4,1,0,100,0,1
75009,-93.503815,4,1,0,100,0,1
75096,-90.89451,4,1,0,100,0,1
75183,-88.42688,4,1,0,100,0,1
75270,-86.08969,4,1,0,100,0,1
75357,-83.87288,4,1,0,100,0,1
75445,-81.743774,4,1,0,100,0,1
75532,-79.74252,4,1,0,100,0,1
75619,-77.836914,4,1,0,100,0,1
75706,-76.020256,4,1,0,100,0,1
75793,-74.28646,4,1,0,100,0,1
75881,-72.61138,4,1,0,100,0,1
75968,-71.02798,4,1,0,100,0,1
76055,-69.51216,4,1,0,100,0,1
76229,-66.666664,4,1,0,100,0,1
76405,-100,4,1,0,100,0,0
76754,-142.85713,4,1,0,100,0,1
76840,-136.85481,4,1,0,100,0,1
76927,-131.33655,4,1,0,100,0,1
77015,-126.189804,4,1,0,100,0,1
77102,-121.48329,4,1,0,100,0,1
77189,-117.11526,4,1,0,100,0,1
77276,-113.050415,4,1,0,100,0,1
77363,-109.25828,4,1,0,100,0,1
77451,-105.67287,4,1,0,100,0,1
77538,-102.35225,4,1,0,100,0,1
77625,-99.23396,4,1,0,100,0,1
77712,-96.30007,4,1,0,100,0,1
77800,-93.50381,4,1,0,100,0,1
77887,-90.89451,4,1,0,100,0,1
77974,-88.42688,4,1,0,100,0,1
78061,-86.08969,4,1,0,100,0,1
78148,-83.87287,4,1,0,100,0,1
78236,-81.743774,4,1,0,100,0,1
78323,-79.74252,4,1,0,100,0,1
78410,-77.836914,4,1,0,100,0,1
78497,-76.020256,4,1,0,100,0,1
78584,-74.28646,4,1,0,100,0,1
78672,-72.61138,4,1,0,100,0,1
78759,-71.02798,4,1,0,100,0,1
78846,-69.51216,4,1,0,100,0,1
79020,-66.666664,4,1,0,100,0,1
79196,-100,4,1,0,100,0,0
79544,-142.85713,4,1,0,100,0,1
79630,-136.85735,4,1,0,100,0,1
79717,-131.3412,4,1,0,100,0,1
79805,-126.196304,4,1,0,100,0,1
79892,-121.49131,4,1,0,100,0,1
79979,-117.12456,4,1,0,100,0,1
80066,-113.060814,4,1,0,100,0,1
80153,-109.2696,4,1,0,100,0,1
80241,-105.68499,4,1,0,100,0,1
80328,-102.36504,4,1,0,100,0,1
80415,-99.24734,4,1,0,100,0,1
80502,-96.3139,4,1,0,100,0,1
80590,-93.51806,4,1,0,100,0,1
80677,-90.90909,4,1,0,100,0,1
80764,-88.44174,4,1,0,100,0,1
80851,-86.104774,4,1,0,100,0,1
80938,-83.888145,4,1,0,100,0,1
81026,-81.759186,4,1,0,100,0,1
81113,-79.75805,4,1,0,100,0,1
81200,-77.85253,4,1,0,100,0,1
81287,-76.03594,4,1,0,100,0,1
81374,-74.30219,4,1,0,100,0,1
81462,-72.62713,4,1,0,100,0,1
81549,-71.04373,4,1,0,100,0,1
81636,-69.52789,4,1,0,100,0,1
81811,-66.666664,4,1,0,100,0,1
81986,-100,4,1,0,100,0,0
82335,-71.4285683673471,4,1,0,100,0,0
82946,-62.4999976562501,4,1,0,100,0,0
83033,-55.5555537037038,4,1,0,100,0,0
83382,-71.4285683673471,4,1,0,100,0,0
85126,-62.5,4,1,0,100,0,1
85212,-63.03612,4,1,0,100,0,1
85299,-63.58151,4,1,0,100,0,1
85386,-64.13644,4,1,0,100,0,1
85474,-64.707664,4,1,0,100,0,1
85561,-65.2825,4,1,0,100,0,1
85648,-65.867645,4,1,0,100,0,1
85735,-66.46337,4,1,0,100,0,1
85822,-67.06997,4,1,0,100,0,1
85910,-67.694916,4,1,0,100,0,1
85997,-68.32431,4,1,0,100,0,1
86084,-68.965515,4,1,0,100,0,1
86171,-69.618866,4,1,0,100,0,1
86259,-70.29246,4,1,0,100,0,1
86346,-70.97132,4,1,0,100,0,1
86433,-71.66342,4,1,0,100,0,1
86520,-72.36916,4,1,0,100,0,1
86607,-73.088936,4,1,0,100,0,1
86695,-73.83171,4,1,0,100,0,1
86782,-74.58101,4,1,0,100,0,1
86869,-75.34569,4,1,0,100,0,1
86927,-75.86425,4,1,0,100,0,1
86985,-76.38999,4,1,0,100,0,1
87043,-76.92307,4,1,0,100,0,1
87218,-83.33333,4,1,0,100,0,1
87305,-81.08107,4,1,0,100,0,1
87392,-78.94737,4,1,0,100,0,1
87479,-76.92307,4,1,0,100,0,1
87568,-55.5555519444444,4,1,0,100,0,0
87916,-58.823524,4,1,0,100,0,1
88003,-59.60968,4,1,0,100,0,1
88090,-60.407845,4,1,0,100,0,1
88177,-61.22767,4,1,0,100,0,1
88264,-62.070053,4,1,0,100,0,1
88352,-62.946026,4,1,0,100,0,1
88439,-63.8367,4,1,0,100,0,1
88526,-64.75294,4,1,0,100,0,1
88613,-65.69587,4,1,0,100,0,1
88700,-66.666664,4,1,0,100,0,1
88788,-67.678246,4,1,0,100,0,1
88875,-68.70897,4,1,0,100,0,1
88962,-69.77157,4,1,0,100,0,1
89049,-70.86756,4,1,0,100,0,1
89136,-71.998535,4,1,0,100,0,1
89224,-73.17982,4,1,0,100,0,1
89311,-74.38643,4,1,0,100,0,1
89398,-75.63349,4,1,0,100,0,1
89485,-76.92307,4,1,0,100,0,1
89661,-55.5555519444444,4,1,0,100,0,0
90010,-62.5,4,1,0,100,0,1
90096,-63.82719,4,1,0,100,0,1
90183,-65.21196,4,1,0,100,0,1
90358,-68.16997,4,1,0,100,0,0
90415,-69.216515,4,1,0,100,0,0
90474,-70.3146,4,1,0,100,0,0
90533,-71.4285654591837,4,1,0,100,0,0
90707,-58.823524,4,1,0,100,0,1
90793,-59.877766,4,1,0,100,0,1
90881,-60.98328,4,1,0,100,0,1
90968,-62.117104,4,1,0,100,0,1
91055,-63.293888,4,1,0,100,0,1
91142,-64.51612,4,1,0,100,0,1
91229,-65.78649,4,1,0,100,0,1
91317,-67.12339,4,1,0,100,0,1
91404,-68.4996,4,1,0,100,0,1
91491,-69.93343,4,1,0,100,0,1
91578,-71.428566,4,1,0,100,0,1
91753,-62.5,4,1,0,100,0,1
91840,-63.99779,4,1,0,100,0,1
91927,-65.569145,4,1,0,100,0,1
92014,-67.2196,4,1,0,100,0,1
92102,-68.97575,4,1,0,100,0,1
92189,-70.80455,4,1,0,100,0,1
92276,-72.73296,4,1,0,100,0,1
92363,-74.76936,4,1,0,100,0,1
92451,-76.92307,4,1,0,100,0,0
92626,-58.8235253633217,4,1,0,100,0,0
92800,-55.5555519444444,4,1,0,100,0,1
93149,-76.92307,4,1,0,100,0,0
93498,-58.823524,4,1,0,100,0,1
93584,-59.404533,4,1,0,100,0,1
93671,-59.997128,4,1,0,100,0,1
93759,-60.60869,4,1,0,100,0,1
93846,-61.225677,4,1,0,100,0,1
93933,-61.85536,4,1,0,100,0,1
94020,-62.498127,4,1,0,100,0,1
94107,-63.1544,4,1,0,100,0,1
94195,-63.83238,4,1,0,100,0,1
94282,-64.51712,4,1,0,100,0,1
94369,-65.21671,4,1,0,100,0,1
94456,-65.93163,4,1,0,100,0,1
94543,-66.662415,4,1,0,100,0,1
94631,-67.41826,4,1,0,100,0,1
94718,-68.182556,4,1,0,100,0,1
94805,-68.96438,4,1,0,100,0,1
94892,-69.764336,4,1,0,100,0,1
94979,-70.58308,4,1,0,100,0,1
95067,-71.43101,4,1,0,100,0,1
95154,-72.289566,4,1,0,100,0,1
95241,-73.16902,4,1,0,100,0,1
95328,-74.07014,4,1,0,100,0,1
95415,-74.99373,4,1,0,100,0,1
95503,-75.95166,4,1,0,100,0,1
95591,-76.92307,4,1,0,100,0,0
95764,-66.666664,4,1,0,100,0,0
95852,-68.98597,4,1,0,100,0,0
95939,-71.44319,4,1,0,100,0,0
96026,-74.08193,4,1,0,100,0,0
96113,-76.92307,4,1,0,100,0,0
96289,-52.6315789473684,4,1,0,100,0,0
97684,-142.857142857143,4,1,0,100,0,0
99079,-125,4,1,0,100,0,0
100475,-111.111111111111,4,1,0,100,0,0
101870,-99.9999999999999,4,1,0,100,0,0
103265,-90.9090909090909,4,1,0,100,0,0
104661,-83.3333333333333,4,1,0,100,0,0
106056,-76.9230769230769,4,1,0,100,0,0
107450,-166.66667,4,1,0,100,0,0
107712,-160.10748,4,1,0,100,0,0
107799,-158.04216,4,1,0,100,0,0
107974,-154.04504,4,1,0,100,0,0
108148,-150.26628,4,1,0,100,0,0
108410,-144.91376,4,1,0,100,0,0
108497,-143.21971,4,1,0,100,0,0
108671,-139.94777,4,1,0,100,0,0
108846,-136.80443,4,1,0,100,0,0
109107,-132.3702,4,1,0,100,0,0
109195,-130.93922,4,1,0,100,0,0
109369,-128.19896,4,1,0,100,0,0
109543,-125.57105,4,1,0,100,0,0
109631,-124.282585,4,1,0,100,0,0
109718,-123.0345,4,1,0,100,0,0
109892,-120.612045,4,1,0,100,0,0
110067,-118.27003,4,1,0,100,0,0
110241,-116.029854,4,1,0,100,0,0
110503,-112.81238,4,1,0,100,0,0
110590,-111.78308,4,1,0,100,0,0
110764,-109.779816,4,1,0,100,0,0
110939,-107.8362,4,1,0,100,0,0
111200,-105.06198,4,1,0,100,0,0
111288,-104.15852,4,1,0,100,0,0
111375,-103.28047,4,1,0,100,0,0
111462,-102.41711,4,1,0,100,0,0
111636,-100.73295,4,1,0,100,0,0
111898,-98.299,4,1,0,100,0,0
111985,-97.5166,4,1,0,100,0,0
112160,-95.97991,4,1,0,100,0,0
112334,-94.49928,4,1,0,100,0,0
112421,-93.77596,4,1,0,100,0,0
112509,-93.05551,4,1,0,100,0,0
112683,-91.66308,4,1,0,100,0,0
113032,-88.99217,4,1,0,100,0,0
113293,-87.094284,4,1,0,100,0,0
113381,-86.472496,4,1,0,100,0,0
113555,-85.26884,4,1,0,100,0,0
113729,-84.09822,4,1,0,100,0,0
113991,-82.39498,4,1,0,100,0,0
114078,-81.84456,4,1,0,100,0,0
114253,-80.75935,4,1,0,100,0,0
114427,-79.70852,4,1,0,100,0,0
114689,-78.17683,4,1,0,100,0,0
114776,-77.681145,4,1,0,100,0,0
114950,-76.708405,4,1,0,100,0,0
115125,-75.75434,4,1,0,100,0,0
115299,-74.82897,4,1,0,100,0,0
115474,-73.920815,4,1,0,100,0,0
115648,-73.03944,4,1,0,100,0,0
115822,-72.17883,4,1,0,100,0,0
116084,-70.92057,4,1,0,100,0,0
116171,-70.5124,4,1,0,100,0,0
116346,-69.70542,4,1,0,100,0,0
116520,-68.92117,4,1,0,100,0,0
116782,-67.77302,4,1,0,100,0,0
116869,-67.40017,4,1,0,100,0,0
117043,-66.666664,4,1,0,100,0,0
117219,-52.6315789473684,4,1,0,100,0,0
118613,-58.823532,4,1,0,100,0,0
118700,-59.847874,4,1,0,100,0,0
118788,-60.920948,4,1,0,100,0,0
118875,-62.02033,4,1,0,100,0,0
118962,-63.160122,4,1,0,100,0,0
119049,-64.34258,4,1,0,100,0,0
119136,-65.570175,4,1,0,100,0,0
119224,-66.860466,4,1,0,100,0,0
119311,-68.187,4,1,0,100,0,0
119398,-69.567245,4,1,0,100,0,0
119485,-71.00451,4,1,0,100,0,0
119572,-72.502426,4,1,0,100,0,0
119660,-74.08325,4,1,0,100,0,0
119776,-76.27551,4,1,0,100,0,0
119892,-78.60148,4,1,0,100,0,0
120009,-81.09574,4,1,0,100,0,0
120125,-83.73005,4,1,0,100,0,0
120241,-86.541245,4,1,0,100,0,0
120357,-89.54777,4,1,0,100,0,0
120532,-94.500626,4,1,0,100,0,0
120706,-100,4,1,0,100,0,0
121056,-142.857142857143,4,1,0,100,0,0
121405,-100,4,1,0,100,0,1
122450,-66.666664,4,1,0,100,0,1
122538,-68.39114,4,1,0,100,0,1
122625,-70.18602,4,1,0,100,0,1
122712,-72.07765,4,1,0,100,0,1
122799,-74.07407,4,1,0,100,0,1
122886,-76.18424,4,1,0,100,0,1
122974,-78.444595,4,1,0,100,0,1
123061,-80.8151,4,1,0,100,0,1
123148,-83.333336,4,1,0,100,0,1
123322,-83.333336,4,1,0,100,0,1
123381,-81.056046,4,1,0,100,0,1
123439,-78.93551,4,1,0,100,0,1
123497,-76.92308,4,1,0,100,0,1
123672,-83.3333360000001,4,1,0,100,0,1
123847,-66.6666683733334,4,1,0,100,0,0
124196,-83.3333360000001,4,1,0,100,0,1
125241,-62.5,4,1,0,100,0,1
125328,-64.51016,4,1,0,100,0,1
125415,-66.65393,4,1,0,100,0,1
125503,-68.97233,4,1,0,100,0,1
125590,-71.42857,4,1,0,100,0,1
125677,-74.06621,4,1,0,100,0,1
125764,-76.90613,4,1,0,100,0,1
125852,-80.00917,4,1,0,100,0,1
125939,-83.333336,4,1,0,100,0,1
126637,-62.5000015,4,1,0,100,0,0
126986,-83.3333360000001,4,1,0,100,0,1
127334,-71.42857,4,1,0,100,0,1
127421,-75.459465,4,1,0,100,0,1
127509,-80.02752,4,1,0,100,0,1
127596,-85.12195,4,1,0,100,0,1
127683,-90.90909,4,1,0,100,0,1
127857,-83.333336,4,1,0,100,0,1
127945,-79.98173,4,1,0,100,0,1
128032,-76.92308,4,1,0,100,0,1
128381,-62.500004,4,1,0,100,0,1
128468,-62.991417,4,1,0,100,0,1
128555,-63.49062,4,1,0,100,0,1
128642,-63.997807,4,1,0,100,0,1
128729,-64.513145,4,1,0,100,0,1
128817,-65.04293,4,1,0,100,0,1
128904,-65.575325,4,1,0,100,0,1
128991,-66.1165,4,1,0,100,0,1
129079,-66.6666700000002,4,1,0,100,0,0
129428,-83.333338541667,4,1,0,100,0,0
129603,-76.923081360947,4,1,0,100,0,0
129777,-62.5000029296876,4,1,0,100,0,1
130822,-55.55556,4,1,0,100,0,1
130910,-56.828545,4,1,0,100,0,1
130997,-58.145737,4,1,0,100,0,1
131084,-59.525436,4,1,0,100,0,1
131171,-60.97221,4,1,0,100,0,1
131259,-62.508957,4,1,0,100,0,1
131346,-64.10633,4,1,0,100,0,1
131433,-65.78749,4,1,0,100,0,1
131520,-67.55921,4,1,0,100,0,1
131695,-71.42857,4,1,0,100,0,1
131870,-62.49999890625,4,1,0,100,0,0
132219,-58.8235284429066,4,1,0,100,0,0
132568,-66.6666654222222,4,1,0,100,0,1
132915,-62.5,4,1,0,100,0,1
133003,-63.50073,4,1,0,100,0,1
133090,-64.52209,4,1,0,100,0,1
133177,-65.57685,4,1,0,100,0,1
133264,-66.666664,4,1,0,100,0,1
133613,-62.5,4,1,0,100,0,1
133700,-63.489174,4,1,0,100,0,1
133788,-64.52209,4,1,0,100,0,1
133875,-65.57685,4,1,0,100,0,1
133962,-66.666664,4,1,0,100,0,1
134312,-71.4285683673471,4,1,0,100,0,1
134661,-58.8235273356402,4,1,0,100,0,0
135010,-83.3333291666669,4,1,0,100,0,0
135358,-58.823532,4,1,0,100,0,1
135445,-60.16204,4,1,0,100,0,1
135532,-61.546597,4,1,0,100,0,1
135619,-62.996387,4,1,0,100,0,1
135706,-64.51613,4,1,0,100,0,1
135793,-66.11101,4,1,0,100,0,1
135881,-67.80649,4,1,0,100,0,1
135968,-69.57041,4,1,0,100,0,1
136055,-71.428566,4,1,0,100,0,1
136404,-58.823532,4,1,0,100,0,1
136491,-59.877773,4,1,0,100,0,1
136578,-60.970497,4,1,0,100,0,1
136665,-62.103836,4,1,0,100,0,1
136753,-63.29389,4,1,0,100,0,1
136840,-64.51613,4,1,0,100,0,1
136927,-65.78649,4,1,0,100,0,1
137014,-67.107895,4,1,0,100,0,1
137102,-68.4996,4,1,0,100,0,1
137189,-69.93343,4,1,0,100,0,1
137276,-71.428566,4,1,0,100,0,1
137451,-83.33333,4,1,0,100,0,0
137625,-78.93944,4,1,0,100,0,0
137799,-75.00716,4,1,0,100,0,0
137974,-71.428566,4,1,0,100,0,0
138149,-66.6666619377777,4,1,0,100,0,1
138322,-62.5,4,1,0,100,0,1
138410,-64.52802,4,1,0,100,0,1
138497,-66.666664,4,1,0,100,0,1
138846,-58.823524,4,1,0,100,0,1
138933,-60.6008,4,1,0,100,0,1
139020,-62.488808,4,1,0,100,0,1
139107,-64.498245,4,1,0,100,0,1
139195,-66.666664,4,1,0,100,0,1
139543,-58.823524,4,1,0,100,0,1
139631,-60.162033,4,1,0,100,0,1
139718,-61.546593,4,1,0,100,0,1
139805,-62.99638,4,1,0,100,0,1
139892,-64.51612,4,1,0,100,0,1
139979,-66.11099,4,1,0,100,0,1
140067,-67.80649,4,1,0,100,0,1
140154,-69.57041,4,1,0,100,0,1
140242,-71.428566,4,1,0,100,0,0
140415,-90.90908,4,1,0,100,0,0
140503,-86.17629,4,1,0,100,0,0
140590,-81.95798,4,1,0,100,0,0
140677,-78.13337,4,1,0,100,0,0
140764,-74.6498,4,1,0,100,0,0
140852,-71.428566,4,1,0,100,0,0
140940,-55.5555555555556,4,1,0,100,0,0

[HitObjects]
238,189,6986,5,4,0:0:0:0:
255,200,7161,1,8,0:0:0:0:
255,200,7335,1,8,0:0:0:0:
255,200,7510,1,0,0:0:0:0:
255,200,7684,1,8,0:0:0:0:
255,200,7858,1,8,0:0:0:0:
255,200,8033,1,0,0:0:0:0:
255,200,8730,1,0,0:0:0:0:
255,200,8905,1,8,0:0:0:0:
255,200,9079,1,8,0:0:0:0:
255,200,9254,1,0,0:0:0:0:
255,200,9428,1,8,0:0:0:0:
223,191,10300,1,8,0:0:0:0:
223,191,10475,1,8,0:0:0:0:
223,191,10649,1,0,0:0:0:0:
223,191,10823,1,0,0:0:0:0:
223,191,10998,1,8,0:0:0:0:
223,191,11172,1,0,0:0:0:0:
223,191,11347,1,8,0:0:0:0:
223,191,11521,1,8,0:0:0:0:
223,191,11696,1,0,0:0:0:0:
223,191,11870,1,8,0:0:0:0:
223,191,12219,1,8,0:0:0:0:
223,191,12393,1,8,0:0:0:0:
230,192,12742,1,0,0:0:0:0:
230,192,12916,1,0,0:0:0:0:
230,192,13091,1,0,0:0:0:0:
230,192,13265,1,8,0:0:0:0:
230,192,13614,1,8,0:0:0:0:
230,192,14312,1,8,0:0:0:0:
230,192,14486,1,0,0:0:0:0:
230,192,14661,1,8,0:0:0:0:
230,192,14835,1,0,0:0:0:0:
230,192,15010,1,8,0:0:0:0:
248,182,15533,1,0,0:0:0:0:
248,182,15707,1,8,0:0:0:0:
248,182,15882,1,0,0:0:0:0:
248,182,16056,1,8,0:0:0:0:
248,182,16230,1,8,0:0:0:0:
248,182,16405,1,0,0:0:0:0:
248,182,16579,1,0,0:0:0:0:
248,182,16754,1,8,0:0:0:0:
248,182,16928,1,0,0:0:0:0:
248,182,17103,1,8,0:0:0:0:
248,182,17277,1,8,0:0:0:0:
248,182,17451,1,8,0:0:0:0:
248,182,17800,1,8,0:0:0:0:
248,182,17975,1,0,0:0:0:0:
248,182,18149,1,12,0:0:0:0:
303,179,18498,1,8,0:0:0:0:
283,208,18672,1,0,0:0:0:0:
303,178,18847,1,8,0:0:0:0:
283,208,19021,1,8,0:0:0:0:
303,178,19196,1,0,0:0:0:0:
303,178,19544,1,8,0:0:0:0:
303,178,19893,1,8,0:0:0:0:
303,178,20242,1,8,0:0:0:0:
283,208,20416,1,0,0:0:0:0:
303,178,20591,1,8,0:0:0:0:
303,178,20940,1,8,0:0:0:0:
303,178,21289,1,8,0:0:0:0:
283,208,21463,1,0,0:0:0:0:
303,178,21637,1,8,0:0:0:0:
283,208,21812,1,0,0:0:0:0:
303,178,21986,1,8,0:0:0:0:
283,208,22161,1,8,0:0:0:0:
303,178,22335,1,0,0:0:0:0:
266,195,22510,1,0,0:0:0:0:
303,178,22684,1,8,0:0:0:0:
268,194,22858,1,0,0:0:0:0:
303,178,23033,1,8,0:0:0:0:
268,194,23207,1,8,0:0:0:0:
303,178,23382,1,0,0:0:0:0:
274,189,23730,1,8,0:0:0:0:
274,189,23992,1,0,0:0:0:0:
274,189,24079,1,8,0:0:0:0:
274,189,24254,1,0,0:0:0:0:
274,189,24428,1,8,0:0:0:0:
274,189,24690,1,0,0:0:0:0:
274,189,24777,1,8,0:0:0:0:
265,182,24951,1,0,0:0:0:0:
265,182,25126,1,8,0:0:0:0:
265,182,25387,1,8,0:0:0:0:
265,182,25475,1,0,0:0:0:0:
265,182,25649,1,8,0:0:0:0:
265,182,25823,1,8,0:0:0:0:
241,143,25911,1,0,0:0:0:0:
241,143,25998,1,8,0:0:0:0:
241,143,26172,1,8,0:0:0:0:
241,143,26347,1,0,0:0:0:0:
241,143,26521,1,8,0:0:0:0:
241,143,26783,1,0,0:0:0:0:
241,143,26870,1,8,0:0:0:0:
241,143,27044,1,0,0:0:0:0:
241,143,27219,1,8,0:0:0:0:
241,143,27480,1,0,0:0:0:0:
241,143,27568,1,8,0:0:0:0:
241,143,27742,1,0,0:0:0:0:
241,143,27916,1,8,0:0:0:0:
241,143,28265,1,8,0:0:0:0:
241,143,28353,1,8,0:0:0:0:
241,143,28440,1,8,0:0:0:0:
241,143,28527,1,8,0:0:0:0:
241,143,28614,1,0,0:0:0:0:
241,143,28963,1,8,0:0:0:0:
241,143,29312,1,0,0:0:0:0:
236,165,29399,1,8,0:0:0:0:
236,165,29486,1,8,0:0:0:0:
236,165,29573,1,8,0:0:0:0:
236,165,29661,1,0,0:0:0:0:
236,165,29748,1,0,0:0:0:0:
236,165,29835,1,8,0:0:0:0:
236,165,29922,1,8,0:0:0:0:
236,165,30010,1,0,0:0:0:0:
236,165,30097,1,8,0:0:0:0:
236,165,30184,1,8,0:0:0:0:
236,165,30271,1,8,0:0:0:0:
236,165,30358,1,0,0:0:0:0:
236,165,30446,1,0,0:0:0:0:
236,165,30533,1,8,0:0:0:0:
236,165,30620,1,8,0:0:0:0:
236,165,30707,1,0,0:0:0:0:
236,165,30794,1,8,0:0:0:0:
236,165,30882,1,8,0:0:0:0:
236,165,30969,1,8,0:0:0:0:
236,165,31056,1,0,0:0:0:0:
236,165,31143,1,0,0:0:0:0:
236,165,31230,1,8,0:0:0:0:
236,165,31318,1,0,0:0:0:0:
236,165,31405,1,8,0:0:0:0:
254,179,31754,1,8,0:0:0:0:
254,179,31812,1,8,0:0:0:0:
254,179,31870,1,8,0:0:0:0:
241,183,32103,5,0,0:0:0:0:
254,189,32190,1,0,0:0:0:0:
274,196,32277,1,8,0:0:0:0:
274,196,32364,1,8,0:0:0:0:
254,189,32451,1,0,0:0:0:0:
254,189,32626,1,8,0:0:0:0:
254,189,32713,1,0,0:0:0:0:
268,182,32800,1,8,0:0:0:0:
245,191,32975,1,8,0:0:0:0:
245,191,33062,1,8,0:0:0:0:
245,203,33149,1,0,0:0:0:0:
245,191,33323,1,8,0:0:0:0:
245,191,33411,1,8,0:0:0:0:
245,191,33498,1,8,0:0:0:0:
245,191,33585,1,8,0:0:0:0:
245,191,33672,1,0,0:0:0:0:
245,203,33847,1,0,0:0:0:0:
274,202,33934,1,8,0:0:0:0:
274,202,34021,1,0,0:0:0:0:
274,202,34108,1,0,0:0:0:0:
245,203,34196,1,8,0:0:0:0:
243,192,34370,1,8,0:0:0:0:
243,192,34457,1,0,0:0:0:0:
261,213,34544,1,8,0:0:0:0:
243,192,34719,1,8,0:0:0:0:
245,203,34893,1,0,0:0:0:0:
337,195,34980,1,0,0:0:0:0:
247,207,35068,1,8,0:0:0:0:
247,207,35155,1,8,0:0:0:0:
247,207,35242,1,8,0:0:0:0:
247,207,35329,1,8,0:0:0:0:
247,207,35416,1,8,0:0:0:0:
247,207,35504,1,8,0:0:0:0:
247,207,35591,1,8,0:0:0:0:
247,207,35678,1,8,0:0:0:0:
247,207,35765,1,0,0:0:0:0:
221,197,35853,1,0,0:0:0:0:
230,192,35940,1,8,0:0:0:0:
247,207,36027,1,0,0:0:0:0:
247,207,36114,1,0,0:0:0:0:
247,207,36201,1,0,0:0:0:0:
247,207,36289,1,8,0:0:0:0:
247,207,36376,1,0,0:0:0:0:
247,207,36463,1,8,0:0:0:0:
247,207,36550,1,8,0:0:0:0:
247,207,36637,1,0,0:0:0:0:
247,207,36725,1,8,0:0:0:0:
247,207,36812,1,0,0:0:0:0:
247,207,36899,1,0,0:0:0:0:
230,192,36986,1,8,0:0:0:0:
277,193,37335,1,8,0:0:0:0:
277,193,37393,1,8,0:0:0:0:
277,193,37451,1,8,0:0:0:0:
263,190,37684,5,0,0:0:0:0:
258,186,37771,1,0,0:0:0:0:
263,190,37858,1,8,0:0:0:0:
263,190,37946,1,8,0:0:0:0:
263,190,38033,1,0,0:0:0:0:
263,190,38120,1,8,0:0:0:0:
263,190,38207,1,0,0:0:0:0:
263,190,38382,1,8,0:0:0:0:
263,190,38556,1,8,0:0:0:0:
263,190,38730,1,0,0:0:0:0:
238,175,38818,1,8,0:0:0:0:
258,186,38905,1,8,0:0:0:0:
245,166,38992,1,8,0:0:0:0:
245,166,39079,1,0,0:0:0:0:
252,184,39254,1,8,0:0:0:0:
228,178,39428,1,0,0:0:0:0:
228,178,39603,1,0,0:0:0:0:
252,184,39777,1,8,0:0:0:0:
217,153,39951,1,0,0:0:0:0:
252,184,40126,1,8,0:0:0:0:
244,182,40475,1,0,0:0:0:0:
244,182,40649,1,8,0:0:0:0:
244,182,40736,1,0,0:0:0:0:
244,182,40823,1,8,0:0:0:0:
244,182,40911,1,0,0:0:0:0:
244,182,40998,1,0,0:0:0:0:
208,170,41085,1,8,0:0:0:0:
243,168,41172,1,0,0:0:0:0:
243,168,41260,1,8,0:0:0:0:
228,174,41347,1,8,0:0:0:0:
228,174,41521,1,0,0:0:0:0:
199,193,41696,2,0,L|269:178,4,45.5000024299623
278,172,42219,1,8,0:0:0:0:
278,172,42306,1,0,0:0:0:0:
272,178,42393,1,8,0:0:0:0:
228,174,42480,1,0,0:0:0:0:
228,174,42568,1,8,0:0:0:0:
243,196,42916,1,8,0:0:0:0:
243,196,42975,1,8,0:0:0:0:
243,196,43033,1,8,0:0:0:0:
263,180,43265,1,0,0:0:0:0:
263,180,43440,1,8,0:0:0:0:
263,180,43527,1,0,0:0:0:0:
263,180,43614,1,8,0:0:0:0:
242,187,43701,1,0,0:0:0:0:
242,187,43789,1,8,0:0:0:0:
263,180,43876,1,8,0:0:0:0:
242,187,43963,1,0,0:0:0:0:
263,180,44050,1,8,0:0:0:0:
263,180,44137,1,8,0:0:0:0:
263,180,44312,1,0,0:0:0:0:
257,169,44486,2,0,L|320:164,4,42.0000025634767
277,201,45010,1,0,0:0:0:0:
246,164,45358,5,8,0:0:0:0:
250,142,45707,1,8,0:0:0:0:
272,192,45765,1,8,0:0:0:0:
272,192,45823,1,0,0:0:0:0:
250,142,45882,1,8,0:0:0:0:
254,160,46056,1,0,0:0:0:0:
250,153,46230,1,8,0:0:0:0:
255,166,46318,1,0,0:0:0:0:
230,171,46405,1,8,0:0:0:0:
230,171,46579,1,0,0:0:0:0:
230,171,46666,1,8,0:0:0:0:
230,171,46841,1,8,0:0:0:0:
230,171,46928,1,8,0:0:0:0:
234,148,47103,1,0,0:0:0:0:
243,156,47277,2,0,L|432:124,1,182.000009719849
238,215,47800,1,12,0:0:0:0:
250,175,48149,5,8,0:0:0:0:
285,171,48236,1,0,0:0:0:0:
285,171,48323,1,0,0:0:0:0:
285,171,48411,1,0,0:0:0:0:
285,171,48498,1,8,0:0:0:0:
282,160,48556,1,8,0:0:0:0:
282,160,48614,1,0,0:0:0:0:
232,190,48847,1,0,0:0:0:0:
257,208,48934,1,0,0:0:0:0:
257,208,49021,1,8,0:0:0:0:
256,190,49196,1,8,0:0:0:0:
237,188,49283,1,0,0:0:0:0:
237,188,49370,1,0,0:0:0:0:
256,190,49457,1,8,0:0:0:0:
256,190,49632,1,8,0:0:0:0:
256,190,49719,1,8,0:0:0:0:
237,188,49806,1,0,0:0:0:0:
257,200,49893,1,0,0:0:0:0:
212,201,50068,2,0,L|308:186,2,84.0000051269534
256,192,50591,12,0,50765,0:0:0:0:
257,206,50940,5,8,0:0:0:0:
267,187,51114,1,0,0:0:0:0:
257,206,51289,1,8,0:0:0:0:
267,187,51463,1,0,0:0:0:0:
255,195,51637,1,4,0:0:0:0:
256,192,51812,12,0,57044,0:0:0:0:
241,189,57219,5,0,0:0:0:0:
245,186,57393,1,8,0:0:0:0:
210,177,57568,1,0,0:0:0:0:
210,177,57916,1,8,0:0:0:0:
210,177,58265,1,8,0:0:0:0:
210,177,58614,1,0,0:0:0:0:
210,177,59137,1,0,0:0:0:0:
210,177,59312,1,0,0:0:0:0:
210,177,60010,1,8,0:0:0:0:
235,189,60184,1,8,0:0:0:0:
210,177,60358,1,0,0:0:0:0:
210,177,60707,1,0,0:0:0:0:
210,177,61056,1,8,0:0:0:0:
210,177,61405,1,0,0:0:0:0:
210,177,61928,1,0,0:0:0:0:
210,177,62103,1,8,0:0:0:0:
210,177,62190,1,8,0:0:0:0:
210,177,62277,1,0,0:0:0:0:
210,177,62451,1,8,0:0:0:0:
204,178,62800,1,8,0:0:0:0:
204,178,62858,1,0,0:0:0:0:
204,178,62916,1,0,0:0:0:0:
204,178,62975,1,8,0:0:0:0:
197,161,63062,1,0,0:0:0:0:
197,161,63149,1,8,0:0:0:0:
230,169,63236,1,0,0:0:0:0:
230,169,63323,1,8,0:0:0:0:
230,169,63411,1,0,0:0:0:0:
230,169,63498,1,8,0:0:0:0:
230,169,63585,1,8,0:0:0:0:
230,169,63672,1,0,0:0:0:0:
230,169,63760,1,0,0:0:0:0:
230,169,63847,1,8,0:0:0:0:
217,149,63963,1,0,0:0:0:0:
217,149,64079,1,0,0:0:0:0:
217,149,64196,1,8,0:0:0:0:
211,155,64370,1,0,0:0:0:0:
211,155,64544,1,0,0:0:0:0:
221,147,64719,1,8,0:0:0:0:
221,147,64893,1,8,0:0:0:0:
250,164,65242,1,8,0:0:0:0:
250,164,65329,1,8,0:0:0:0:
250,164,65416,1,8,0:0:0:0:
221,147,65591,1,0,0:0:0:0:
221,147,65765,1,0,0:0:0:0:
221,147,65940,1,8,0:0:0:0:
221,147,66114,1,8,0:0:0:0:
221,147,66289,1,0,0:0:0:0:
221,147,66463,1,8,0:0:0:0:
221,147,66637,1,0,0:0:0:0:
221,147,66986,1,8,0:0:0:0:
221,147,67510,1,8,0:0:0:0:
221,147,67684,1,8,0:0:0:0:
205,160,68033,1,8,0:0:0:0:
205,160,68120,1,8,0:0:0:0:
205,160,68207,1,0,0:0:0:0:
221,147,68382,1,8,0:0:0:0:
221,147,68556,1,8,0:0:0:0:
221,147,68730,1,0,0:0:0:0:
221,147,68905,1,0,0:0:0:0:
221,147,69079,1,8,0:0:0:0:
221,147,69254,1,0,0:0:0:0:
221,147,69428,1,8,0:0:0:0:
221,147,69777,1,8,0:0:0:0:
221,147,70300,1,8,0:0:0:0:
221,147,70475,1,8,0:0:0:0:
259,146,70823,1,8,0:0:0:0:
259,146,70911,1,8,0:0:0:0:
259,146,70998,1,0,0:0:0:0:
221,147,71172,1,8,0:0:0:0:
221,147,71347,1,0,0:0:0:0:
221,147,71521,1,8,0:0:0:0:
221,147,71696,1,8,0:0:0:0:
221,147,71870,1,8,0:0:0:0:
221,147,72044,1,0,0:0:0:0:
221,147,72219,1,8,0:0:0:0:
256,192,72916,12,0,73440,0:0:0:0:
221,147,73614,5,0,0:0:0:0:
226,158,73963,5,0,0:0:0:0:
225,167,74050,1,0,0:0:0:0:
225,167,74137,1,8,0:0:0:0:
225,167,74225,1,0,0:0:0:0:
225,167,74312,1,8,0:0:0:0:
225,167,74399,1,8,0:0:0:0:
225,167,74486,1,0,0:0:0:0:
225,167,74573,1,0,0:0:0:0:
225,167,74661,1,8,0:0:0:0:
225,167,74748,1,0,0:0:0:0:
225,167,74835,1,8,0:0:0:0:
225,167,74922,1,8,0:0:0:0:
225,167,75010,1,0,0:0:0:0:
225,167,75097,1,0,0:0:0:0:
225,167,75184,1,8,0:0:0:0:
225,167,75271,1,8,0:0:0:0:
225,167,75358,1,0,0:0:0:0:
225,167,75446,1,8,0:0:0:0:
225,167,75533,1,0,0:0:0:0:
225,167,75620,1,8,0:0:0:0:
225,167,75707,1,0,0:0:0:0:
225,167,75794,1,8,0:0:0:0:
225,167,75882,1,8,0:0:0:0:
225,167,75969,1,0,0:0:0:0:
225,167,76056,1,8,0:0:0:0:
252,179,76230,1,0,0:0:0:0:
225,167,76405,1,8,0:0:0:0:
225,167,76463,1,8,0:0:0:0:
225,167,76521,1,8,0:0:0:0:
226,158,76754,5,0,0:0:0:0:
225,167,76841,1,8,0:0:0:0:
225,167,76928,1,8,0:0:0:0:
225,167,77016,1,8,0:0:0:0:
225,167,77103,1,0,0:0:0:0:
225,167,77190,1,0,0:0:0:0:
225,167,77277,1,8,0:0:0:0:
225,167,77364,1,0,0:0:0:0:
225,167,77452,1,8,0:0:0:0:
225,167,77539,1,8,0:0:0:0:
225,167,77626,1,0,0:0:0:0:
225,167,77713,1,8,0:0:0:0:
225,167,77801,1,0,0:0:0:0:
225,167,77888,1,8,0:0:0:0:
225,167,77975,1,8,0:0:0:0:
225,167,78062,1,8,0:0:0:0:
225,167,78149,1,8,0:0:0:0:
225,167,78237,1,8,0:0:0:0:
225,167,78324,1,8,0:0:0:0:
225,167,78411,1,8,0:0:0:0:
225,167,78498,1,0,0:0:0:0:
225,167,78585,1,0,0:0:0:0:
225,167,78673,1,8,0:0:0:0:
225,167,78760,1,0,0:0:0:0:
225,167,78847,1,8,0:0:0:0:
255,176,79021,1,0,0:0:0:0:
225,167,79196,1,8,0:0:0:0:
225,167,79254,1,8,0:0:0:0:
225,167,79312,1,8,0:0:0:0:
226,158,79544,5,0,0:0:0:0:
225,167,79631,1,0,0:0:0:0:
225,167,79718,1,8,0:0:0:0:
225,167,79806,1,8,0:0:0:0:
225,167,79893,1,8,0:0:0:0:
225,167,79980,1,8,0:0:0:0:
225,167,80067,1,0,0:0:0:0:
225,167,80154,1,0,0:0:0:0:
225,167,80242,1,8,0:0:0:0:
225,167,80329,1,0,0:0:0:0:
225,167,80416,1,8,0:0:0:0:
225,167,80503,1,8,0:0:0:0:
225,167,80591,1,0,0:0:0:0:
225,167,80678,1,0,0:0:0:0:
225,167,80765,1,8,0:0:0:0:
225,167,80852,1,0,0:0:0:0:
225,167,80939,1,8,0:0:0:0:
225,167,81027,1,8,0:0:0:0:
225,167,81114,1,8,0:0:0:0:
225,167,81201,1,8,0:0:0:0:
225,167,81288,1,0,0:0:0:0:
225,167,81375,1,0,0:0:0:0:
225,167,81463,1,8,0:0:0:0:
225,167,81550,1,0,0:0:0:0:
225,167,81637,1,8,0:0:0:0:
255,176,81812,1,0,0:0:0:0:
225,167,81986,1,8,0:0:0:0:
225,167,82044,1,8,0:0:0:0:
225,167,82102,1,8,0:0:0:0:
227,176,82335,5,0,0:0:0:0:
189,164,82684,1,0,0:0:0:0:
207,160,82946,1,8,0:0:0:0:
207,160,83033,1,8,0:0:0:0:
189,164,83382,1,0,0:0:0:0:
194,186,83730,1,8,0:0:0:0:
189,164,84079,1,8,0:0:0:0:
189,164,84428,1,8,0:0:0:0:
189,164,84603,1,8,0:0:0:0:
189,164,84777,1,8,0:0:0:0:
233,186,85126,1,0,0:0:0:0:
233,186,85213,1,0,0:0:0:0:
233,186,85300,1,8,0:0:0:0:
233,186,85387,1,0,0:0:0:0:
233,186,85475,1,8,0:0:0:0:
233,186,85562,1,0,0:0:0:0:
233,186,85649,1,0,0:0:0:0:
225,195,85736,1,8,0:0:0:0:
225,195,85823,1,8,0:0:0:0:
233,186,85911,1,0,0:0:0:0:
233,186,85998,1,0,0:0:0:0:
233,186,86085,1,8,0:0:0:0:
233,186,86172,1,0,0:0:0:0:
233,186,86260,1,8,0:0:0:0:
233,186,86347,1,8,0:0:0:0:
233,186,86434,1,8,0:0:0:0:
233,186,86521,1,0,0:0:0:0:
233,186,86608,1,0,0:0:0:0:
233,186,86696,1,8,0:0:0:0:
249,153,86783,1,8,0:0:0:0:
249,153,86870,1,0,0:0:0:0:
249,153,86928,1,0,0:0:0:0:
249,153,86986,1,0,0:0:0:0:
249,153,87044,1,8,0:0:0:0:
233,186,87219,1,8,0:0:0:0:
232,202,87306,1,0,0:0:0:0:
232,202,87393,1,0,0:0:0:0:
232,202,87480,1,0,0:0:0:0:
240,174,87568,1,8,0:0:0:0:
240,174,87626,1,8,0:0:0:0:
240,174,87684,1,8,0:0:0:0:
241,195,87916,1,0,0:0:0:0:
241,195,88004,1,0,0:0:0:0:
241,195,88091,1,8,0:0:0:0:
241,195,88178,1,8,0:0:0:0:
241,195,88265,1,8,0:0:0:0:
241,195,88353,1,8,0:0:0:0:
241,195,88440,1,0,0:0:0:0:
241,195,88527,1,0,0:0:0:0:
241,195,88614,1,8,0:0:0:0:
241,195,88701,1,0,0:0:0:0:
241,195,88789,1,8,0:0:0:0:
241,195,88876,1,8,0:0:0:0:
241,195,88963,1,0,0:0:0:0:
241,195,89050,1,0,0:0:0:0:
241,195,89137,1,8,0:0:0:0:
241,195,89225,1,8,0:0:0:0:
241,195,89312,1,8,0:0:0:0:
241,195,89399,1,8,0:0:0:0:
241,195,89486,1,0,0:0:0:0:
241,195,89661,1,0,0:0:0:0:
208,159,89835,1,8,0:0:0:0:
208,159,90010,1,8,0:0:0:0:
236,193,90097,1,0,0:0:0:0:
236,193,90184,1,0,0:0:0:0:
236,193,90358,1,8,0:0:0:0:
236,193,90416,1,8,0:0:0:0:
236,193,90475,1,8,0:0:0:0:
236,193,90707,1,0,0:0:0:0:
236,193,90794,1,0,0:0:0:0:
236,193,90882,1,8,0:0:0:0:
236,193,90969,1,8,0:0:0:0:
236,193,91056,1,0,0:0:0:0:
236,193,91143,1,0,0:0:0:0:
236,193,91230,1,8,0:0:0:0:
236,193,91318,1,0,0:0:0:0:
236,193,91405,1,8,0:0:0:0:
236,193,91492,1,8,0:0:0:0:
236,193,91579,1,0,0:0:0:0:
236,193,91754,1,0,0:0:0:0:
236,193,91841,1,8,0:0:0:0:
236,193,91928,1,8,0:0:0:0:
236,193,92015,1,8,0:0:0:0:
239,176,92103,1,0,0:0:0:0:
239,176,92190,1,0,0:0:0:0:
239,176,92277,1,8,0:0:0:0:
239,176,92364,1,0,0:0:0:0:
239,176,92451,1,8,0:0:0:0:
203,148,92626,1,0,0:0:0:0:
239,176,92800,1,8,0:0:0:0:
225,160,93149,1,8,0:0:0:0:
225,160,93207,1,8,0:0:0:0:
225,160,93265,1,8,0:0:0:0:
243,179,93498,1,0,0:0:0:0:
243,179,93585,1,0,0:0:0:0:
243,179,93672,1,8,0:0:0:0:
243,179,93760,1,0,0:0:0:0:
250,180,93847,1,8,0:0:0:0:
243,179,93934,1,8,0:0:0:0:
243,179,94021,1,8,0:0:0:0:
250,180,94108,1,0,0:0:0:0:
250,180,94196,1,8,0:0:0:0:
250,180,94283,1,0,0:0:0:0:
250,180,94370,1,0,0:0:0:0:
250,180,94457,1,8,0:0:0:0:
250,180,94544,1,0,0:0:0:0:
250,180,94632,1,0,0:0:0:0:
250,180,94719,1,8,0:0:0:0:
250,180,94806,1,8,0:0:0:0:
250,180,94893,1,8,0:0:0:0:
250,180,94980,1,8,0:0:0:0:
250,180,95068,1,0,0:0:0:0:
250,180,95155,1,0,0:0:0:0:
250,180,95242,1,8,0:0:0:0:
250,180,95329,1,8,0:0:0:0:
250,180,95416,1,0,0:0:0:0:
250,180,95504,1,0,0:0:0:0:
250,180,95591,1,8,0:0:0:0:
250,180,95765,1,8,0:0:0:0:
250,180,95853,1,0,0:0:0:0:
250,180,95940,1,8,0:0:0:0:
250,180,96027,1,0,0:0:0:0:
250,180,96114,1,8,0:0:0:0:
250,180,96289,1,4,0:0:0:0:
225,200,107451,5,0,0:0:0:0:
225,200,107713,1,8,0:0:0:0:
225,200,107800,1,0,0:0:0:0:
197,204,107975,1,8,0:0:0:0:
197,204,108149,1,0,0:0:0:0:
211,180,108411,1,8,0:0:0:0:
211,180,108498,1,0,0:0:0:0:
211,180,108672,1,8,0:0:0:0:
211,180,108847,1,0,0:0:0:0:
211,180,109108,1,8,0:0:0:0:
211,180,109196,1,0,0:0:0:0:
211,180,109370,1,8,0:0:0:0:
211,180,109544,1,0,0:0:0:0:
211,180,109632,1,8,0:0:0:0:
211,180,109719,1,8,0:0:0:0:
211,180,109893,1,0,0:0:0:0:
211,180,110068,1,8,0:0:0:0:
211,180,110242,1,0,0:0:0:0:
211,180,110504,1,8,0:0:0:0:
211,180,110591,1,0,0:0:0:0:
211,180,110765,1,8,0:0:0:0:
211,180,110940,1,0,0:0:0:0:
214,165,111201,1,8,0:0:0:0:
211,180,111289,1,0,0:0:0:0:
214,165,111376,1,8,0:0:0:0:
214,165,111463,1,8,0:0:0:0:
214,165,111637,1,0,0:0:0:0:
214,165,111899,1,8,0:0:0:0:
214,165,111986,1,0,0:0:0:0:
214,165,112161,1,8,0:0:0:0:
214,165,112335,1,0,0:0:0:0:
214,165,112422,1,8,0:0:0:0:
214,165,112510,1,8,0:0:0:0:
214,165,112684,1,0,0:0:0:0:
199,162,113033,1,8,0:0:0:0:
206,173,113294,1,0,0:0:0:0:
206,173,113382,1,8,0:0:0:0:
206,173,113556,1,0,0:0:0:0:
206,173,113730,1,8,0:0:0:0:
206,173,113992,1,0,0:0:0:0:
206,173,114079,1,8,0:0:0:0:
206,173,114254,1,0,0:0:0:0:
206,173,114428,1,8,0:0:0:0:
206,173,114690,1,0,0:0:0:0:
206,173,114777,1,8,0:0:0:0:
206,173,114951,1,0,0:0:0:0:
206,173,115126,1,8,0:0:0:0:
185,152,115300,1,0,0:0:0:0:
206,173,115475,1,8,0:0:0:0:
185,152,115649,1,0,0:0:0:0:
185,152,115823,1,8,0:0:0:0:
185,152,116085,1,0,0:0:0:0:
185,152,116172,1,8,0:0:0:0:
185,152,116347,1,0,0:0:0:0:
185,152,116521,1,8,0:0:0:0:
185,152,116783,1,0,0:0:0:0:
185,152,116870,1,8,0:0:0:0:
185,152,117044,1,8,0:0:0:0:
185,152,117219,1,4,0:0:0:0:
254,197,118614,1,8,0:0:0:0:
254,197,118701,1,0,0:0:0:0:
254,197,118789,1,8,0:0:0:0:
254,197,118876,1,0,0:0:0:0:
254,197,118963,1,8,0:0:0:0:
254,197,119050,1,8,0:0:0:0:
254,197,119137,1,0,0:0:0:0:
254,197,119225,1,8,0:0:0:0:
254,197,119312,1,0,0:0:0:0:
254,197,119399,1,0,0:0:0:0:
254,197,119486,1,8,0:0:0:0:
254,197,119573,1,0,0:0:0:0:
254,197,119661,1,8,0:0:0:0:
272,179,119777,1,0,0:0:0:0:
272,179,119893,1,0,0:0:0:0:
272,179,120010,1,8,0:0:0:0:
272,179,120126,1,8,0:0:0:0:
272,179,120242,1,8,0:0:0:0:
272,179,120358,1,0,0:0:0:0:
253,176,120533,1,0,0:0:0:0:
253,176,120707,1,8,0:0:0:0:
283,193,121056,1,8,0:0:0:0:
283,193,121143,1,0,0:0:0:0:
283,193,121230,1,8,0:0:0:0:
283,193,121405,5,0,0:0:0:0:
283,193,121579,1,8,0:0:0:0:
282,195,121754,1,0,0:0:0:0:
282,195,121841,1,0,0:0:0:0:
282,195,121928,1,8,0:0:0:0:
282,195,122015,1,0,0:0:0:0:
282,195,122103,1,8,0:0:0:0:
282,195,122277,1,8,0:0:0:0:
282,195,122451,1,0,0:0:0:0:
282,195,122539,1,0,0:0:0:0:
282,195,122626,1,8,0:0:0:0:
282,195,122713,1,0,0:0:0:0:
282,195,122800,1,8,0:0:0:0:
282,195,122887,1,8,0:0:0:0:
282,195,122975,1,0,0:0:0:0:
282,195,123062,1,8,0:0:0:0:
282,195,123149,1,0,0:0:0:0:
271,198,123323,1,0,0:0:0:0:
271,198,123382,1,0,0:0:0:0:
271,198,123440,1,0,0:0:0:0:
282,195,123498,1,8,0:0:0:0:
282,195,123672,1,0,0:0:0:0:
279,176,123847,1,8,0:0:0:0:
279,176,123905,1,8,0:0:0:0:
279,176,123963,1,8,0:0:0:0:
270,198,124196,1,0,0:0:0:0:
282,200,124370,1,8,0:0:0:0:
282,200,124457,1,8,0:0:0:0:
282,200,124544,1,0,0:0:0:0:
282,200,124719,1,8,0:0:0:0:
282,200,124806,1,0,0:0:0:0:
282,200,124893,1,8,0:0:0:0:
282,200,125068,1,0,0:0:0:0:
282,200,125242,1,0,0:0:0:0:
282,200,125329,1,0,0:0:0:0:
282,200,125416,1,8,0:0:0:0:
282,200,125504,1,0,0:0:0:0:
282,200,125591,1,8,0:0:0:0:
282,200,125678,1,8,0:0:0:0:
282,200,125765,1,8,0:0:0:0:
282,200,125853,1,8,0:0:0:0:
282,200,125940,1,0,0:0:0:0:
282,200,126114,1,0,0:0:0:0:
282,200,126289,1,8,0:0:0:0:
282,200,126463,1,8,0:0:0:0:
251,186,126637,1,0,0:0:0:0:
251,186,126696,1,8,0:0:0:0:
251,186,126754,1,8,0:0:0:0:
251,186,126812,1,0,0:0:0:0:
298,197,126986,1,0,0:0:0:0:
298,197,127161,1,8,0:0:0:0:
298,197,127335,1,0,0:0:0:0:
286,165,127422,1,8,0:0:0:0:
298,197,127510,1,0,0:0:0:0:
286,165,127597,1,0,0:0:0:0:
298,197,127684,1,8,0:0:0:0:
265,178,127858,1,0,0:0:0:0:
286,165,127946,1,8,0:0:0:0:
265,178,128033,1,0,0:0:0:0:
265,178,128207,1,8,0:0:0:0:
265,178,128382,1,0,0:0:0:0:
286,165,128469,1,0,0:0:0:0:
265,178,128556,1,8,0:0:0:0:
286,165,128643,1,8,0:0:0:0:
265,178,128730,1,0,0:0:0:0:
286,165,128818,1,0,0:0:0:0:
265,178,128905,1,8,0:0:0:0:
286,165,128992,1,0,0:0:0:0:
265,178,129079,1,8,0:0:0:0:
265,178,129428,1,0,0:0:0:0:
265,178,129603,1,8,0:0:0:0:
265,178,129777,5,0,0:0:0:0:
230,180,130126,1,8,0:0:0:0:
230,180,130300,1,0,0:0:0:0:
190,173,130387,1,0,0:0:0:0:
230,180,130475,1,8,0:0:0:0:
230,180,130649,1,0,0:0:0:0:
230,180,130823,1,0,0:0:0:0:
230,180,130911,1,0,0:0:0:0:
230,180,130998,1,8,0:0:0:0:
230,180,131085,1,0,0:0:0:0:
230,180,131172,1,8,0:0:0:0:
235,149,131260,1,8,0:0:0:0:
235,149,131347,1,0,0:0:0:0:
235,149,131434,1,0,0:0:0:0:
235,149,131521,1,8,0:0:0:0:
235,149,131696,1,0,0:0:0:0:
235,149,131870,1,8,0:0:0:0:
228,145,132219,1,0,0:0:0:0:
228,145,132277,1,8,0:0:0:0:
228,145,132335,1,8,0:0:0:0:
228,145,132393,1,0,0:0:0:0:
229,159,132568,5,0,0:0:0:0:
229,159,132742,1,8,0:0:0:0:
229,159,132916,1,0,0:0:0:0:
229,159,133004,1,0,0:0:0:0:
229,159,133091,1,8,0:0:0:0:
229,159,133178,1,0,0:0:0:0:
229,159,133265,1,8,0:0:0:0:
228,164,133440,1,0,0:0:0:0:
228,164,133614,1,0,0:0:0:0:
218,120,133701,1,0,0:0:0:0:
218,120,133789,1,8,0:0:0:0:
218,120,133876,1,8,0:0:0:0:
218,120,133963,1,0,0:0:0:0:
265,181,134137,1,8,0:0:0:0:
214,114,134312,1,0,0:0:0:0:
214,114,134399,1,8,0:0:0:0:
214,114,134486,1,0,0:0:0:0:
228,137,134661,1,8,0:0:0:0:
235,147,135010,1,0,0:0:0:0:
235,147,135184,1,8,0:0:0:0:
205,155,135358,1,0,0:0:0:0:
205,155,135446,1,0,0:0:0:0:
205,155,135533,1,8,0:0:0:0:
205,155,135620,1,0,0:0:0:0:
205,155,135707,1,8,0:0:0:0:
205,155,135794,1,8,0:0:0:0:
205,155,135882,1,0,0:0:0:0:
205,155,135969,1,0,0:0:0:0:
205,155,136056,1,8,0:0:0:0:
205,155,136230,1,0,0:0:0:0:
205,155,136405,1,0,0:0:0:0:
205,155,136492,1,0,0:0:0:0:
205,155,136579,1,8,0:0:0:0:
205,155,136666,1,0,0:0:0:0:
205,155,136754,1,8,0:0:0:0:
205,155,136841,1,8,0:0:0:0:
205,155,136928,1,8,0:0:0:0:
205,155,137015,1,8,0:0:0:0:
205,155,137103,1,0,0:0:0:0:
205,155,137190,1,0,0:0:0:0:
205,155,137277,1,8,0:0:0:0:
205,155,137451,1,8,0:0:0:0:
201,137,137626,1,0,0:0:0:0:
201,137,137800,1,0,0:0:0:0:
201,137,137975,1,8,0:0:0:0:
237,164,138149,1,0,0:0:0:0:
237,164,138323,1,8,0:0:0:0:
237,164,138411,1,8,0:0:0:0:
237,164,138498,1,0,0:0:0:0:
237,164,138672,1,0,0:0:0:0:
237,164,138847,1,8,0:0:0:0:
237,164,138934,1,8,0:0:0:0:
237,164,139021,1,0,0:0:0:0:
237,164,139108,1,8,0:0:0:0:
237,164,139196,1,0,0:0:0:0:
237,164,139370,1,0,0:0:0:0:
237,164,139544,1,8,0:0:0:0:
237,164,139632,1,8,0:0:0:0:
237,164,139719,1,0,0:0:0:0:
237,164,139806,1,8,0:0:0:0:
237,164,139893,1,0,0:0:0:0:
237,164,139980,1,0,0:0:0:0:
237,164,140068,1,8,0:0:0:0:
237,164,140155,1,0,0:0:0:0:
237,164,140242,1,8,0:0:0:0:
237,164,140416,1,0,0:0:0:0:
237,164,140504,1,8,0:0:0:0:
237,164,140591,1,0,0:0:0:0:
237,164,140678,1,8,0:0:0:0:
237,164,140765,1,0,0:0:0:0:
237,164,140853,1,8,0:0:0:0:
237,164,140940,1,4,0:0:0:0:
